#VERSION:0.83;
#TITLE:Nishiazabu suidou kyoku;
#SUBTITLE:;
#ARTIST:Simonman;
#TITLETRANSLIT:;
#SUBTITLETRANSLIT:;
#ARTISTTRANSLIT:;
#GENRE:PERCUSSIVE 2;
#ORIGIN:;
#CREDIT:;
#BANNER:;
#BACKGROUND:;
#PREVIEWVID:;
#JACKET:;
#CDIMAGE:;
#DISCIMAGE:;
#LYRICSPATH:;
#CDTITLE:;
#MUSIC:Nishiazabu suidou kyoku.mp3;
#OFFSET:0.140000;
#SAMPLESTART:6.200000;
#SAMPLELENGTH:17.600000;
#SELECTABLE:YES;
#DISPLAYBPM:*;
#BPMS:0.000=124.000,
1.000=248.000,
35.000=496.000,
47.500=124.000,
51.000=62.000,
51.750=124.000,
54.750=62.000,
55.500=124.000,
58.500=62.000,
59.250=124.000,
62.250=62.000,
63.000=124.000,
66.000=62.000,
66.750=124.000,
69.750=62.000,
70.500=124.000,
73.500=62.000,
74.250=124.000,
77.250=248.000,
80.000=124.000,
103.250=248.000,
112.250=496.000,
124.000=124.000,
127.000=62.000,
128.000=124.000,
131.000=62.000,
132.000=124.000,
135.000=62.000,
136.000=124.000,
139.000=248.000,
143.000=124.000,
146.000=62.000,
147.250=124.000,
150.250=62.000,
151.500=124.000,
203.000=248.000,
270.000=496.000,
289.000=1000.000,
290.000=500.000,
291.000=250.000,
292.000=62.000,
304.000=248.000,
317.000=496.000,
336.000=124.000,
344.000=248.000,
353.000=124.000,
361.000=248.000,
369.000=124.000,
378.000=248.000,
387.000=124.000,
395.000=248.000,
398.000=124.000,
413.000=248.000,
416.000=124.000,
416.500=248.000,
418.500=124.000,
419.000=248.000,
421.000=124.000,
421.500=248.000,
422.000=124.000,
422.500=248.000,
423.000=124.000,
423.500=248.000,
424.000=124.000,
424.500=248.000,
429.000=496.000,
437.000=984.000,
457.000=870.000,
458.000=760.000,
459.000=640.000,
460.000=530.000,
461.000=440.000,
462.000=300.000,
463.000=210.000,
464.000=110.000,
465.000=90.000,
466.000=70.000,
466.500=50.000,
467.000=48.000;
#STOPS:0.979=0.200,
35.000=0.120,
36.000=0.260,
47.500=0.380,
77.250=0.100,
77.750=0.080,
78.500=0.080,
79.250=0.080,
112.250=0.260,
113.979=0.840,
122.500=0.180,
123.000=0.180,
123.250=0.090,
123.500=0.090,
123.750=0.180,
292.000=0.060,
293.500=0.480,
295.000=0.480,
308.500=0.080,
452.000=0.220,
453.000=0.200,
454.000=0.200,
455.000=0.200,
456.000=0.420;
#DELAYS:;
#WARPS:1.000=15.000,
37.000=11.000,
114.000=8.000,
154.500=8.000,
163.250=7.000,
171.250=7.000,
179.250=7.000,
187.250=7.000,
194.750=8.000,
296.000=8.000,
309.000=8.000,
330.000=6.000,
337.500=6.500,
347.000=6.000,
354.500=6.500,
364.000=6.000,
371.500=6.500,
381.000=6.000,
388.500=6.500,
398.000=6.000;
#TIMESIGNATURES:0.000=4=4;
#TICKCOUNTS:0.000=4;
#COMBOS:0.000=1;
#SPEEDS:0.000=1.000=0.000=0;
#SCROLLS:0.000=1.000;
#FAKES:;
#LABELS:0.000=Song Start;
#BGCHANGES:;
#KEYSOUNDS:;
#ATTACKS:
;

//---------------dance-single - ----------------
#NOTEDATA:;
#CHARTNAME:;
#STEPSTYPE:dance-single;
#DESCRIPTION:;
#CHARTSTYLE:;
#DIFFICULTY:Challenge;
#METER:10;
#RADARVALUES:0.706987,1.617089,0.713356,0.071336,0.905070,555.000000,475.000000,80.000000,8.000000,38.000000,0.000000,0.000000,0.000000,290.000000,0.706987,1.617089,0.713356,0.071336,0.905070,555.000000,475.000000,80.000000,8.000000,38.000000,0.000000,0.000000,0.000000,290.000000;
#CREDIT:;
#DISPLAYBPM:*;
#NOTES:
// measure 0
0000
0000
0000
0000
MMMM
0000
0000
0000
F000
0F00
00F0
000F
00F0
0F00
F000
0F00
,  // measure 1
00F0
000F
00F0
0F00
F000
0F00
00F0
000F
00F0
0F00
F000
0000
0000
0000
0000
0000
,  // measure 2
0000
0000
0000
0000
,  // measure 3
0000
0000
0000
0000
,  // measure 4
0000
0000
0000
0000
,  // measure 5
0000
0000
0000
0000
,  // measure 6
0000
0000
0000
0000
,  // measure 7
0000
0000
0000
0000
0000
0000
0000
0000
0000
0000
0000
0000
0001
0100
0001
0000
,  // measure 8
0010
0100
1000
0010
0100
0001
1001
0000
,  // measure 9
0110
1001
0000
0000
,  // measure 10
MMMM
FFFF
FFFF
FFFF
,  // measure 11
FFFF
0000
0000
0000
0000
0000
0000
1001
,  // measure 12
1001
0000
0100
0001
0010
0000
1000
0001
0000
0101
0000
1010
0001
0100
0010
1000
,  // measure 13
0000
0100
0010
0001
0000
0100
1000
0000
0110
0000
0110
0001
0010
0100
1000
0000
,  // measure 14
0001
0100
0010
0000
1000
0010
0000
0101
0000
1010
0010
0100
0001
1000
0000
0010
,  // measure 15
0100
0001
0000
0001
1000
0000
1001
0000
0110
0100
0010
1000
0001
0000
0100
0010
,  // measure 16
1000
0000
1000
0001
0000
1001
0000
0110
0001
1000
0010
0100
0000
0001
1000
0010
,  // measure 17
0000
0100
0001
0000
1001
0000
0110
0100
1000
0010
0100
0000
0001
1000
0001
0000
,  // measure 18
0010
1000
0000
1010
0000
1001
0100
0010
0001
1000
0000
0010
0100
0001
0000
0001
,  // measure 19
1000
0000
0101
0000
1001
1000
0000
0100
0000
0000
0010
0000
0000
0001
0000
0000
,  // measure 20
1001
0000
0000
1001
0000
1000
0001
0000
0101
0000
0110
0000
1010
0000
0000
1010
,  // measure 21
0000
0100
0001
0000
0100
0010
0001
0010
0100
0000
0000
0101
0000
0001
1000
0000
,  // measure 22
1100
0000
0110
0000
0011
0000
0001
0010
0100
1000
0100
0010
0100
0010
0100
0010
,  // measure 23
0110
0000
0000
1100
0000
1000
0001
0000
0101
0000
0110
0000
1010
0000
0000
0110
,  // measure 24
0000
0100
0001
0000
1000
0001
0100
0001
1000
0000
0000
0101
0000
0001
1000
0000
,  // measure 25
1010
0000
0101
0000
1001
0000
1000
0100
0010
0001
1000
0000
0001
1000
0000
0100
,  // measure 26
0000
0010
0000
0001
0000
0000
0000
0100
0000
0001
0000
0010
0000
0001
0000
0100
,  // measure 27
0000
0000
0000
0010
0000
1000
0000
0001
0000
1000
0000
0001
0000
1000
0000
0001
,  // measure 28
0000
0000
0000
0000
0000
0000
0000
0000
0000
0000
0000
0000
1000
0000
0000
0000
0000
0000
0000
0000
0000
0000
0000
0000
0000
0000
0000
0000
0000
0000
0000
0000
0000
0000
0000
0000
0000
0000
0000
0000
0000
0000
0000
0000
0000
0000
0000
0000
0000
0000
0000
0000
0000
0000
0000
0000
0000
0000
0000
0000
0000
0000
0000
0000
0000
0000
0000
0000
0000
0000
0000
0000
0000
0000
0000
0000
0000
0000
0000
0000
0000
0000
0000
0000
0000
0000
0000
0000
0000
0000
0000
0000
0000
0000
0000
1001
0000
0000
0000
0000
0000
0000
0000
0000
0000
0000
0000
0000
0000
0000
0000
0000
0000
0000
0000
0000
0000
0000
0000
0000
0000
0000
0000
0000
0000
0000
0000
0000
0000
0000
0000
0000
0000
0000
0000
0000
0000
0000
0000
0000
0000
0000
0000
0000
F00F
0000
0000
0000
0000
0000
0000
0000
0000
0000
0000
0000
0000
0000
0000
0000
0000
0000
0000
0000
0000
0000
0000
0000
M00F
0000
0000
0000
0000
0000
0000
0000
0000
0000
0000
0000
0000
0000
0000
0000
0000
0000
0000
0000
0000
0000
0000
0000
,  // measure 29
F00M
0M00
F0MF
0M00
F00F
0000
F00F
0000
F00F
0000
0000
0000
0000
0000
0000
0000
,  // measure 30
0000
0000
0000
0000
0000
0000
0000
0000
0000
0000
1000
0000
0001
0100
0010
0100
,  // measure 31
0110
0000
1000
0100
0010
0000
0001
0100
0000
1010
0000
1001
0001
0100
0010
1000
,  // measure 32
0001
0000
0010
1000
0100
0000
0001
1000
0000
0011
0000
1100
1000
0100
0010
0001
,  // measure 33
0100
0000
0010
1000
0001
0000
0001
1000
0000
1001
0000
0110
0100
0010
1000
0001
,  // measure 34
0100
0000
0010
1000
0001
0000
0100
0010
0000
0110
0000
1001
1000
0000
0100
0000
,  // measure 35
0010
0000
0001
0000
0100
0000
1000
0010
1000
0000
0001
0000
1001
0000
0010
0100
,  // measure 36
0001
0000
0001
1000
0000
1001
0000
0110
1000
0100
0010
0001
1000
0010
0000
0100
,  // measure 37
0001
0000
1000
0000
0000
0000
1000
0000
0010
0000
0000
0000
1010
0000
0000
0000
0101
0000
0001
0000
0010
0001
0100
0000
1000
0000
0001
0000
1000
0000
0000
0000
,  // measure 38
0010
0100
0001
0000
0001
0010
0000
1100
0000
1001
F000
0000
0MM0
0000
0000
0000
,  // measure 39
0000
M00M
M00M
0MM0
0000
0000
0000
0000
,  // measure 40
0000
0000
0000
0000
0000
0000
0000
0000
0000
0000
1000
0000
0000
0100
0000
0000
,  // measure 41
0000
0000
M00M
M00M
M00M
MMMM
000M
000M
,  // measure 42
000M
0000
0000
0000
0000
0000
0000
0000
0000
0100
0000
0000
0000
00F0
0000
0000
,  // measure 43
0000
0000
MMMM
000M
000M
MMMM
000M
000M
,  // measure 44
MMMM
0000
0000
0000
0000
0000
0000
0000
0000
0010
0000
0000
0000
000F
0000
0000
,  // measure 45
MMMM
M00M
M00M
00M0
0M00
MMMM
0000
0000
,  // measure 46
0000
0000
0000
0000
0000
0000
0000
0000
0000
0001
0000
0000
M000
0000
M000
0000
,  // measure 47
M000
0000
M000
0000
M000
0000
M000
0000
M000
F00F
0000
0000
0000
0000
0000
0000
,  // measure 48
0000
0000
0000
0000
0000
0000
0000
0000
0000
1001
0000
0000
MMMM
0000
M000
0000
,  // measure 49
MFMM
M00M
MMMM
0000
MMMM
M00M
M00M
MMMM
,  // measure 50
0000
0000
0000
0200
,  // measure 51
0000
0000
0300
0000
,  // measure 52
0000
0000
0000
1000
0000
0000
0000
0000
0000
0000
0000
0000
0000
0000
0000
0000
,  // measure 53
0000
0000
0000
0001
0000
0000
0000
0000
0000
0000
0000
0000
0000
0000
0000
0000
,  // measure 54
0000
0100
0000
0000
0000
0000
0000
0000
,  // measure 55
0010
0000
0000
0000
0000
0000
0000
0000
0000
0000
0000
1000
0000
0000
0000
0000
,  // measure 56
0000
0000
0000
0001
0000
0000
0000
0000
,  // measure 57
0000
0100
0000
0000
0000
0000
0000
0000
0000
0000
0000
0010
0000
0000
0000
0000
,  // measure 58
0000
0000
1000
0000
0000
0000
0000
0000
0000
0001
0000
0000
0000
0000
0100
0000
,  // measure 59
0000
0000
0000
0000
0000
0010
0000
0000
0000
0000
1000
0000
0000
0001
0000
0000
,  // measure 60
0000
0100
0000
0000
0010
0000
1000
0000
0000
0001
0000
0000
0100
0000
0010
0000
,  // measure 61
1000
0001
0100
0010
1000
0001
0100
0010
,  // measure 62
1000
0001
0100
0010
1000
0001
0100
0010
,  // measure 63
1000
0001
0100
0010
1000
0001
0100
0010
,  // measure 64
1000
0001
0100
0010
1000
0001
0100
0010
,  // measure 65
1000
0001
0100
0010
1000
0001
0100
0010
,  // measure 66
1000
0001
0100
0010
1000
0001
0100
0010
,  // measure 67
1000
0001
0100
0010
2M00
00M0
000M
00M0
,  // measure 68
0M00
00M0
000M
00M0
0M00
00M0
000M
00M0
,  // measure 69
0M00
00M0
000M
00M0
0M00
00M0
000M
00M0
,  // measure 70
0M00
00M0
000M
00M0
0M00
00M0
000M
00M0
,  // measure 71
0M00
00M0
000M
00M0
0M00
00M0
000M
00M0
,  // measure 72
3M00
0200
0000
0000
,  // measure 73
0300
0000
0002
0000
0003
0000
0200
0000
0320
0000
0000
0000
0030
1001
0000
0000
,  // measure 74
F000
000F
F000
0000
0100
0000
0010
0000
0001
0000
0100
0000
0010
0000
1000
0000
0001
0000
0000
0000
0000
0000
0000
0000
00MM
0000
0000
0000
0000
0000
0000
0000
,  // measure 75
MM00
MMMM
0000
0000
,  // measure 76
1000
0001
1000
0000
0100
0000
0010
0000
0001
0000
0100
0000
0010
0000
1000
0000
,  // measure 77
0001
0100
0000
00F0
0F00
000F
00F0
F000
,  // measure 78
0F00
000F
F000
00F0
0000
0000
0000
0000
,  // measure 79
0000
0000
0010
0100
,  // measure 80
0001
0010
1000
0100
,  // measure 81
0001
1000
0010
0100
,  // measure 82
0001
0000
0000
0000
0100
0000
0000
0000
1001
0000
0000
0100
0000
0001
0010
0000
,  // measure 83
0110
0000
1100
0000
1000
0000
0000
0001
0000
0100
0010
0000
0110
0000
0001
0000
,  // measure 84
1001
0000
0000
0100
0000
0001
0010
0000
0110
0000
1100
0000
1000
0000
0000
0001
,  // measure 85
0000
0100
0010
0000
0110
0000
1001
0000
1000
0000
0000
0000
0000
0000
0000
0000
,  // measure 86
0010
0110
1100
1000
,  // measure 87
0000
0001
0000
0100
0010
0000
0110
0000
,  // measure 88
1001
0000
0000
0000
1000
0000
0000
0001
0000
0100
0010
0000
0110
0000
1001
0000
,  // measure 89
1000
0000
0000
0100
0000
0001
0010
0000
0011
0000
1100
0000
1001
0000
0000
0000
,  // measure 90
0000
0010
0110
1001
,  // measure 91
1000
0000
0000
0100
0000
0001
0010
0000
,  // measure 92
0011
0000
0000
0000
0000
0000
0000
0000
1000
0000
0000
0100
0000
0001
0010
0000
,  // measure 93
0011
0000
1100
0000
1001
0000
1000
0001
0100
0010
1000
0010
1000
0010
1000
0010
,  // measure 94
1000
0010
1000
0000
0000
0000
0000
0000
0010
0000
0000
0000
0011
0000
0000
0000
,  // measure 95
1100
0000
1001
0000
1000
0001
0100
0010
,  // measure 96
0000
0000
0000
0000
0000
0000
0000
0000
0000
0000
0000
0000
1001
0000
1000
0001
,  // measure 97
0100
0010
1000
0010
1000
0010
1000
0010
1000
0010
1000
0000
0000
0001
0000
0000
,  // measure 98
0100
0010
0000
1010
0000
0110
0000
0101
0000
0000
0000
0000
1000
0000
0010
0000
,  // measure 99
1000
0010
1000
0010
1000
0000
0000
0001
,  // measure 100
0000
0100
0010
0000
1010
0000
0110
0000
,  // measure 101
1000
0000
0000
0001
0000
0100
0010
0000
1010
0000
0110
0000
0101
0000
0000
0001
,  // measure 102
0000
1000
0100
0000
0110
0000
1100
0000
0101
0000
0000
1000
0000
0010
0100
0000
,  // measure 103
0101
1001
1000
0000
1000
0001
1000
0100
,  // measure 104
0010
1000
0001
1000
0100
0010
1000
0001
,  // measure 105
1000
0100
0010
1000
0001
1000
0001
1000
,  // measure 106
0001
1000
0001
0000
1001
0000
1001
0000
,  // measure 107
1001
1000
0001
1000
,  // measure 108
0001
1000
0001
1000
,  // measure 109
0001
0000
1000
0000
0000
0001
0000
0000
,  // measure 110
1000
0000
0000
0001
0000
0000
1000
0000
,  // measure 111
0000
0001
0000
0000
1000
0000
0000
0001
,  // measure 112
0000
0000
1000
0000
0000
0001
0000
0000
,  // measure 113
1000
0100
0010
0001
,  // measure 114
1001
2002
0000
0000
,  // measure 115
0000
0000
0000
0000
,  // measure 116
0000
0000
0000
0000
,  // measure 117
3003
0000
0000
0000
;
