#TITLE:NEW SOUND PARADISE;
#SUBTITLE:;
#ARTIST:roop;
#TITLETRANSLIT:;
#SUBTITLETRANSLIT:;
#ARTISTTRANSLIT:;
#GENRE:;
#CREDIT:;
#BANNER:;
#BACKGROUND:;
#LYRICSPATH:;
#CDTITLE:;
#MUSIC:nsp.mp3;
#OFFSET:-0.040000;
#SAMPLESTART:59.099998;
#SAMPLELENGTH:14.700000;
#SELECTABLE:YES;
#DISPLAYBPM:130.000000;
#BPMS:0.000000=130.000000
,177.500000=260.000000
,178.000000=130.000000
,181.500000=260.000000
,182.000000=130.000000
,182.750000=260.000000
,183.000000=130.000000
,183.750000=260.000000
,184.000000=130.000000
,184.500000=260.000000
,189.500000=130.000000
;
#STOPS:61.000000=0.460000,
125.000000=0.220000,
125.500000=0.220000,
177.500000=0.100000,
181.500000=0.100000,
182.750000=0.060000,
183.750000=0.060000,
184.500000=0.060000,
184.750000=0.160000,
185.500000=1.060000,
186.000000=0.460000,
188.000000=0.360000,
188.500000=0.360000,
189.000000=0.360000,
189.500000=0.240000,
248.000000=0.220000,
248.500000=0.220000
;
#BGCHANGES:;
#KEYSOUNDS:;
#ATTACKS:;

//---------------dance-single - ----------------
#NOTES:
     dance-single:
     :
     Hard:
     16:
     0.560614,0.607363,0.026741,0.153763,0.511429,587.000000,583.000000,4.000000,23.000000,0.000000,0.000000,0.560614,0.607363,0.026741,0.153763,0.511429,587.000000,583.000000,4.000000,23.000000,0.000000,0.000000:
0000
0000
0000
0000
,
0000
0000
0000
0000
,
0000
0000
0000
0000
,
0000
0000
0000
0000
,
0100
0000
0000
0000
0001
0000
0000
0000
1000
0000
0000
0010
0100
0000
0001
0000
,
0010
0000
0000
0000
0100
0000
0000
0000
1000
0000
0000
0001
0010
0000
1000
0000
,
0100
0000
0000
0000
0001
0000
0000
0000
1000
0000
0000
0010
0100
0000
0001
0000
,
1000
0000
0000
0000
0100
0000
0000
0000
0010
0000
0000
0001
0010
0000
0100
0000
,
1000
0000
1000
0000
0100
0000
0010
0000
0001
0000
0000
0001
0000
0000
0001
0000
,
0100
0000
0100
0000
0010
0000
0000
0000
1000
0000
0000
1000
0000
0000
1000
0000
,
0010
0000
0010
0000
1000
0000
0001
0000
0100
0000
0000
0100
0000
0000
0100
0000
,
0010
0000
0010
0000
1000
0000
0000
0000
0001
0000
0000
0100
0010
0000
0100
0000
,
0001
0000
0001
0000
1000
0000
0010
0000
1000
0000
0000
1000
0000
0000
1000
0000
,
0100
0000
0100
0000
0001
0000
0000
0000
0010
0000
0000
0010
0000
0000
0010
0000
,
1000
0000
1000
0000
0100
0000
1000
0000
0001
0000
0000
0001
0000
0000
0001
0000
,
0200
0000
0000
0000
0000
0000
0000
0000
0000
0000
0000
0000
0000
0000
0000
0000
0000
0000
0000
0000
0000
0000
0000
0000
0020
0000
0000
0000
0000
0000
0000
0000
0000
0000
0000
0000
0000
0000
0000
0000
0000
0000
0000
0000
0000
0000
0000
0000
0000
0330
0000
0000
0000
0000
0000
0000
0000
0000
0000
0000
0000
0000
0000
0000
0000
0000
0000
0000
0000
0000
0000
0000
0100
0000
0000
0000
0000
0000
0000
0000
0000
0000
0000
0000
0000
0000
0000
0000
0000
0000
0000
0000
0000
0000
0000
0000
0010
0000
0000
0000
0000
0000
0000
0000
0000
0000
0000
0000
0000
0000
0000
0000
0000
0000
0000
0000
0000
0000
0000
0000
0100
0000
0000
0000
0000
0000
0000
0000
0000
0000
0000
0000
0000
0000
0000
0000
0000
0000
0000
0000
0000
0000
0000
0000
0001
0000
0000
0000
0000
0000
0000
0000
0000
0000
0000
0000
0000
0000
0000
0000
0000
0000
0000
0000
0000
0000
0000
0000
0100
0000
0000
0000
0000
0000
0000
0000
0000
0000
0000
0000
0000
0000
0000
0000
0000
0000
0000
0000
0000
0000
0000
0000
,
0001
0000
0100
0020
0000
0000
0000
0000
1030
0000
0000
0000
1000
0000
0100
0000
,
0100
0000
0000
0000
0010
0000
0001
0000
0010
0000
0100
0010
0000
0000
0001
0000
,
0001
0000
0100
0001
0000
0000
0000
0000
0000
0000
0100
0000
0010
0000
0001
0000
,
0001
0000
0000
0000
1000
0000
0000
0010
0000
0000
0100
0000
0110
0000
0100
0000
,
0001
0000
0010
1000
0100
1000
0001
0010
,
0100
0000
0000
0000
0001
0000
0000
0001
0100
0000
0010
0000
1000
0000
0100
0000
,
0001
0000
1000
0010
1000
0001
0100
0001
,
0010
0000
0000
0000
0100
0000
0000
0001
0100
0000
0010
0000
1100
0000
1000
0000
,
0001
0000
0000
0100
0000
0010
0000
0001
0000
1000
0100
1000
0000
0000
0001
0000
,
0010
0000
0000
0100
0000
1000
0000
0010
0000
1000
0001
1000
0000
0000
0100
0000
,
0001
0000
0000
1000
0000
0001
0000
0010
0000
0100
0010
0100
0000
0000
0001
0000
,
0100
0000
0000
1000
0000
0010
0000
0001
0000
1000
0001
1000
0001
0000
0100
0000
,
0010
0000
1000
0010
0000
0100
0000
0001
0000
0010
0001
0010
0001
0000
1000
0000
,
0100
0000
0010
0001
0000
0100
0000
0010
0000
1000
0100
1000
0100
0000
0010
0000
,
0001
0000
1000
0010
0000
0100
0000
0001
0000
1000
0001
1000
0001
0100
0001
0100
,
0001
0000
0000
1000
0020
0030
0200
0300
0100
0000
0010
0000
0100
0000
0000
0000
,
0001
0100
0010
0100
0001
0000
1000
0000
,
0100
0010
0001
0010
0100
0000
1000
0000
,
0001
0100
0010
0100
0001
0000
1000
0000
,
0010
0000
0000
1000
0000
0000
0010
0000
0100
0000
0001
0010
0000
0100
0000
0001
,
0000
0010
0000
1000
0000
0000
0001
0000
0100
0000
0001
0100
0000
0010
0000
1000
,
0000
0001
0000
1000
0000
0000
0100
0000
0001
0000
0010
0001
0000
1000
0000
0100
,
0000
1000
0000
0001
0000
0000
0010
0000
0100
0000
0010
1000
0000
0001
0000
0100
,
0000
0001
0000
0010
0000
0000
0100
0000
0001
0100
0001
0000
1000
0000
0010
1000
,
0000
0010
1000
0000
0100
0000
0010
0000
0001
1000
0001
0000
0100
0000
0001
0100
,
0000
0001
0100
0000
0010
0000
1000
0000
0001
0100
0001
0000
1000
0000
0001
0010
,
0000
0010
0000
0001
0100
0000
0010
0000
1000
0001
1000
0000
0010
0000
0100
0001
,
0000
0000
0010
0000
0100
0000
1000
0000
0001
0000
0100
0001
0000
0010
0000
0100
,
0000
1000
0000
0001
0100
0000
0002
0003
0100
0000
0010
1000
0000
0100
0000
0010
,
0000
0001
0000
0100
0010
0000
2000
3000
0100
0000
0001
0010
0002
0000
1003
0100
,
2000
0000
3001
0100
0000
0000
0020
0000
0200
0000
0000
0000
0000
0000
0330
0000
,
2000
3000
0002
0003
0200
0300
0020
0130
0010
0000
1000
0000
0010
0000
0000
0000
,
0100
0000
0001
0000
0100
0000
0001
0100
0000
0000
0010
0000
1000
0000
0001
0100
,
0000
0000
0001
0000
1000
0000
0100
0000
1000
0000
0000
1000
0000
0000
0100
0000
,
0001
0000
0000
0001
0000
0000
0010
0000
0100
0000
0010
0000
1000
0000
0010
0000
,
0100
0000
0001
0000
0010
0000
0100
1000
0000
0000
0010
0000
0001
0000
0000
0001
,
1000
0000
0100
0000
0001
0000
1000
0001
0000
0000
0010
0000
0100
0001
0000
1000
,
0000
0010
0100
0001
1000
0001
2000
0000
,
3200
0000
0320
0000
0031
0100
1000
0100
,
0001
0000
0010
0000
0100
0000
0001
0010
0000
0000
0100
0000
0001
0000
1000
0010
,
0000
0000
0100
0000
0001
0000
1000
0100
0000
0000
0001
0000
1000
0001
0000
1000
,
0000
1000
0010
0000
0100
0000
0001
0000
1010
0000
0010
1000
0000
1000
0100
0000
,
0101
0000
0100
0001
0000
0001
0010
0000
0001
0000
0100
0000
0010
0000
1000
0000
,
0100
0000
0010
0000
0001
0000
1000
0010
0000
0000
0001
0000
1000
0000
0001
0010
,
0000
0000
0100
0000
1000
0000
0001
0100
0020
0000
1000
0000
0000
0000
1000
0000
,
1000
0000
0000
0000
0100
0130
0000
0000
,
0002
0003
2000
3000
0001
0000
0100
0000
0010
0000
1000
0010
0000
0000
0100
0000
,
0001
0000
0010
0000
0100
0000
1000
0000
0001
0000
0100
0000
0001
0100
0001
0000
,
1000
0000
0010
1000
0000
0000
0100
0000
0001
0000
1000
0001
0000
0000
0100
0000
,
0010
0000
1000
0000
0100
0000
0001
0000
0001
0000
1000
0000
0001
0000
0001
1000
,
0000
1000
0001
0000
0100
0000
0010
0000
1000
0000
0001
0100
0000
0000
0010
0000
,
1000
0000
0100
0000
1000
0000
0010
0000
0010
0000
0100
0000
0001
0100
0001
0000
,
1000
0000
0010
0100
0010
0000
1000
0000
0100
0000
1000
0100
0000
0000
0001
0000
,
1000
0000
0100
0000
0010
0000
0001
0000
0100
0000
0010
0000
1000
0000
0001
0010
,
0000
0010
0100
0000
0001
0000
0001
0000
0100
0000
1000
0000
1000
0000
0010
1000
,
0000
0010
1000
0000
0100
0000
0010
0000
0001
0000
0100
0000
0001
0100
0001
0000
,
0100
0000
0010
0100
0010
0000
1000
0000
0100
0000
1000
0000
0001
0000
0100
0001
,
0000
0001
1000
0000
0010
0000
0100
0000
0001
0000
0010
0000
0100
0000
1000
0010
,
0000
1000
0001
0000
0100
0000
0001
0000
0010
0000
0100
0000
0010
0000
1000
0010
,
0000
1000
0100
0000
0010
0000
0001
0000
0100
0000
0010
0000
1000
0010
1000
0000
,
0100
0000
0001
1000
0001
0000
0100
0000
0001
0000
0010
0000
0100
0000
1000
0001
,
0000
0100
0010
0000
0100
0000
0001
0000
1000
0000
0100
0000
0001
0000
1000
0010
,
0000
0001
2000
0002
0000
0000
0000
0000
0000
0000
0000
0000
0000
0000
0000
0000
,
3003
0000
0000
0000
;

//---------------dance-single - ----------------
#NOTES:
     dance-single:
     :
     Challenge:
     18:
     0.723927,0.792213,0.561569,0.207246,0.685247,758.000000,674.000000,84.000000,31.000000,0.000000,0.000000,0.723927,0.792213,0.561569,0.207246,0.685247,758.000000,674.000000,84.000000,31.000000,0.000000,0.000000:
// measure 0
0000
0000
0000
0000
,  // measure 1
0000
0000
0000
0000
,  // measure 2
0000
0000
0000
0000
,  // measure 3
0000
0000
0000
0000
,  // measure 4
1000
0000
0100
0000
0001
0000
0100
0000
1000
0000
0000
1000
0010
0000
0100
0000
,  // measure 5
0001
0000
0100
0000
0010
0000
0100
0000
0001
0000
0000
0001
0010
0000
0100
0000
,  // measure 6
1000
0000
0100
0000
0001
0000
0100
0000
1000
0000
0000
1000
0010
0000
0100
0000
,  // measure 7
0010
0000
1000
0000
0100
0000
1000
0000
0010
0000
1000
0001
0000
0100
0010
0000
,  // measure 8
1100
0000
0100
0000
0010
0000
0100
0000
0001
0000
0000
0100
0001
0000
0100
0000
,  // measure 9
0110
0000
0100
0000
1000
0000
0001
0000
0010
0000
0000
0001
1000
0000
0010
0000
,  // measure 10
0101
0000
0001
0000
0010
0000
1000
0000
0010
0000
0000
0001
0100
0000
1000
0000
,  // measure 11
0110
0000
0010
0000
1000
0000
0100
0000
0001
0000
1000
0010
0000
1000
0001
0000
,  // measure 12
0101
0000
0001
0000
0100
0000
0010
0000
1000
0000
0001
1000
0000
0001
1000
0000
,  // measure 13
1010
0000
0010
0000
0100
0000
0001
0000
0010
0000
0100
1000
0000
0100
1000
0000
,  // measure 14
1001
0000
0001
0000
1000
0000
0100
0000
0001
0000
0010
0001
0000
0010
0001
0000
,  // measure 15
2000
0000
0002
0000
0000
3003
1000
0000
0100
0000
0010
0000
0002
0000
0100
0000
,  // measure 16
0013
0000
0100
0010
1000
0000
0100
0000
1000
0000
0100
0000
0002
0000
0010
0000
,  // measure 17
1000
0000
0000
0000
0103
0010
0100
0000
0001
0000
1000
0001
0200
0000
0010
0000
,  // measure 18
0301
0000
0100
0002
1000
0000
0000
1000
0000
0000
1000
0000
0103
0000
0100
0000
,  // measure 19
0001
0000
0000
0000
0011
0000
0000
0110
0000
0000
1000
0001
1000
0000
0010
0000
,  // measure 20
0100
0000
0001
0100
0001
0000
0010
0000
0100
0000
1000
0000
0100
0000
0001
0000
,  // measure 21
0101
0000
0100
0000
0010
1000
0010
0000
0110
0000
0100
0001
0100
0000
0001
0000
,  // measure 22
0010
0000
0100
1000
0100
0000
1000
0100
0000
1000
0100
0000
1001
0000
0001
0000
,  // measure 23
0010
0000
0100
0000
1000
0000
1000
0010
0000
0010
0100
0000
0101
0000
0001
0000
,  // measure 24
0010
0001
0000
0101
0000
1100
0000
0101
0000
1000
0010
0100
0001
0000
1000
0000
,  // measure 25
0010
0100
0000
0110
0000
1010
0000
1001
0000
0001
0100
1000
0100
0000
0001
0000
,  // measure 26
1000
0100
0000
0011
0000
0110
0000
1100
0000
1000
0001
0100
0010
0000
1000
0000
,  // measure 27
0001
0100
0000
1001
0000
0011
0000
0101
0000
0100
0010
1000
0100
0000
0010
0000
,  // measure 28
0001
1000
0000
1010
0000
1001
0000
1100
0000
1000
0001
1000
0100
0000
1000
0000
,  // measure 29
0001
0100
0000
0101
0000
0110
0000
1100
0000
0100
1000
0100
0010
0000
0001
0000
,  // measure 30
1000
0010
0000
1010
0000
0110
0000
0011
0000
0010
1000
0010
0100
0001
1000
0100
,  // measure 31
0010
0000
0000
0000
0000
0000
0000
0000
0000
0000
0000
0000
0001
0000
0000
0000
0000
0000
0000
0000
0000
0000
0000
0000
0000
0000
0000
0000
0000
0000
0000
0000
0000
0000
0000
0000
0001
0000
0000
0000
0000
0000
0000
0000
0000
0000
0000
0000
2000
0001
0000
0000
0000
0000
0000
0000
0000
0000
0000
0000
0000
0000
0000
0000
0000
0000
0000
0000
0000
0000
0000
0000
3002
1000
0000
0000
0000
0000
0000
0000
0000
0000
0000
0000
0003
0000
0000
0000
0000
0000
0000
0000
0000
0000
0000
0000
2000
0000
0000
0000
0000
0000
0000
0000
0000
0000
0000
0000
0000
0000
0000
0000
0000
0000
0000
0000
0000
0000
0000
0000
0010
0000
0000
0000
0000
0000
0000
0000
0000
0000
0000
0000
0000
0000
0000
0000
0000
0000
0000
0000
0000
0000
0000
0000
0001
0000
0000
0000
0000
0000
0000
0000
0000
0000
0000
0000
0000
0000
0000
0000
0000
0000
0000
0000
0000
0000
0000
0000
0000
0000
0000
0000
0000
0000
0000
0000
0000
0000
0000
0000
0000
0000
0000
0000
0000
0000
0000
0000
0000
0000
0000
0000
,  // measure 32
3001
0010
0100
1000
0100
0010
0001
0000
,  // measure 33
0001
0000
0100
0001
0000
0100
0001
0000
0200
0000
0010
0000
0001
0000
0000
0000
,  // measure 34
0310
1000
0100
0100
0010
1000
0100
0000
,  // measure 35
1000
0000
1000
0010
0000
0010
0001
0000
0100
0000
0001
0100
0000
0010
0000
0100
,  // measure 36
0000
0001
0000
1000
0000
0000
0110
0000
0001
0000
1000
0100
0000
1000
0000
0010
,  // measure 37
0000
0100
0000
0001
0000
0000
1010
0000
0100
0000
0001
0010
0000
0100
0000
1000
,  // measure 38
0000
0001
0000
1000
0000
0000
1010
0000
0100
0000
0010
0001
0000
0100
0000
0010
,  // measure 39
0000
1000
0000
0001
0000
0000
1001
0000
0110
0000
1000
0001
0010
0100
1000
0010
,  // measure 40
0000
0100
0001
0000
0101
0000
1100
0000
1001
0000
0100
0000
1000
0010
0100
0001
,  // measure 41
0000
0100
0010
0000
1010
0000
0101
0000
1001
0000
1000
0000
0010
1000
0100
0001
,  // measure 42
0000
0101
0000
1100
0000
0010
0001
0010
0100
1000
0010
0100
0000
0110
0000
1001
,  // measure 43
0000
1000
0010
0100
0001
0010
0100
1000
0001
0000
1000
0010
0000
0100
0000
0001
,  // measure 44
0000
0010
0000
0100
1000
0000
2002
3003
0110
0000
1000
0010
0000
0100
0000
0001
,  // measure 45
0000
0010
0000
0100
1000
0000
2020
3030
0101
0000
0001
1000
1001
0000
0100
0010
,  // measure 46
0110
0000
1000
0001
0000
0000
0220
0330
2002
0000
0000
0000
0000
0000
3003
0000
,  // measure 47
1010
0000
0101
0000
1100
0000
0011
1000
0001
0000
1000
0000
0010
0000
0000
0100
,  // measure 48
0001
0000
1000
0000
0001
0000
0100
0010
1000
0000
0100
0000
0001
0100
0000
0010
,  // measure 49
0000
0010
1000
0000
1100
0000
1000
0000
0001
0000
0001
0100
0000
0100
0010
0000
,  // measure 50
1000
0000
1000
0010
0000
0010
0100
0000
0101
0000
0001
0000
1001
0000
1000
0000
,  // measure 51
1010
0000
0010
0000
0110
0000
0100
0001
0000
0000
1000
0000
0010
0000
0100
1000
,  // measure 52
0000
0001
0010
0000
0100
0000
1000
0001
1000
0000
0010
0000
0100
0001
0000
0100
,  // measure 53
0000
0100
0010
0000
0001
0000
1000
0000
1010
0000
1000
0000
0002
0000
0103
0000
,  // measure 54
2000
3100
0020
1030
0110
0010
1010
1000
,  // measure 55
1100
0000
0100
0000
0101
0000
0000
0001
0100
0000
0010
0000
1000
0000
0000
1000
,  // measure 56
0001
0000
0100
0000
0010
0000
1000
0100
1000
0000
0001
0000
1000
0001
0000
0100
,  // measure 57
0000
0100
0010
0000
1000
0000
0100
0000
0010
0000
0010
0001
0000
0001
1000
0000
,  // measure 58
0100
0000
0100
0010
0000
0010
0001
0000
1010
0000
1000
0000
1100
0000
0100
0000
,  // measure 59
0110
0000
0010
0000
0011
0000
0000
0001
1000
0000
0010
0000
0100
0000
0000
0100
,  // measure 60
0010
0000
0000
0000
1000
0000
0000
0000
0001
0000
0000
0000
1000
0000
0001
0000
2000
0000
0000
3000
2000
0000
0000
0000
0000
0000
0000
0000
0002
0000
0000
3003
,  // measure 61
0002
0000
0000
0000
0000
0000
1000
0000
0000
0000
0000
0000
0100
0000
0000
0000
2003
0000
0000
0000
0002
0000
0000
0000
0000
0000
0000
0000
0000
3003
0000
0000
,  // measure 62
0020
0100
0000
0000
0000
0000
0000
0000
0000
0000
0000
0000
0000
0000
0000
0000
0000
0000
0000
0000
0000
0000
0000
0000
0230
0010
0000
0000
0000
0000
0000
0000
0000
0000
0000
0000
0300
0000
0000
0000
0000
0000
0000
0000
0000
0000
0000
0000
1001
0000
0000
0000
0000
0000
0000
0000
0000
0000
0000
0000
0000
0000
0000
0000
0000
0000
0000
0000
0000
0000
0000
0000
1000
0000
0000
0000
0000
0000
0000
0000
0000
0000
0000
0000
0000
0000
0000
0000
0000
0000
0000
0000
0000
0000
0000
0000
0010
0000
0000
0000
0000
0000
0000
0000
0000
0000
0000
0000
0000
0000
0000
0000
0000
0000
0000
0000
0000
0000
0000
0000
1000
0000
0000
0000
0000
0000
0000
0000
0000
0000
0000
0000
0001
0000
0000
0000
0000
0000
0000
0000
0000
0000
0000
0000
1000
0000
0000
0000
0000
0000
0000
0000
0000
0000
0000
0000
0000
0000
0000
0000
0000
0000
0000
0000
0000
0000
0000
0000
0100
0000
0000
0000
0000
0000
0000
0000
0000
0000
0000
0000
0000
0000
0000
0000
0000
0000
0000
0000
0000
0000
0000
0000
,  // measure 63
0001
0000
0100
0000
1000
0000
0010
0000
1010
0000
0100
0000
0001
1000
0001
0000
,  // measure 64
0010
0000
0001
0100
1000
0000
0100
0000
0001
0000
1000
0010
1000
0000
0001
0000
,  // measure 65
0010
0000
0001
0000
1000
0000
0001
0000
0100
0000
0010
0000
1000
0000
0001
0100
,  // measure 66
0000
1000
0010
0000
1001
0000
0100
0000
0010
0000
1000
0100
1000
0000
0001
0000
,  // measure 67
0010
0000
0001
0000
1000
0000
0001
0000
0100
0000
0001
0000
1000
0001
1000
0000
,  // measure 68
0010
0000
0100
0001
0010
0000
0100
0000
1000
0000
0001
0100
0010
0000
1000
0000
,  // measure 69
0001
0000
0010
0000
0001
0000
0100
0000
1000
0000
0001
0000
0100
0000
0001
1000
,  // measure 70
0000
0100
0010
1000
0100
0000
0010
0000
0001
0000
1000
0001
1000
0000
0010
1000
,  // measure 71
0000
0100
1000
0000
0100
0000
0001
0000
0011
0000
0010
0000
0100
0010
0100
0000
,  // measure 72
1001
0000
1000
0010
0100
0000
0001
0000
0010
0000
1000
0001
1000
0000
0001
0010
,  // measure 73
0000
1000
0100
0000
0010
0000
1000
0000
1010
0000
0100
0000
0001
0000
0010
0001
,  // measure 74
0000
1000
0001
1000
0010
0000
0100
0000
0001
0000
1000
0010
0100
0000
0001
0100
,  // measure 75
0000
1000
0001
0000
0100
0000
0010
0000
1010
0000
0100
0000
0001
1000
0001
0000
,  // measure 76
1001
0000
1000
0010
0100
0000
0001
0000
0010
0000
0100
1000
0100
0000
1000
0001
,  // measure 77
0000
0001
0100
0000
1001
0000
0100
0000
0001
0000
0010
0000
0100
0000
1000
0100
,  // measure 78
0000
1000
0002
2000
0000
0000
0000
0000
0000
0000
0000
0000
0000
0000
0000
0000
,  // measure 79
3003
0000
0000
0000
;
