#VERSION:0.83;
#TITLE:IIDX;
#SUBTITLE:(JODLER MIX);
#ARTIST:Yamajet "as" DJ SIMON feat.good-cool;
#TITLETRANSLIT:;
#SUBTITLETRANSLIT:;
#ARTISTTRANSLIT:;
#GENRE:Trip Hop;
#ORIGIN:;
#CREDIT:;
#BANNER:;
#BACKGROUND:IIDX (JODLER MIX)-bg.bmp;
#PREVIEWVID:;
#JACKET:IIDX (JODLER MIX)-jacket.bmp;
#CDIMAGE:;
#DISCIMAGE:;
#LYRICSPATH:;
#CDTITLE:;
#MUSIC:IIDX (JODLER MIX).mp3;
#OFFSET:-0.550000;
#SAMPLESTART:78.000000;
#SAMPLELENGTH:19.900000;
#SELECTABLE:YES;
#DISPLAYBPM:49.000000:196.000000;
#BPMS:0.000=98.000,
12.000=49.000,
27.500=4900.000,
28.000=49.000,
60.000=69.000,
60.500=49.000,
63.875=255.000,
64.250=49.000,
75.500=196.000,
138.000=190.000,
139.000=130.000,
140.000=510.000,
144.000=49.000,
148.000=80.000,
148.500=255.000,
149.000=49.000,
159.000=98.000,
164.000=196.000,
228.000=49.000,
232.000=196.000,
236.000=245.000,
242.000=4900.000,
242.250=4600.000,
242.500=4300.000,
242.750=4000.000,
243.000=3700.000,
243.250=3400.000,
243.500=3100.000,
243.750=2800.000,
244.000=2500.000,
244.250=2200.000,
244.500=1900.000,
244.750=1600.000,
245.000=1300.000,
245.250=1000.000,
246.000=700.000,
247.000=400.000,
248.500=100.000,
249.000=49.000;
#STOPS:27.500=0.600,
75.500=0.180,
140.000=0.900,
142.000=0.400,
142.500=0.320,
143.000=0.300,
143.500=0.240,
237.500=0.080,
238.000=0.080,
238.500=0.080,
239.000=0.080,
239.500=0.180,
240.000=0.220,
240.500=0.240,
241.000=0.400,
241.500=0.340;
#DELAYS:;
#WARPS:0.000=12.000,
19.500=0.125;
#TIMESIGNATURES:0.000=4=4;
#TICKCOUNTS:0.000=4;
#COMBOS:0.000=1;
#SPEEDS:0.000=1.000=0.000=0;
#SCROLLS:0.000=1.000;
#FAKES:;
#LABELS:0.000=Song Start;
#BGCHANGES:;
#KEYSOUNDS:;
#ATTACKS:
;

//---------------dance-single - ???----------------
#NOTEDATA:;
#CHARTNAME:;
#STEPSTYPE:dance-single;
#DESCRIPTION:???;
#CHARTSTYLE:;
#DIFFICULTY:Challenge;
#METER:1;
#RADARVALUES:0.648935,1.397426,0.191473,0.039615,1.373327,688.000000,659.000000,29.000000,6.000000,279.000000,0.000000,2.000000,0.000000,13.000000,0.648935,1.397426,0.191473,0.039615,1.373327,688.000000,659.000000,29.000000,6.000000,279.000000,0.000000,2.000000,0.000000,13.000000;
#CREDIT:;
#DISPLAYBPM:49.000000:196.000000;
#NOTES:
// measure 0
MMMM
0000
00F0
0F00
00F0
0000
00F0
0F00
,  // measure 1
00F0
0000
00F0
0F00
00F0
0000
0000
0000
,  // measure 2
0000
0000
0000
0000
,  // measure 3
0010
0100
0010
0000
0010
0100
0010
0000
0010
0100
0010
0000
0010
0100
0000
0000
0010
0100
0010
0000
0010
0100
0010
0000
0010
0100
0010
0000
0010
0100
0000
0000
,  // measure 4
0010
0100
0010
0000
0010
0100
0010
0000
0010
0100
0010
0000
0010
0100
0000
0000
0010
0100
0010
0000
0010
0100
0010
0010
1000
1000
1000
1000
0000
0000
0000
0000
,  // measure 5
0001
0100
1000
0001
0100
0001
0010
0001
0010
0100
1000
0001
0010
0100
0001
0100
,  // measure 6
0010
0001
0100
0010
1000
0100
1000
0010
0100
0001
0100
0001
0100
0010
1000
0000
,  // measure 7
0101
0000
0000
0000
0001
0000
0000
0000
0001
0000
0000
0000
0010
0000
0000
0000
1000
0000
0000
0000
1000
0000
0000
0000
0100
0000
0000
0000
0010
0000
0000
0000
0010
0000
0000
0000
1000
0010
1000
0010
1000
0000
0000
0010
1000
0000
0000
0000
0001
0000
0000
0000
0100
0000
0000
0000
0010
0000
0000
0000
1000
0000
0000
0000
,  // measure 8
0001
0000
0000
0000
0010
0000
0000
0000
0010
0000
0000
0000
1000
0000
0000
0000
0100
0000
0000
0000
0100
0000
0000
0000
0001
0100
0001
0100
0001
0000
0000
0001
0100
0000
0000
0000
0010
0000
0000
0000
0001
0000
0000
0000
0001
0000
0000
0000
1000
0001
1000
0001
1000
0000
0000
0001
1000
0000
0000
0000
0000
0000
0000
0000
,  // measure 9
0010
0001
0100
1000
0010
1000
0100
0001
0010
1000
0001
0100
0001
1000
0100
0010
,  // measure 10
0001
0100
0010
1000
0001
0100
0010
0001
0010
0100
1000
0010
1000
0001
1000
0001
,  // measure 11
1001
0000
0000
0000
1000
0000
0000
0000
1000
0000
0000
0000
0010
0000
0000
0000
0100
0000
0000
0000
0100
0000
0000
0000
0001
0000
0000
0000
0010
0000
0000
0000
0010
0000
0000
0000
0001
1000
0001
1000
0001
0000
0000
0001
1000
0000
0000
0000
0001
0000
0000
0000
0010
0000
0000
0000
0100
0000
0000
0000
0100
0000
0000
0000
,  // measure 12
0010
0000
0000
0000
1000
0000
0000
0000
1000
0000
0000
0000
0100
0000
0000
0000
0010
0000
0000
0000
0010
0000
0000
0000
0010
0100
0010
0000
0000
0000
0000
0010
0001
0000
0000
0000
0010
0000
0000
0000
0100
0000
0000
0000
0100
0000
0000
0000
1000
0001
1000
0001
1000
0000
0000
0001
1000
0000
0000
0000
0000
0000
0000
0000
,  // measure 13
0010
0001
0100
0010
1000
0010
0100
0001
0010
0001
0100
0010
1000
0010
0100
0001
,  // measure 14
0010
0100
1000
0001
0010
0001
1000
0100
0001
1000
0010
0100
0001
1000
0001
0000
,  // measure 15
1MM1
0000
0000
0000
1000
0000
0000
0000
0100
0000
0000
0000
0010
0000
0000
0000
0001
0000
0000
0000
0001
0000
0000
0000
0010
0000
0000
0000
0100
0000
0000
0000
0100
0000
0000
0000
1000
0001
1000
0001
1000
0000
0000
0001
1000
0000
0000
0000
0010
0000
0000
0000
0100
0000
0000
0000
0001
0000
0000
0000
0001
0000
0000
0000
,  // measure 16
MM0M
0000
0000
0000
0010
0000
0000
0000
0010
0000
0000
0000
0100
0000
0000
0000
1000
0000
0000
0000
1000
0000
0000
0000
0001
1000
0001
1000
0001
0000
0000
1000
0001
0000
0000
0000
0010
0000
0000
0000
0100
0000
0000
0000
0100
0000
0000
0000
0010
0100
0010
0100
0010
0000
0000
0100
0010
0000
0000
0000
0000
0000
0000
0000
,  // measure 17
1001
0000
0100
0000
0010
0000
1000
0000
0100
0000
0010
0000
0001
0100
0001
0000
0100
0000
0010
0000
1000
0010
1000
0001
1000
0000
0100
0000
0010
0000
0001
0000
,  // measure 18
0010
0000
0001
0000
0100
0000
0010
0000
1000
0000
0100
0000
1000
0001
1000
0000
0010
0000
0100
0000
0001
0010
0001
1000
0001
0000
0010
0000
M4MM
0000
0300
0000
,  // measure 19
0010
0000
0000
0000
0100
0000
0000
0000
0000
00M0
1001
0000
0000
0000
0000
M000
0000
0000
0110
0000
0000
M000
0000
0000
,  // measure 20
0001
0000
0000
00M0
0100
0000
0000
0000
0000
M000
0101
0000
0000
0000
0000
0M00
0001
0000
1000
0000
0000
000M
0000
0000
,  // measure 21
0010
0000
0000
000M
0100
0000
0000
0000
0000
00M0
1001
0000
0000
0000
0000
0M00
0000
0000
1010
0000
0000
000M
0000
0000
,  // measure 22
0010
0000
0000
M000
0100
0000
0000
0000
0000
00M0
0101
0000
0000
0000
0000
0M00
1000
0000
0010
0000
0001
0000
1000
0000
,  // measure 23
0010
0000
0100
00M0
0000
0101
M000
0000
0000
101M
0000
0000
,  // measure 24
1M00
0000
0001
00M0
0000
1001
0M00
0000
0010
M100
0000
0000
,  // measure 25
00M1
0000
0100
M000
0000
0101
00M0
0000
0000
101M
0000
0000
,  // measure 26
1M00
0000
0001
M000
0000
0110
000M
0000
0100
0010
1000
0100
,  // measure 27
0010
0000
0000
0000
0001
0000
1000
0000
0000
000M
0100
0000
0000
0000
0000
M000
0010
0000
0001
0000
0000
0M00
0000
0000
,  // measure 28
1000
0000
0000
00M0
0001
0000
0100
0000
0000
M000
0010
0000
0000
0000
0000
M000
0001
0000
0100
0000
0000
00M0
0000
0000
,  // measure 29
1000
0000
0000
00M0
0001
0000
0100
0000
0000
M000
0001
0000
0000
0000
0000
000M
1000
0000
0010
0000
0000
000M
0000
0000
,  // measure 30
0100
0000
0000
00M0
0001
0000
1000
0000
0000
0M00
0001
0000
0000
0000
0000
00M0
1000
0000
0001
0000
1000
0000
0010
0000
,  // measure 31
0100
0000
0000
0000
0001
0000
0100
0000
0000
00M0
1000
0000
0000
0000
0000
0M00
0001
0000
1000
0000
0000
00M0
0000
0000
,  // measure 32
0001
0000
0000
M000
0010
0000
0100
0000
0000
000M
1000
0000
0000
0000
0000
00M0
1000
0000
0001
0000
0000
00M0
0000
0000
,  // measure 33
0100
0000
0000
M000
0001
0000
0010
0000
0000
0M00
1000
0000
0000
0000
0000
000M
0010
0000
0100
0000
0000
M000
0000
0000
,  // measure 34
0001
0000
0000
0000
0000
0000
0M00
0000
1000
0000
0000
0000
0010
0000
0000
0000
0000
0000
0000
0000
0002
0000
0000
0000
2MM0
0000
0000
0MM0
0000
0000
0MM0
0000
0000
0MM0
0000
0000
0MM0
0000
0000
0MM0
0000
0000
0MM0
0000
0000
0MM0
0000
0000
,  // measure 35
3MM3
MMMM
MMMM
MM0M
MM10
MM01
MM10
0M01
,  // measure 36
1000
0100
0001
0100
0010
1000
0010
0001
0100
0001
1000
0010
0100
0001
1000
0001
,  // measure 37
2MM2
0000
0M00
3003
0010
0100
0001
0010
1000
0100
0001
1000
0001
0010
0100
0010
,  // measure 38
0001
0100
0000
0001
0100
0000
0010
0000
1000
0100
0000
1000
0100
0000
0001
0000
0010
0001
0000
0010
0001
0000
0100
0000
0010
1000
0010
1000
0000
0010
0000
0000
,  // measure 39
1000
0000
0000
0001
0000
0000
1000
0000
0000
0001
0000
0000
1000
0000
0000
0001
0000
0000
1000
0000
0000
0001
0000
0000
1000
0000
0000
0001
0000
0000
1000
0000
0000
0001
0000
0000
1000
0000
0000
0001
0000
0000
1000
0000
0000
0001
0000
0000
1000
0000
0000
0001
0000
0000
1000
0000
0000
0001
0000
0000
1000
0000
0000
0001
0000
0000
1000
0000
0000
0001
0000
0000
1000
0000
0000
0001
0000
0000
1000
0000
0000
0001
0000
0000
1000
0000
0000
0001
0000
0000
1000
0000
0000
0001
0000
0000
1000
0000
0000
0001
0000
0000
1000
0000
0000
0001
0000
0000
1000
0000
0000
0001
0000
0000
1000
0000
0000
0000
0000
0000
0010
0000
0000
0000
0000
0000
0001
0000
0000
0000
0000
0000
0100
0000
0000
0000
0000
0000
1000
0000
0000
0000
0000
0000
00M1
0000
0000
0000
0000
0000
0000
0000
0000
0000
0000
0000
0000
0000
0000
0000
1000
0000
0000
0000
0000
0000
0000
0000
0000
0000
0000
0000
0000
0000
0000
0000
0001
0000
0000
0000
0000
0000
0000
0000
0000
0000
0000
0000
0000
0000
0000
0000
,  // measure 40
1000
0000
0000
0000
0000
0000
0000
0000
0000
0000
0000
0000
0000
0000
0000
0000
0010
0000
0000
0000
0000
0000
0000
0000
0000
0000
0000
0000
0000
0000
0000
0000
0100
0000
0000
0000
0000
0000
0000
0000
0000
0000
0000
0000
0000
0000
0000
0000
0001
0000
0000
0000
0000
0000
0000
0000
0000
0000
0000
0000
1000
0000
0000
0000
0000
0000
0000
0000
0000
0000
0000
0000
0100
0000
0000
0000
0000
0000
0000
0000
0000
0000
0000
0000
0010
0000
0000
0000
0000
0000
0000
0000
0000
0000
0000
0000
0000
0000
0000
0000
0000
0000
0000
0000
0000
0000
0000
0000
0001
0000
0000
0000
0000
0000
0000
0000
0000
0000
0000
0000
0100
0000
0000
0000
0000
0000
0000
0000
0000
0000
0000
0000
0010
0000
0000
0000
0000
0000
0000
0000
0000
0000
0000
0000
1000
0000
0000
0000
0000
0000
0000
0000
0000
0000
0000
0000
0010
0000
0000
0000
0000
0000
1000
0000
0000
0000
0000
0000
0000
0000
0000
0000
0000
0000
0010
0000
0000
0000
0000
0000
1000
0000
0000
0000
0000
0000
0000
0000
0000
0000
0000
0000
,  // measure 41
0M01
0000
1000
00M1
0000
1000
000M
0000
0100
M001
0000
0010
,  // measure 42
0M01
0000
0001
10M0
0000
1001
00M0
0000
0100
M010
0000
0000
,  // measure 43
0M01
0000
1000
00M1
0000
0100
M000
0000
0100
M001
0000
0001
,  // measure 44
M010
0000
0010
M100
0000
0101
00M0
0000
1000
0001
0010
0100
,  // measure 45
1000
0000
0000
00M0
0001
0000
0100
0000
0000
M000
0010
0000
0000
0000
0000
0M00
1000
0000
0001
0000
0000
00M0
0001
0000
,  // measure 46
0100
0000
0000
M000
0100
0000
0010
0000
0000
000M
1010
0000
0000
0000
0000
0M00
1000
0000
0001
0000
0000
00M0
0000
0000
,  // measure 47
1000
0000
0000
00M0
0001
0000
0100
0000
0000
M000
0010
0000
0000
0000
0000
0M00
0010
0000
0001
0000
0000
0M00
0001
0000
,  // measure 48
1000
0000
0000
00M0
1000
0000
0100
0000
0000
000M
0110
0000
0000
0000
0000
0000
0001
0000
1000
0000
0100
0000
0010
0000
,  // measure 49
0001
0000
0000
M0M0
0100
0000
0001
0000
0000
M0M0
0101
0000
0000
0000
0000
0M0M
0010
0000
1000
0000
0000
0M0M
0010
0000
,  // measure 50
1000
0000
0000
0MM0
1000
0000
0001
0000
0000
0MM0
1001
0000
0000
0000
0000
M00M
0100
0000
0010
0000
0000
0M0M
0000
0000
,  // measure 51
1000
0000
0000
00MM
0100
0000
1000
0000
0000
00MM
1100
0000
0000
0000
0000
0MM0
1000
0000
0001
0000
0000
M0M0
0001
0000
,  // measure 52
0100
0000
0000
M00M
0100
0000
0010
0000
0000
MM00
0011
0000
0000
0000
0000
0000
1000
0000
0001
0000
0100
0000
0010
0000
,  // measure 53
1000
0000
0001
M1M0
0000
0101
M0M0
0000
0001
1MM0
0000
1000
,  // measure 54
01MM
0000
0100
M0M1
0000
1001
0MM0
0000
0001
M1M0
0000
0010
,  // measure 55
1M0M
0000
1000
0MM1
0000
1001
0MM0
0000
0010
M10M
0000
0100
,  // measure 56
M0M1
0000
0001
1MM0
0000
0001
4000
0000
0000
0000
0000
0000
,  // measure 57
3001
0100
0001
0000
0001
1000
0001
0000
1000
0001
1000
0000
1000
0010
1000
0000
0100
0010
0100
0000
0100
0001
0100
0000
0010
1000
0010
0000
0010
0100
0010
0000
,  // measure 58
1000
0000
1000
0010
1000
0000
0100
0000
0010
0000
0001
0000
1000
0000
0010
0000
,  // measure 59
1000
0000
0000
0001
0000
0000
1000
0000
0100
0000
0010
0000
0001
0000
0100
0000
,  // measure 60
0010
0000
0000
0000
0000
0000
0000
0000
0001
0000
0000
0000
0000
0000
0000
0000
0100
0000
0000
0000
0000
0000
0000
0000
0010
0000
0000
0000
0000
0000
0000
0000
2MM2
0MM0
0MM0
0MM0
0MM0
0MM0
0MM0
0MM0
0MM0
0MM0
0MM0
0MM0
0MM0
0MM0
0MM0
0MM0
0MM0
0MM0
0MM0
0MM0
0MM0
0MM0
0MM0
0000
0MM0
0000
0MM0
0000
0MM0
0000
0MM0
0000
,  // measure 61
0MM0
0MM0
0MM0
0MM0
0MM0
0MM0
0MM0
0000
0MM0
0000
0MM0
0000
0MM0
0000
0MM0
0000
0MM0
0000
0MM0
0000
0MM0
0000
0MM0
0000
0MM0
0000
0000
0000
0MM0
0000
0000
0000
,  // measure 62
0MM0
0MM0
3MM3
0000
0000
0000
0000
0000
;
