#TITLE:DENIM (ELECTRO MIX);
#SUBTITLE:-Beatmania IIDX Version-;
#ARTIST:SLAKE (another mixed by DEPROGRAM MAN);
#TITLETRANSLIT:;
#SUBTITLETRANSLIT:;
#ARTISTTRANSLIT:;
#GENRE:;
#CREDIT:;
#BANNER:;
#BACKGROUND:;
#LYRICSPATH:;
#CDTITLE:;
#MUSIC:DENIM (ELECTRO MIX) (Beatmania IIDX Version).mp3;
#OFFSET:-0.500000;
#SAMPLESTART:48.380001;
#SAMPLELENGTH:12.800000;
#SELECTABLE:YES;
#BPMS:0.000000=150.000000
;
#STOPS:
;
#BGCHANGES:;
#KEYSOUNDS:;
#ATTACKS:;

//---------------dance-single - ----------------
#NOTES:
     dance-single:
     :
     Challenge:
     10:
     0.976055,0.884154,0.228169,0.202817,1.426054,539.000000,521.000000,18.000000,16.000000,0.000000,0.000000,0.976055,0.884154,0.228169,0.202817,1.426054,539.000000,521.000000,18.000000,16.000000,0.000000,0.000000:
// measure 0
1000
0000
0001
0000
1000
0001
0000
0001
1000
0000
0010
0000
0100
0000
0001
0100
,  // measure 1
0001
0000
0010
0000
0001
0010
0000
0010
0011
0000
1001
0000
1100
0000
1000
0000
,  // measure 2
1000
0000
0000
0000
0010
0000
1000
0010
0000
0010
1000
0000
0100
0001
0100
0000
,  // measure 3
0001
0000
0000
0000
1000
0000
0001
1000
0000
1000
0001
0000
0100
0010
0100
0000
,  // measure 4
2002
3003
0000
0000
0100
0000
0001
0010
0000
0010
0001
0000
1000
0100
1000
0000
,  // measure 5
0010
0000
0000
0000
0100
0000
0010
1000
0000
1000
0010
0000
0100
0001
0100
0000
,  // measure 6
0001
0000
0000
0000
1000
0000
0001
0100
0000
0100
0001
0000
1000
0010
1000
0000
,  // measure 7
0100
0000
0000
0000
0001
0000
1000
0010
0000
0010
1000
0000
0001
0100
0001
0000
,  // measure 8
0220
0330
0000
0000
0100
0000
0001
1000
0000
1000
0001
0000
0100
0010
0100
0000
,  // measure 9
0010
0000
0000
0000
0100
0000
0002
1003
0000
2000
3001
0000
0100
0010
0100
0000
,  // measure 10
0001
0000
0100
0000
1000
0000
1000
0010
0000
0100
0001
0000
1000
0001
1000
0000
,  // measure 11
0100
0000
0010
0000
0001
0000
1000
0100
0000
0001
0010
0000
1000
0001
1000
0000
,  // measure 12
2002
3003
1000
0000
0100
0000
0001
0010
0000
1000
0100
0000
1000
0010
1000
0000
,  // measure 13
0100
0000
0001
0000
0010
0000
0001
1000
0000
0100
0001
0000
0010
0100
0010
0000
,  // measure 14
0001
0000
1000
0000
0010
0000
1000
0100
0000
0001
0100
0000
0001
0100
0001
0000
,  // measure 15
0010
0000
1000
0000
0001
0000
1000
0010
0000
0001
0010
0000
1000
0100
1000
0000
,  // measure 16
0220
0330
0100
0000
0001
0000
1000
0010
0000
0100
0001
0000
1000
0001
1000
0000
,  // measure 17
0010
0000
0100
0000
0001
0000
2000
3010
0000
0200
0301
0000
1000
0001
1000
0000
,  // measure 18
0100
0001
0100
0000
0001
0100
0000
0100
0001
0000
0100
0000
0001
0100
0001
0000
,  // measure 19
1000
0010
1000
0010
1000
0010
1000
0010
1000
0010
1000
0010
1000
0010
1000
0010
,  // measure 20
0100
0010
0100
0000
0010
0100
0000
0010
0100
0000
0010
0000
0100
0010
0100
0000
,  // measure 21
0001
1000
0001
1000
0001
1000
0001
1000
0001
1000
0001
1000
0001
1000
0001
1000
,  // measure 22
0001
0010
0000
0001
0010
0001
0010
0001
0000
1000
0000
0100
1000
0100
1000
0100
,  // measure 23
1000
0010
0000
0001
0100
0001
0100
0001
0000
1000
0000
0010
0000
0100
0001
0000
,  // measure 24
1000
0010
0000
1000
0010
1000
0010
1000
0000
0001
0000
0100
0001
0100
0001
0100
,  // measure 25
0001
1000
0000
0100
0010
0000
1000
0000
0101
0000
0011
0000
1010
0000
1100
0000
,  // measure 26
1000
0001
0000
1000
0010
1000
0010
1000
0000
0001
0000
0100
0010
0100
0010
0100
,  // measure 27
0010
1000
0000
0001
0010
0001
0010
0001
0000
0100
0000
0010
0000
1000
0001
0000
,  // measure 28
1000
0100
0000
1000
0001
1000
0001
1000
0000
0001
0000
0100
0010
0100
0010
0100
,  // measure 29
0010
0000
0000
0000
1001
0000
0000
1000
0000
1000
0001
0000
1001
0000
0020
0030
,  // measure 30
0220
0330
0100
0010
0100
0001
0100
0010
0100
0000
0001
1000
0001
1000
0001
0010
,  // measure 31
0100
0000
1000
0001
1000
0010
1000
0100
1000
0000
0010
0100
0010
1000
0010
0100
,  // measure 32
0001
0000
0001
0010
0001
1000
0001
0100
0001
0000
0100
0001
0100
0010
0100
1000
,  // measure 33
0100
0000
0001
1000
0001
0010
0001
0100
0001
0000
0100
0010
0100
1000
0100
0001
,  // measure 34
0100
0000
1000
0010
0100
0001
1000
0100
0010
0000
0001
0100
0010
0100
0001
1000
,  // measure 35
0100
0000
0010
0001
0010
0100
1000
0010
0100
0000
0001
1000
0010
0100
0001
1000
,  // measure 36
0100
0000
0010
0001
0010
0100
1000
0010
0100
0000
0001
0100
0010
1000
0100
1000
,  // measure 37
0001
0000
0100
0001
1000
0001
0010
0100
1000
0001
0000
0100
0010
0000
0000
0000
,  // measure 38
1000
0010
0000
1000
0010
1000
0010
0100
0000
0001
0000
0001
0010
0001
0010
0100
,  // measure 39
0010
1000
0000
0001
1000
0001
1000
0010
0000
0100
0000
0001
0000
1000
0000
0010
,  // measure 40
0100
0001
0000
1000
0010
1000
0010
0100
0000
0001
0000
1000
0010
1000
0010
0100
,  // measure 41
0001
0010
0000
1000
0100
0000
1000
0000
1001
0000
0110
0000
1001
0000
0110
0000
,  // measure 42
1000
0010
0000
0100
0001
0010
0100
1000
0000
0001
0100
0010
0100
0001
0100
0010
,  // measure 43
1000
0100
0000
0001
1000
0000
0001
0010
0000
0001
0100
0010
0100
1000
0100
0001
,  // measure 44
1000
0010
1000
0000
0001
0100
0001
0000
0000
0000
1000
0001
0000
1000
0001
1000
,  // measure 45
0001
0100
0001
0100
0010
0100
0010
0000
1000
0001
1000
0000
0001
0100
0020
0000
,  // measure 46
0000
0000
0030
0000
;

//---------------dance-single - ----------------
#NOTES:
     dance-single:
     :
     Hard:
     10:
     0.691750,0.786112,0.114084,0.012676,0.735210,382.000000,373.000000,9.000000,1.000000,0.000000,0.000000,0.691750,0.786112,0.114084,0.012676,0.735210,382.000000,373.000000,9.000000,1.000000,0.000000,0.000000:
0000
0000
0000
0000
,
0000
0000
0000
0000
,
1000
0000
0010
1000
0000
0100
0010
0001
,
0100
0000
0001
0010
0000
0100
0010
1000
,
0001
0000
0100
1000
0000
0100
0010
0001
,
1000
0000
0010
0100
0000
0001
1000
0001
,
0010
0000
0100
0001
0000
1000
0010
0100
,
0010
0000
0001
0100
0000
0010
1000
0001
,
1000
0000
0100
0010
0000
0001
1000
0010
,
1000
0000
0100
0010
0000
0100
1000
0001
,
1000
0000
0010
0001
0000
0100
0010
1000
,
0001
0000
0100
0001
0000
0010
0001
1000
,
0100
0000
1000
0010
0000
0100
0010
1000
,
0001
0000
0100
1000
0000
0100
1000
0001
,
0010
0000
0100
0001
0000
0100
0010
1000
,
0001
0000
1000
0100
0000
0001
1000
0100
,
0010
0000
0001
0100
0000
0010
1000
0001
,
0100
0000
0001
0010
0000
1000
0100
0010
,
0001
1000
0001
1000
0010
0100
0010
0100
,
0001
0010
0001
0010
0001
0010
0001
0010
0100
1000
0100
1000
0100
1000
0100
1000
,
0001
0010
0100
1000
0001
0010
0100
1000
,
0001
1000
0001
1000
0001
1000
0001
1000
0001
0010
0100
1000
0001
0010
0100
1000
,
0001
0100
0000
0001
0100
0000
0001
0100
0000
0010
0000
1000
0010
0000
1000
0000
,
0100
1000
0000
0100
1000
0000
0100
1000
0000
0001
0000
0010
0000
0100
1000
0000
,
0001
1000
0000
0001
1000
0000
0001
1000
0000
0010
0000
0100
0001
0000
1000
0000
,
0010
0100
0000
0001
1000
0000
0001
0000
1001
0000
1001
0000
0110
0000
0110
0000
,
0001
0100
0000
0001
0100
0000
0010
0100
0000
0001
0000
1000
0100
0000
1000
0000
,
0001
0010
0000
0001
0010
0000
1000
0001
0000
0100
0000
0010
0000
1000
0001
0000
,
0100
0010
0000
0100
0010
0000
1000
0001
0000
1000
0000
0001
0100
0000
0010
0000
,
0100
0000
0000
0000
0010
0000
0000
1000
0000
0001
1000
0000
0001
0000
0100
0000
,
0110
0000
0010
0000
1000
0000
0010
0000
0100
0000
0001
0100
0000
0010
0000
1000
,
0001
0000
0100
0000
0010
0000
1000
0000
0001
0000
1000
0001
0000
0100
0000
0010
,
1000
0000
0100
0000
1000
0000
0001
0000
1000
0000
0001
0100
0000
0010
0000
0100
,
0001
0000
0010
0000
0100
0000
1000
0000
0001
0000
0100
0010
0000
0100
0000
0001
,
1000
0000
0100
0000
1000
0000
0001
0000
0010
0000
0001
0100
0000
0010
0000
1000
,
0001
0000
0100
0000
0001
0000
0010
0000
0100
0000
1000
0010
0000
0100
0000
0001
,
1000
0000
0010
0000
0100
0000
0010
0000
1000
0000
0001
0010
0000
0100
0000
1000
,
0001
0000
0010
0000
0100
0000
0001
0000
1000
0001
0000
0100
0010
0000
0000
0000
,
0100
0001
0000
0100
0010
0000
0100
0001
0000
1000
0000
0001
0010
0000
0100
0000
,
1000
0010
0000
1000
0001
0000
1000
0100
0000
1000
0000
0100
0000
0010
0000
0001
,
0010
1000
0000
0010
0100
0000
0010
0001
0000
0100
0000
0010
1000
0000
0100
0000
,
0001
0010
0000
1000
0100
0000
0000
0000
1100
0000
1100
0000
0011
0000
0011
0000
,
1000
0010
0000
0100
0010
0000
0001
0100
0000
0010
0000
1000
0001
0000
0100
0000
,
0001
0010
0000
1000
0100
0000
1000
0001
0000
0100
0000
0010
0000
1000
0000
0001
,
0010
0001
0010
0000
1000
0100
1000
0000
0000
0000
0001
0100
0000
0010
1000
0010
,
1000
0001
1000
0001
0100
0010
0100
0000
0001
1000
0001
0000
0200
0000
0301
1000
;
