#TITLE:2.14.13 x Illegal Function Call;
#SUBTITLE:;
#ARTIST:dj nagureo x U1 ASAMi (Mashup by katsuode);
#TITLETRANSLIT:;
#SUBTITLETRANSLIT:;
#ARTISTTRANSLIT:;
#GENRE:TECHNO x ORBITALIC CORE;
#CREDIT:;
#BANNER:;
#BACKGROUND:;
#LYRICSPATH:;
#CDTITLE:;
#MUSIC:2.14.13 x Illegal Function Call.mp3;
#OFFSET:-1.980000;
#SAMPLESTART:92.400002;
#SAMPLELENGTH:14.800000;
#SELECTABLE:YES;
#BPMS:0.000000=130.000000
,32.000000=260.000000
,96.000000=130.000000
,112.000000=260.000000
,176.000000=130.000000
,192.000000=260.000000
,456.000000=130.000000
;
#STOPS:
;
#BGCHANGES:;
#KEYSOUNDS:;
#ATTACKS:;

//---------------dance-single - Made by Stylek226.----------------
#NOTES:
     dance-single:
     :
     Challenge:
     18:
     0.788766,1.307274,0.190149,0.133808,0.172542,784.000000,757.000000,27.000000,19.000000,0.000000,0.000000,0.788766,1.307274,0.190149,0.133808,0.172542,784.000000,757.000000,27.000000,19.000000,0.000000,0.000000:
// measure 0
1000
2000
0000
0000
3100
0200
0000
0000
,  // measure 1
0310
0020
0000
0000
0031
0002
0000
0000
,  // measure 2
1000
2000
0000
0000
0000
0000
0000
0000
,  // measure 3
0000
0000
0000
0000
3003
0000
0010
0100
,  // measure 4
1000
0000
0001
0000
0100
0000
0010
1000
0000
0000
0001
0000
0100
0000
0010
0000
,  // measure 5
1000
0001
0001
0001
0010
0100
1000
0010
,  // measure 6
0001
0000
1000
0001
1000
0001
1000
0000
0010
0000
0010
0100
0000
0000
0001
0000
,  // measure 7
1000
0000
0100
1000
0100
1000
0100
0000
1000
0000
0010
0000
0100
0000
0001
0000
,  // measure 8
1000
0000
0100
0000
0001
0000
1000
0010
,  // measure 9
1000
0000
0001
0000
0010
0000
0001
1000
,  // measure 10
0001
0000
0100
0000
0010
0000
1000
0010
,  // measure 11
1000
0010
1000
0010
0100
0001
0100
0001
,  // measure 12
0010
0000
0100
0000
0001
0000
1000
0100
,  // measure 13
1000
0000
0010
0000
0001
0000
0100
0010
,  // measure 14
0100
0000
1000
0000
0001
0000
0100
0001
,  // measure 15
0100
0001
0100
0001
1000
0010
1000
0010
,  // measure 16
1000
0000
0001
0000
0100
0000
1000
0010
,  // measure 17
0100
0000
0001
0000
1000
0000
0100
0001
,  // measure 18
0010
0000
0100
0000
0001
0000
0010
1000
,  // measure 19
0001
1000
0010
1000
0100
1000
0001
1000
,  // measure 20
0100
0000
0010
0000
1000
0000
0001
0100
,  // measure 21
0010
0000
1000
0000
0001
0000
1000
0010
,  // measure 22
0100
0010
0001
0100
1000
0010
0100
0001
,  // measure 23
1000
0100
0010
0001
0100
0010
1000
0001
,  // measure 24
1000
0000
0010
0100
0001
0000
0100
0010
1000
0000
0001
0100
0000
0100
0010
0000
,  // measure 25
0100
0000
0010
1000
0001
0000
0001
1000
0010
0000
1000
0100
0000
0100
0001
0000
,  // measure 26
1000
0000
0100
0001
0010
0000
0010
0001
0100
0000
0100
0001
0000
0001
1000
0000
,  // measure 27
0010
0000
0000
0000
0000
0000
1000
0000
0000
0001
0000
0000
0100
0000
0000
0000
0000
0000
0010
0000
0000
1000
0000
0000
0001
0000
0000
0100
0000
0000
0010
0000
0000
0000
0000
0000
1000
0000
0010
0000
1000
0000
0010
0000
0000
0000
0000
0000
,  // measure 28
1000
0100
0010
0001
0000
0001
1000
0010
,  // measure 29
1000
1000
0100
0100
0010
0010
0001
0001
,  // measure 30
0100
0010
1000
0001
0000
0100
0001
0010
,  // measure 31
1000
0010
1000
0000
0100
0001
0100
0000
0010
0001
0010
0000
1000
0100
1000
0000
,  // measure 32
0010
0001
0100
0010
0000
0100
0010
0001
,  // measure 33
0010
0000
1000
0000
0010
0000
1000
0000
0100
0000
0010
0000
0100
0010
0100
0010
,  // measure 34
0100
0010
0001
0010
1000
0100
0000
0001
,  // measure 35
0100
1000
0010
0100
0001
0010
0100
0001
,  // measure 36
1000
0001
1000
0001
1000
0000
0001
0100
,  // measure 37
0010
0100
0001
0000
0010
0100
1000
0010
,  // measure 38
0100
0000
0001
0100
0001
0000
1000
0010
,  // measure 39
1000
0000
0100
0001
0010
0100
0001
1000
,  // measure 40
0000
0100
0001
0100
0001
0100
0001
0000
,  // measure 41
0010
1000
0010
0000
0100
0001
0010
0001
,  // measure 42
1000
0001
1000
0001
1000
0001
1000
0001
,  // measure 43
1000
0001
1000
0001
1000
0000
0001
0000
,  // measure 44
1001
0000
0010
0100
0001
0000
0010
0100
1000
0000
1000
0001
0000
0010
0100
0000
,  // measure 45
0001
0000
1000
0100
0001
0000
0001
0010
1000
0000
0001
0100
0000
1000
0010
0000
,  // measure 46
1000
0001
1000
0000
0010
0001
0010
0000
1000
1000
0100
0000
0001
0100
0001
0100
,  // measure 47
0001
0001
1000
0000
0100
0100
0010
0100
0001
1000
0001
1000
0001
1000
0001
1000
,  // measure 48
2002
0000
0000
0000
,  // measure 49
0000
0000
0000
0000
,  // measure 50
0000
0000
0000
0000
,  // measure 51
0000
0000
0000
0000
0000
0000
0000
3003
,  // measure 52
1000
0010
1000
0010
1000
0001
1000
0001
,  // measure 53
1000
0100
1000
0100
1000
0001
1000
0001
,  // measure 54
0100
0010
0100
0010
0100
0001
0100
0001
,  // measure 55
0100
0010
0100
0010
0100
0001
0100
0001
,  // measure 56
0100
0000
0100
0001
0000
0001
1000
0000
,  // measure 57
1000
0010
0000
0010
0100
0000
0100
0001
,  // measure 58
0000
0001
1000
0000
1000
0001
0000
0001
,  // measure 59
0100
0000
0100
0010
0000
0010
0001
0000
,  // measure 60
0001
0000
0010
0100
0000
1000
0001
0000
,  // measure 61
0010
1000
0000
0100
0010
0000
0001
1000
,  // measure 62
0000
0100
0001
0000
0010
0100
0000
0001
,  // measure 63
0010
0000
1000
0100
0000
1000
0010
0001
,  // measure 64
0100
0001
0000
1000
0000
0100
0000
0010
,  // measure 65
0000
0001
0000
0100
0010
0100
0000
1000
,  // measure 66
0001
1000
0000
0001
0000
0010
0000
0100
,  // measure 67
0000
1000
0000
0010
1000
0001
0000
1000
,  // measure 68
0001
0100
0000
0010
0000
1000
0000
0001
,  // measure 69
0000
0100
0000
0001
0100
0001
0000
1000
,  // measure 70
0001
1000
0000
0010
0000
0100
0000
0001
,  // measure 71
0000
1000
0000
0001
1000
0100
0000
0010
,  // measure 72
0001
0010
0001
0010
1000
0100
1000
0100
,  // measure 73
0001
0100
0001
0100
0010
1000
0010
1000
,  // measure 74
0001
1000
0001
1000
0010
0100
0010
0100
,  // measure 75
1000
0100
1000
0100
0001
0010
0001
0010
,  // measure 76
0001
0000
0010
0000
0100
0000
1000
0001
,  // measure 77
1000
0000
0100
0000
0010
0000
0001
1000
,  // measure 78
0001
0010
0100
1000
,  // measure 79
0001
0010
0100
2000
,  // measure 80
0002
0000
0000
0000
,  // measure 81
0000
0000
0000
3003
,  // measure 82
1000
0100
1000
0100
0010
0100
0010
0100
,  // measure 83
0001
1000
0001
1000
0001
0010
0001
0010
,  // measure 84
1000
0001
1000
0001
1000
0100
1000
0100
,  // measure 85
0001
1000
0001
1000
0001
0100
0001
0100
,  // measure 86
0001
1000
0000
1000
0010
0000
0010
0100
,  // measure 87
0000
0100
0001
0000
0001
1000
0001
1000
,  // measure 88
0010
0000
0010
0100
0000
0100
0001
0000
,  // measure 89
1000
0001
1000
0000
0010
0100
0010
0000
,  // measure 90
0001
0100
0001
0010
0100
0001
1000
0010
,  // measure 91
0100
0001
0010
0100
1000
0001
0100
0010
,  // measure 92
0001
1000
0100
1000
0010
0100
0001
0010
,  // measure 93
0100
0001
1000
0010
0100
0001
0010
1000
,  // measure 94
0001
1000
0000
0010
0100
0000
0001
0010
,  // measure 95
0000
1000
0100
0000
0001
1000
0001
0100
,  // measure 96
0010
0100
0001
0100
0000
1000
0001
0000
,  // measure 97
0100
0001
0010
0000
1000
0100
0010
0001
,  // measure 98
1000
0001
0000
1100
0000
0110
0000
0011
,  // measure 99
0000
0110
0000
1100
0000
0110
0000
0001
,  // measure 100
0100
0010
0000
1001
0000
0110
0000
0011
,  // measure 101
0000
1100
0000
1001
0000
0110
0000
0001
,  // measure 102
1000
0100
0001
0010
1000
0001
0100
0000
,  // measure 103
0011
0000
1100
0000
1001
0000
0100
0010
,  // measure 104
0100
0101
1010
0011
,  // measure 105
1100
0000
1001
0000
0110
0000
1000
0001
,  // measure 106
1000
0100
0010
0001
1000
0100
0010
0001
,  // measure 107
1000
0100
0010
0001
1000
0100
0010
0001
,  // measure 108
1000
0100
0010
0001
1000
0100
0010
0001
,  // measure 109
1000
0100
0010
0001
1000
0100
0010
0001
,  // measure 110
1000
0100
0010
0001
1000
0100
0010
0001
,  // measure 111
1000
0100
0010
0001
1000
0100
0010
0001
,  // measure 112
1000
0100
0010
0001
1000
0100
0010
0001
,  // measure 113
1001
1001
1001
1001
,  // measure 114
1000
2000
0000
0000
3100
0200
0000
0000
,  // measure 115
0310
0020
0000
0000
0031
0002
0000
0000
,  // measure 116
1003
2000
0000
0000
0000
0000
0000
0000
,  // measure 117
3100
0200
0000
0000
0000
0000
0000
0000
,  // measure 118
0301
0002
0000
0000
0000
0000
0000
0000
,  // measure 119
0013
0020
0000
0000
0000
0000
0000
0000
,  // measure 120
0031
0002
0000
0000
0000
0000
0000
0000
,  // measure 121
1000
2000
0000
0000
0000
0000
0000
0000
,  // measure 122
0000
0000
0000
0000
,  // measure 123
0000
0000
0000
3003
;
