#TITLE:Pulse In Opus;
#SUBTITLE:;
#ARTIST:RedPulse;
#TITLETRANSLIT:;
#SUBTITLETRANSLIT:;
#ARTISTTRANSLIT:;
#GENRE:;
#CREDIT:;
#BANNER:pulseinopus-bn.png;
#BACKGROUND:pulseinopus-bg.png;
#LYRICSPATH:;
#CDTITLE:;
#MUSIC:pulse in opus.ogg;
#OFFSET:-0.315;
#SAMPLESTART:42.704;
#SAMPLELENGTH:12.000;
#SELECTABLE:YES;
#DISPLAYBPM:138.000:175.000;
#BPMS:0.000=138.001,27.000=69.002,27.250=138.001,27.500=276.005,28.000=141.001,59.000=70.502,59.250=141.001,59.500=282.004,60.000=144.001,92.000=147.001,124.000=150.001,132.000=153.002,140.000=156.002,148.000=159.002,156.000=162.002,164.000=165.002,172.000=168.002,180.000=172.002,188.000=175.003,252.000=87.503,252.250=175.003,252.500=350.005,253.000=175.004,256.000=87.503,256.250=175.003,256.500=350.005,257.000=175.003,268.000=87.503,268.250=175.003,268.500=350.005,269.000=175.003,272.000=87.504,272.250=175.003,272.500=350.006,273.000=175.003,284.000=87.504,284.250=175.003,284.500=350.006,285.000=175.003,288.000=87.500,288.250=175.003,288.500=350.000,289.000=175.003,292.000=87.500,292.250=175.003,292.500=350.000,293.000=87.500,293.250=175.003,293.500=350.000,294.000=87.500,294.250=175.003,294.500=350.000,295.000=87.500,295.250=175.003,295.500=350.000,296.000=87.500,296.250=175.003,296.500=350.000,297.000=87.500,297.250=175.003,297.500=350.000,298.000=175.004,308.000=350.007,310.000=175.004,311.000=87.505,312.000=175.004;
#STOPS:;
#TIMESIGNATURES:0.000=4=4
;
#BGCHANGES:;
#KEYSOUNDS:;

//---------------dance-single - Dark Luke----------------
#NOTES:
     dance-single:
     Dark Luke:
     Edit:
     10:
     1.000,1.000,1.000,0.257,0.533,699.000,115.000,27.000,21.000,0.000,0.000,1.000,1.000,1.000,0.257,0.533,699.000,115.000,27.000,21.000,0.000,0.000:
0000
0000
0000
0000
,
0000
0000
0000
0000
,
0000
0000
0000
0000
,
1000
1000
0001
0000
0010
0000
0001
0000
0010
0100
1000
0000
0001
0000
0000
0000
,
1000
0010
0100
0000
0001
0000
0000
0000
0100
0010
1000
0000
0001
0000
0000
0000
,
1000
1000
0010
0000
1000
0000
0100
0000
0010
0100
1000
0000
0100
0000
0010
0100
,
1000
0001
0100
0000
0001
0010
0100
1000
0001
0000
0000
0000
2002
0000
3003
0000
,
0001
0000
0001
0000
0101
0000
0100
0010
1000
0000
0100
0000
0110
0000
0000
0000
,
0010
0000
0001
0000
0011
0000
0001
1000
0001
0000
1000
0000
1010
0000
0000
0000
,
1002
0000
0100
0003
0101
0000
0001
0010
0100
0000
1000
0000
1010
0000
0010
0000
,
0110
0000
0100
0000
0101
0000
0001
1000
0020
0000
0030
0000
1000
0100
1000
0100
,
0010
0001
1000
0000
0010
0000
1000
0001
0100
0001
1000
0000
0010
0000
0000
0000
,
1000
0100
0010
0000
0100
0000
0000
0010
0001
0010
0001
0000
1000
0000
0000
0000
,
0001
0100
0010
0000
0100
0000
0010
1000
0010
0100
0001
0000
0100
0000
0000
0000
,
0001
0010
0100
0000
0010
0000
0000
0100
1000
0000
0000
0000
0201
0001
0000
0300
,
0110
0000
1010
0000
1001
0000
0001
1000
0001
0000
0101
0000
1100
0000
0000
0000
,
1100
0000
0110
0000
0011
0000
0001
1000
0010
0000
1010
0000
0101
0000
0000
0000
,
0101
0000
0011
0000
1001
0000
1000
0010
0100
0000
0101
0000
1001
0000
1000
0100
,
1000
0001
0100
0000
0101
0000
0001
0000
1000
0100
0010
0000
0001
0010
0100
0010
,
0100
0000
1000
0000
0100
1000
0010
0000
0100
0000
1000
0000
0100
0001
1000
0000
,
1000
0000
0100
0000
0010
0100
0001
0000
0100
0000
0010
0000
0100
1000
0010
0000
,
1010
1001
0101
0110
1001
1100
0110
0011
,
1001
1100
0101
1010
0110
1001
0101
0000
,
0001
0000
1000
0000
0001
0010
0100
0000
0010
0000
0100
0000
1000
0010
0100
0000
,
0001
0000
0010
0000
0001
0100
0010
0000
1000
0000
0100
0000
0010
0100
1000
0000
,
0001
0000
0100
0000
0001
1000
0001
1000
0001
0000
1000
0000
0010
1000
0010
1000
,
0010
0000
1000
0000
0100
0010
0100
0010
0100
0000
0010
0000
0001
1000
0001
1000
,
0001
0101
0011
0101
1010
1100
1010
0000
,
1001
1100
1010
1100
0011
0101
0011
0000
,
1000
0100
0010
0001
0010
0100
1000
0001
,
0100
0010
0101
0010
1100
0002
0100
0003
,
1000
0100
0110
0010
0001
0100
0101
0000
,
1000
0000
0100
0000
1100
0000
0000
0000
0001
0000
0100
0000
0101
0000
0000
0001
,
0010
0100
1000
0000
1100
0000
1000
0000
0010
0000
0100
0000
0101
0000
0001
0000
,
1000
0000
0100
0000
0110
0000
0010
0000
0001
0000
0000
0000
1000
0100
0010
0001
,
1000
M010
10M0
M100
1M00
M001
010M
0000
,
0100
0M01
001M
0000
0100
0M10
00M1
0000
,
0001
010M
0M10
10M0
M100
1M00
M001
010M
,
0100
0M10
10M0
M001
020M
0000
0010
0000
,
0301
0000
0100
0000
0010
0000
1000
0000
0001
0000
0010
0000
0200
0000
1000
0300
,
0001
0000
0100
0000
0002
0000
0010
0003
0100
0000
1000
0000
0020
0000
1000
0030
,
0001
1000
0100
0010
0001
1000
0010
0100
,
0001
0000
0010
0000
0100
0000
0010
0000
0002
0000
0100
0000
1000
0000
0100
0003
,
0010
0000
1000
0000
0100
0000
0010
0000
0001
0000
0100
0000
0020
0000
1000
0030
,
0001
0000
0010
0000
0002
0000
0100
0003
0001
0000
1000
0000
0200
0000
0010
0300
,
0100
0000
1000
0000
0010
0000
1000
0000
0001
0000
0010
0000
0200
0000
1000
0300
,
0001
0010
0001
0010
0001
0100
0000
0010
0100
0000
0010
1000
0100
1000
0100
0010
,
0002
0000
0000
0000
1003
0000
1000
0000
0100
1000
0100
0000
1000
0000
0001
0000
,
0010
0100
0010
0000
0001
0000
0001
0000
0010
0100
0010
0000
0001
0000
0001
0000
,
1020
0000
0000
0000
0130
0000
0100
0000
0010
0100
0010
0000
0100
0000
0010
0000
,
1000
0010
1000
0000
0001
0000
0010
0000
0100
1000
0100
1000
0001
0000
0010
0000
,
0021
0000
0001
0030
1000
0000
1000
0000
0010
1000
0010
0000
1000
0000
1000
0000
,
0100
1000
0100
0000
0010
0000
0010
0000
0001
0100
0001
0000
0010
0000
0010
0000
,
0201
0000
0001
0300
1000
0000
1000
0000
0100
1000
0100
0000
1000
0000
1000
0000
,
0001
0010
0100
0000
0010
0000
0001
0000
0100
0010
1000
0010
0100
0000
0010
0000
,
2001
0000
0100
3000
0010
0000
0001
0000
1000
0010
1000
0000
0100
0000
0010
0000
,
0001
0100
0001
0000
1000
0000
0100
0000
1000
0010
2000
0000
0001
0000
3001
1000
,
0020
0000
0100
0030
0010
0000
1000
0000
0100
0010
0100
0000
1000
0000
0010
0000
,
0100
0001
1000
0000
0010
1000
0010
0100
0001
1000
0100
0010
0001
0000
0100
0000
,
0201
0000
0010
0300
1000
0000
0100
0000
0010
0001
0010
0000
0001
0000
0100
0000
,
0010
1000
0010
0000
0100
0000
0001
0000
0010
0000
0200
0000
1000
0000
1300
0010
,
0200
0000
0001
0300
0010
0000
0100
0000
1000
0001
1000
0000
0010
0000
0100
0000
,
0001
0010
0100
0000
0010
0100
1000
0001
1000
0001
0100
0001
1000
0000
0001
0000
,
1100
0011
0101
0010
,
1100
0000
0011
0000
0001
0001
0001
0000
,
1010
1000
0100
0010
0011
0001
1001
0000
,
1010
0000
1000
0000
0010
0000
0100
0000
0001
1000
0001
1000
0001
0000
0000
0000
,
1100
1010
0101
0001
,
0011
0000
1100
0000
1000
1000
1000
0000
,
1010
0010
0100
0001
0011
0010
0110
0000
,
1100
0000
1000
0000
0010
0000
0100
0000
0001
1000
0001
1000
0001
0000
0000
0000
,
1001
0110
0011
1000
,
0110
0000
1001
0000
0001
0001
0001
0000
,
0011
1100
0110
0101
,
1010
0000
0000
0000
0011
0000
0000
0000
1000
0001
1000
0001
1000
0000
0010
0000
,
0100
0000
0000
0000
0001
0010
0100
0000
0010
0100
1000
0000
0100
0010
0001
0000
,
1000
0010
0100
0000
0001
0100
0010
0000
1000
0010
0100
0000
0001
0100
0010
0000
,
1001
0000
0000
0000
,
0001
0010
0110
0100
1000
0100
1100
0000
,
0001
0100
0101
0000
1000
0100
1100
0000
,
1000
0010
0110
0100
0001
0010
0011
0001
,
1000
0000
0010
0000
1010
0000
1000
0000
0001
1000
0001
1000
0001
0000
0000
0000
,
1000
0100
0110
0010
0001
0100
0101
0000
,
1000
0100
1100
0000
0001
0100
0101
0000
,
1000
0010
0110
0100
0001
1000
1100
0100
,
0010
0001
1001
1000
0010
0100
0101
0001
,
1000
0010
0000
0000
2002
0000
0000
0000
0000
0000
0000
0000
0000
0000
0000
0000
,
3003
0000
0000
0000
;

//---------------dance-single - Blank----------------
#NOTES:
     dance-single:
     Blank:
     Challenge:
     11:
     1.000,1.000,1.000,0.229,0.567,707.000,113.000,24.000,22.000,0.000,0.000,1.000,1.000,1.000,0.229,0.567,707.000,113.000,24.000,22.000,0.000,0.000: // measure 1
0000
0000
0000
0000
,  // measure 2
0000
0000
0000
0000
,  // measure 3
0000
0000
0000
0000
,  // measure 4
0100
0100
0001
0000
0010
0000
0001
0000
0010
0100
1000
0000
0001
0000
0000
0000
,  // measure 5
1000
0010
0100
0000
0001
0000
0000
0000
0100
0010
1000
0000
0001
0000
0000
0000
,  // measure 6
1000
1000
0010
0000
1000
0000
0100
0000
0010
0100
1000
0000
0100
0000
0010
0100
,  // measure 7
1000
0001
0100
0000
0001
0010
0100
1000
0001
0000
0000
0000
2002
0000
0000
3003
,  // measure 8
0100
0000
0100
0000
1001
0000
0001
0100
0010
0000
0100
0000
1010
0000
0000
0000
,  // measure 9
1000
0000
0100
0000
0011
0000
0100
1000
0100
0000
0010
0000
1001
0000
0000
0000
,  // measure 10
1002
0000
0100
0003
1010
0000
0001
1000
0010
0000
0100
0000
1010
0000
0001
0000
,  // measure 11
1001
0000
0100
0000
1100
0000
0010
0001
1000
0000
0000
0000
0001
0010
0001
0010
,  // measure 12
0100
1000
0001
0000
0100
0000
0001
1000
0010
1000
0001
0000
0100
0000
0000
0000
,  // measure 13
0001
0010
0100
0000
0010
0000
0000
0100
1000
0100
1000
0000
0001
0000
0000
0000
,  // measure 14
1000
0010
0100
0000
0010
0000
0100
0001
0100
0010
1000
0000
0010
0000
0000
0000
,  // measure 15
1000
0100
0010
0000
0100
0000
0000
0010
0001
0000
0000
0000
0201
0001
0000
0300
,  // measure 16
0110
0000
1010
0000
1001
0000
0010
0100
0010
0000
0101
0000
1100
0000
0000
0000
,  // measure 17
1100
0000
0011
0000
0110
0000
0001
1000
0010
0000
1001
0000
0110
0000
0000
0000
,  // measure 18
1010
0000
0110
0000
0101
0000
0010
1000
0100
0000
0110
0000
1001
0000
0100
1000
,  // measure 19
0100
0010
0001
0000
0101
0000
0010
0000
1000
0100
0010
0000
0001
0010
0100
0010
,  // measure 20
0100
0000
1000
0000
0100
1000
0010
0000
0001
0000
0010
0000
0100
0001
1000
0000
,  // measure 21
1000
0000
0100
0000
0010
0100
0001
0000
0100
0000
0010
0000
0100
1000
0010
0000
,  // measure 22
1010
1001
0101
0110
1001
1100
0110
0011
,  // measure 23
1001
1100
0101
1010
0110
1001
0101
0000
,  // measure 24
0010
0000
0100
0000
0001
0010
0100
0000
0010
0000
0100
0000
1000
0010
0100
0000
,  // measure 25
0001
0000
0010
0000
0001
0100
0010
0000
1000
0000
0100
0000
0010
0100
1000
0000
,  // measure 26
1000
0000
0000
0000
0000
0000
0000
0000
0100
0000
0000
0000
0000
0000
0000
0000
0010
0000
0000
0001
0000
0000
1000
0000
0000
0001
0000
0000
0010
0000
0000
0000
0100
0000
0000
0000
0000
0000
0000
0000
1000
0000
0000
0000
0000
0000
0000
0000
0001
0000
0000
0010
0000
0000
0100
0000
0000
0010
0000
0000
0001
0000
0000
0000
,  // measure 27
1000
0000
0000
0000
0000
0000
0000
0000
0010
0000
0000
0000
0000
0000
0000
0000
0100
0000
0000
0001
0000
1000
0000
0000
0010
0000
0000
0000
0100
0000
0000
0000
0001
0000
0000
0000
0000
0000
0000
0000
1000
0000
0000
0000
0000
0000
0000
0000
0010
0000
0000
0100
0000
0000
0010
0000
0000
1000
0000
0000
0001
0000
0000
0000
,  // measure 28
1000
0101
0011
0101
1010
1100
1010
0000
,  // measure 29
1001
1100
1010
1100
0011
0101
0011
0000
,  // measure 30
1000
0100
0010
0001
0010
0100
1000
0001
,  // measure 31
0100
0000
0010
0000
0101
0000
1000
0000
1001
0000
0020
0000
0100
0000
0000
0030
,  // measure 32
1000
0100
1010
0001
0010
0100
0011
0000
,  // measure 33
0100
0000
1000
0000
0101
0000
0000
0000
0010
0000
0100
0000
1010
0000
0000
1000
,  // measure 34
0100
0010
0001
0000
1100
0000
0010
0000
0100
0000
0010
0000
1001
0000
0100
0000
,  // measure 35
1000
0000
0010
0000
1001
0000
0100
0000
0010
0000
0000
0000
0001
0100
0010
1000
,  // measure 36
0010
01M0
0M01
001M
00M1
100M
M010
0000
,  // measure 37
0010
10M0
M100
0M00
0010
01M0
1M00
0000
,  // measure 38
1000
M010
01M0
0M01
001M
00M1
100M
M010
,  // measure 39
0010
0000
01M0
0000
0M01
0000
100M
0000
M020
0000
0000
0000
1000
0000
0000
0030
,  // measure 40
0001
0000
0100
0000
0010
0000
1000
0000
0001
0000
0010
0000
0200
0000
1000
0300
,  // measure 41
0001
0000
0100
0000
0002
0000
0010
0003
0100
0000
1000
0000
0020
0000
1000
0030
,  // measure 42
0001
1000
0100
0010
0001
1000
0010
0100
,  // measure 43
0001
0000
0010
0000
0100
0000
0010
0000
0002
0000
0100
0000
1000
0000
0100
0003
,  // measure 44
0010
0000
1000
0000
0100
0000
0010
0000
0001
0000
0100
0000
0020
0000
1000
0030
,  // measure 45
0001
0000
0010
0000
0002
0000
0100
0003
0001
0000
1000
0000
0200
0000
0010
0300
,  // measure 46
0100
0000
1000
0000
0010
0000
1000
0000
0001
0000
0010
0000
0200
0000
1000
0300
,  // measure 47
0001
0010
0001
0010
0001
0100
0000
0010
0100
0000
0010
1000
0100
1000
0100
0010
,  // measure 48
0002
0000
0000
0000
1003
0000
1000
0000
0100
1000
0100
0000
1000
0000
0001
0000
,  // measure 49
0010
0100
0010
0000
0001
0000
0001
0000
0010
0100
0010
0000
0001
0000
0001
0000
,  // measure 50
1020
0000
0000
0000
0130
0000
0100
0000
0010
0100
0010
0000
0100
0000
0010
0000
,  // measure 51
0001
0010
0100
0000
0001
0000
0010
0000
0100
1000
0100
1000
0001
0000
0010
0000
,  // measure 52
0021
0000
0001
0030
1000
0000
1000
0000
0010
1000
0010
0000
1000
0000
1000
0000
,  // measure 53
0100
1000
0100
0000
0010
0000
0010
0000
0001
0100
0001
0000
0010
0000
0010
0000
,  // measure 54
0201
0000
0001
0300
1000
0000
1000
0000
0100
1000
0100
0000
1000
0000
1000
0000
,  // measure 55
0001
0010
0100
0000
0010
0000
0001
0000
0100
0010
1000
0010
0100
0000
0010
0000
,  // measure 56
2001
0000
0100
3000
0010
0000
0001
0000
1000
0010
1000
0000
0100
0000
0010
0000
,  // measure 57
0001
0100
0001
0000
1000
0000
0100
0000
1000
0010
2000
0000
0001
0000
3001
1000
,  // measure 58
0020
0000
0100
0030
0010
0000
1000
0000
0100
0010
0100
0000
1000
0000
0010
0000
,  // measure 59
0100
0001
1000
0000
0010
1000
0010
0100
0001
1000
0100
0010
0001
0000
0100
0000
,  // measure 60
0201
0000
0010
0300
1000
0000
0100
0000
0010
0001
0010
0000
0001
0000
0100
0000
,  // measure 61
0010
1000
0010
0000
0100
0000
0001
0000
0010
0000
0200
0000
1000
0000
1300
0010
,  // measure 62
0200
0000
0001
0300
0010
0000
0100
0000
1000
0001
1000
0000
0010
0000
0100
0000
,  // measure 63
0001
0010
0100
0000
0010
0100
1000
0010
1000
0001
0100
0001
0010
0000
0001
0000
,  // measure 64
1100
0011
0101
0010
,  // measure 65
1000
0000
0011
0000
0100
0001
0100
0000
,  // measure 66
1010
1000
0100
0010
1001
0001
0010
0000
,  // measure 67
1010
0000
0100
0000
0001
0000
0010
0000
0100
0010
0100
0010
0100
0000
0000
0000
,  // measure 68
1100
1010
0101
0001
,  // measure 69
0011
0000
1100
0000
0001
0100
0001
0000
,  // measure 70
1010
0001
0100
0010
1010
0100
0001
0000
,  // measure 71
0011
0000
0010
0000
0100
0000
1000
0000
0010
0100
0010
0100
0010
0000
0000
0000
,  // measure 72
1001
0110
0011
1000
,  // measure 73
0110
0000
1001
0000
0010
0100
1001
0000
,  // measure 74
0011
1100
0110
0101
,  // measure 75
1010
0000
0000
0000
0011
0000
0000
0000
1000
0010
0100
0010
0100
0000
0001
0000
,  // measure 76
1000
0000
0000
0000
0001
0010
0100
0000
0010
0100
1000
0000
0100
0010
0001
0000
,  // measure 77
1000
0010
0100
0000
0001
0100
0010
0000
1000
0010
0100
0000
0001
0100
0010
0000
,  // measure 78
1001
0000
0000
0000
,  // measure 79
0001
0010
1100
1000
0001
1000
0101
0000
,  // measure 80
1000
0001
1010
0000
1000
0010
1100
0100
,  // measure 81
1000
0010
0101
0001
0010
0100
0011
0001
,  // measure 82
1000
0000
0010
0000
0101
0000
1000
0000
0010
0100
0010
0100
0010
0000
0000
0000
,  // measure 83
1000
0100
1001
0001
1000
0100
1001
1000
,  // measure 84
0010
0100
0101
0010
1000
0100
0011
0010
,  // measure 85
0001
0100
0101
0010
1000
0001
0101
1000
,  // measure 86
0001
0010
0011
0100
1000
0001
0101
1000
,  // measure 87
0010
0100
0000
0000
0011
0000
0000
0000
0000
0000
0000
0000
0000
0000
0000
0000
;

//---------------dance-single - Blank----------------
#NOTES:
     dance-single:
     Blank:
     Hard:
     9:
     0.873,0.821,0.267,0.086,0.324,605.000,28.000,9.000,0.000,0.000,0.000,0.873,0.821,0.267,0.086,0.324,605.000,28.000,9.000,0.000,0.000,0.000:
0000
0000
0000
0000
,
0000
0000
0000
0000
,
0000
0000
0000
0000
,
0100
0010
0001
0000
0010
0000
0100
0000
0010
0100
1000
0000
0001
0000
0000
0000
,
0010
0100
1000
0000
0010
0000
0000
0000
0100
0010
1000
0000
0010
0000
0000
0000
,
1000
0100
0010
0000
0100
0000
0010
0000
0001
0010
0100
0000
0010
0000
0001
0010
,
0100
0010
0001
0000
0001
0010
0100
1000
0001
0000
0000
0000
0002
0000
0000
0003
,
1010
0100
0010
0100
0001
0010
0001
0000
,
0100
0001
1000
0000
0010
1000
0001
0000
,
0011
0100
0010
0001
1000
0010
0100
0001
,
0010
0100
0010
0001
2000
0000
3200
0000
,
1300
0100
0010
0000
0100
0000
1000
0100
0010
0100
1000
0000
0010
0000
0000
0000
,
0001
0010
0100
0000
0010
0000
0000
0100
0010
0001
0010
0000
0100
0000
0000
0000
,
1000
0100
0010
0000
0100
0000
1000
0100
0010
0100
1000
0000
0010
0000
0000
0000
,
0001
0010
0100
0000
0010
0000
0000
0100
1000
0000
0000
0000
0200
0000
0000
0300
,
0010
0100
0010
0100
1000
0100
0010
0000
,
0010
0100
0001
0000
0100
1000
0010
0000
,
1000
0100
0010
0001
0010
0100
1000
0001
,
0100
0000
0010
0000
0100
0000
0001
0000
0020
0000
0000
0030
0010
0100
0010
0100
,
1000
0100
0010
0001
0010
0100
1000
0100
,
1000
0010
0100
0001
0010
0100
1000
0000
,
0001
1000
0100
0010
0001
0010
0100
0010
,
0001
0010
0100
1000
0001
1000
0100
0000
,
1000
0010
0100
0001
0100
0010
0100
0000
,
0100
0001
0100
0010
0100
0001
0100
0000
,
0001
0010
0100
1000
0100
0010
0100
0010
,
0100
0000
1000
0000
0010
0000
0100
0000
0010
0000
0000
0000
0010
1000
0010
1000
,
0001
0010
0001
0010
0100
1000
0001
0000
,
0100
0001
0100
0001
0100
0010
1000
0000
,
0001
0010
0100
1000
0010
0100
0001
1000
,
0100
0000
0010
0000
0001
0000
0010
0000
0100
0000
2000
0000
0000
0000
0000
3000
,
1000
0100
0010
0001
0010
0100
0010
0000
,
0100
0000
1000
0000
0100
0000
0000
0000
0010
0000
0100
0000
0010
0000
0000
1000
,
0100
0010
0001
0000
0100
0000
0010
0000
1000
0000
0010
0000
0100
0000
0001
0000
,
0010
0000
0100
0000
1000
0000
0100
0000
0010
0000
0000
0000
1000
0001
1000
0001
,
0010
0001
0101
0100
0010
1000
1001
0000
,
0100
0001
1010
0000
0010
0100
1001
0000
,
0001
1000
1100
0010
0001
0010
1001
1000
,
0001
0010
0110
0100
2000
0000
0000
0000
,
3000
0000
0000
0000
0100
0010
0001
0000
0000
0000
0000
0000
0010
0100
1000
0000
,
0000
0000
0000
0000
0100
1000
0010
0000
0000
0000
0000
0000
0100
1000
0010
0000
,
0000
0000
0000
0000
0010
0100
0001
0000
0000
0000
0000
0000
1000
0100
0010
0000
,
0000
0000
0000
0000
0010
0100
0010
0000
0000
0000
0000
0000
0010
0001
0010
0000
,
0000
0000
0000
0000
0100
0001
0100
0000
0000
0000
0000
0000
0001
1000
0001
0000
,
0000
0000
0000
0000
0010
0100
0010
0000
0000
0000
0000
0000
1000
0001
1000
0000
,
0000
0000
0000
0000
0010
1000
0010
0000
0000
0000
0000
0000
0100
0001
1000
0000
,
0001
0000
1000
0000
0001
0000
0000
0010
0100
0000
1000
0000
0001
0000
1000
0000
,
0100
0000
0000
0000
0100
0000
0100
0000
0010
0100
0010
0000
0100
0000
0010
0000
,
0001
0010
0001
0000
1000
0000
1000
0000
0001
0010
0001
0000
1000
0000
1000
0000
,
0010
1000
0010
0000
0100
0000
0100
0000
0010
1000
0010
0000
0100
0000
0100
0000
,
0001
0100
0001
0000
1000
0000
1000
0000
0010
0100
0010
0000
1000
0000
1000
0000
,
0100
0000
0000
0000
0001
0000
0001
0000
0010
0100
0010
0000
0001
0000
0001
0000
,
1000
0100
1000
0000
0001
0000
0001
0000
1000
0100
1000
0000
0001
0000
0001
0000
,
0100
0000
0000
0000
0001
0000
0001
0000
1000
0010
1000
0000
0001
0000
0001
0000
,
0100
0010
0100
0000
0001
0000
0001
0000
1000
0100
1000
0000
0001
0000
0001
0000
,
1000
0100
0010
0001
0100
0010
0100
0001
,
1000
0000
0100
0000
0010
0000
0100
0000
0010
0000
0001
0000
0000
0000
0000
1000
,
0010
0100
0010
1000
0001
0010
0001
0100
,
0010
1000
0100
1000
0001
0010
0001
1000
,
0100
0010
0001
0010
0100
0010
0001
0010
,
0001
1000
0010
0100
0001
1000
0000
0000
,
0001
0010
0100
1000
1000
0100
0010
0001
,
0100
0010
1000
0001
1000
0010
0100
0001
,
1001
0110
1001
0110
,
0101
0000
1010
0000
0001
1000
0001
0000
,
0100
0001
0010
0100
0010
0100
1000
0000
,
0001
0000
0100
0000
0010
0000
0100
0000
0001
1000
0001
1000
0001
0000
0000
0000
,
1000
0100
0010
0100
,
1000
0000
0010
0000
0100
0001
0100
0000
,
0001
0010
0100
1000
0001
0010
0100
0000
,
1000
0000
0100
0000
0010
0000
0001
0000
1000
0010
1000
0010
1000
0000
0000
0000
,
1001
0110
1001
0110
,
0100
0000
1001
0000
0010
1000
0001
0000
,
0101
1010
0101
1010
,
0011
0000
0000
0000
1100
0000
0000
0000
0001
0010
0100
0010
0100
0000
0000
0000
,
0000
0000
0000
0000
0001
0010
0100
0000
1000
0100
0010
0000
0100
0010
0001
0000
,
0100
0010
0100
0010
0100
0010
0100
0010
,
1001
0000
0000
0000
,
0100
0001
0010
0100
0010
0001
1000
0000
,
0010
0100
0010
0000
0010
1000
0010
0000
,
1000
0100
0010
0100
1000
0010
0100
0001
,
0010
0100
0010
0001
2000
0000
0000
3000
,
0001
0100
0010
1000
0001
0010
0100
0000
,
1000
0010
0100
0000
0001
0100
0010
0000
,
1000
0100
0010
0001
0100
0010
0100
0001
,
1000
0100
0010
0001
2000
0000
3000
0000
,
0010
0100
0000
0000
1001
0000
0000
0000
0000
0000
0000
0000
0000
0000
0000
0000
;

//---------------dance-single - Blank----------------
#NOTES:
     dance-single:
     Blank:
     Easy:
     4:
     0.410,0.452,0.419,0.076,0.000,249.000,44.000,8.000,0.000,0.000,0.000,0.410,0.452,0.419,0.076,0.000,249.000,44.000,8.000,0.000,0.000,0.000:
0000
0000
0000
0000
,
0000
0000
0000
0000
,
0000
0000
0000
0000
,
1000
0010
1000
0010
,
1000
0100
1000
0100
,
0010
0100
0010
0100
,
1000
0001
1000
0001
,
1000
0010
0100
0010
,
1000
0100
0010
0100
,
1000
0001
0010
0001
,
0100
0010
0100
0000
,
0001
0010
0100
0010
,
0001
0100
0010
0100
,
0001
1000
0010
1000
,
0100
0010
0100
0000
,
1000
0100
0010
0001
,
0001
0010
0010
0100
,
1000
0010
0100
0001
,
0100
0010
1000
0000
,
0001
0100
0000
1000
,
0000
0100
0000
0001
,
0000
1000
0000
0100
,
0000
0001
0000
0100
,
0010
1001
0000
1000
,
0000
0010
0000
0001
,
0010
1000
0000
0100
,
0000
0010
0000
0001
,
1000
0010
0100
0001
,
0010
0100
0010
0001
,
1000
0010
1000
0100
,
0010
0100
1000
0000
,
0001
0100
1000
0000
,
1000
0100
0001
0000
,
1000
0100
0010
0100
,
0010
0001
0100
0000
,
0001
0101
0000
0110
,
0000
1001
0000
1010
,
0000
1100
0000
0110
,
0000
0011
0000
1001
,
0001
1000
0000
0010
,
0000
0001
0000
0010
,
0000
0100
0000
1000
,
0000
0100
0000
0001
,
0000
1000
0000
0100
,
0000
0001
0000
0100
,
0000
0010
0000
1000
,
0010
0010
0100
0010
,
0001
0100
0000
0100
,
0001
0010
0000
0010
,
0100
1000
0000
1000
,
0010
0100
0000
0001
,
1000
0100
0000
0100
,
1000
0010
0000
0010
,
0100
0001
0000
0001
,
0010
0010
0001
0000
,
1000
0100
0010
0100
,
1000
0100
0010
0000
,
0001
0100
0010
0100
,
0001
0001
0100
0010
,
1000
0001
0010
0001
,
1000
0001
0010
0000
,
0001
1000
0010
1000
,
0001
0100
0010
0100
,
0000
1001
0010
1001
,
0000
1001
0100
1001
,
0002
0000
0000
0003
0020
0000
0000
0030
,
2000
0000
0000
3000
0200
0000
0000
0300
,
0000
0110
0001
0110
,
0000
0110
1000
0110
,
0002
0000
0000
0003
0020
0000
0000
0030
,
2000
0000
0000
3000
0200
0000
0000
0300
,
0000
1001
0001
0110
,
0000
0110
0100
1001
,
0000
1001
0110
0110
,
1001
1001
0110
1001
,
0000
0001
0010
0100
,
1000
0100
0010
0001
,
1000
0000
0000
0000
,
1000
1001
0000
1100
,
0000
1001
0000
0101
,
0000
0110
0000
1010
,
0000
1001
0001
0000
,
0000
0011
0000
0101
,
0000
1001
0000
0110
,
0000
1001
0000
1010
,
0000
1100
0000
0110
,
0000
1001
0000
0000
;

//---------------dance-single - Blank----------------
#NOTES:
     dance-single:
     Blank:
     Medium:
     7:
     0.684,0.616,0.190,0.048,0.110,478.000,20.000,5.000,0.000,0.000,0.000,0.684,0.616,0.190,0.048,0.110,478.000,20.000,5.000,0.000,0.000,0.000:
0000
0000
0000
0000
,
0000
0000
0000
0000
,
0000
0000
0000
0000
,
1000
0100
0010
0001
0010
0100
0010
0000
,
0100
1000
0100
0000
0010
0100
0010
0000
,
0001
0100
0010
1000
0010
0100
0001
0010
,
0100
0000
1000
0000
0100
0000
0010
0000
0001
0000
0000
0000
0002
0000
0000
0003
,
0010
0001
0100
0010
1000
0010
0100
0000
,
0100
0001
0010
0000
0010
0100
1000
0000
,
0001
1000
0100
0010
0001
0010
0001
1000
,
1000
0001
0010
0001
2000
0000
3000
0000
,
0001
0100
1000
0100
0010
1000
0010
0000
,
0001
0010
0001
0000
0010
0100
0001
0000
,
1000
0100
0001
0100
0010
0001
0010
0000
,
1000
0000
0010
0000
1000
0000
0000
0000
0010
0000
0000
0000
0002
0000
0000
0003
,
1000
0010
0100
0001
0010
0001
0100
0000
,
0001
1000
0100
0000
1000
0001
0100
0000
,
0001
0100
0010
1000
0100
1000
0010
0100
,
0001
1000
0100
0010
0001
0000
1000
0000
,
0000
0000
0000
0000
0010
1000
0010
0000
0000
0000
0000
0000
0010
0100
0010
0000
,
0000
0000
0000
0000
0010
1000
0010
0000
0000
0000
0000
0000
0010
0100
0010
0000
,
0000
0000
0000
0000
1000
0001
1000
0000
0000
0000
0000
0000
1000
0100
1000
0000
,
0000
0000
0000
0000
1000
0001
1000
0000
0000
0000
0000
0000
1000
0010
1000
0000
,
0001
0000
0110
0000
1000
0100
1000
0000
,
0001
0010
0001
0100
0010
0000
1000
0000
,
0001
0000
1100
0000
0100
0010
0001
0000
,
0100
0010
1000
0100
1000
0000
0100
0100
,
0010
0001
0100
1000
,
0010
1000
0100
0001
,
1000
0100
0001
0100
,
1000
0011
1100
1001
,
1000
0100
0010
0001
0010
0100
0010
0000
,
0100
1000
0100
0000
0010
0100
0010
0000
,
0001
0000
0100
0000
0010
0000
1000
0000
0010
0000
0100
0000
0001
0000
0020
0030
,
0100
1000
0100
0010
0001
0000
0000
0000
,
0010
0001
0100
0010
1000
0010
0100
0000
,
0100
0001
0010
0000
0010
0100
1000
0000
,
0001
1000
0100
0010
0001
0010
0001
1000
,
1000
0001
0010
0001
2000
0000
0000
0000
,
3001
0100
0001
0000
0001
0010
0001
0000
,
1000
0100
1000
0000
1000
0010
1000
0000
,
0100
1000
0100
0000
0010
0001
0010
0000
,
0001
1000
0001
0000
1000
0010
1000
0000
,
0001
0000
0010
0000
1000
0010
0001
0000
,
1000
0000
0100
0000
0001
0100
1000
0000
,
0001
0010
0001
0000
0010
0100
0010
0000
,
0100
1000
0001
0010
,
0100
0000
0100
0010
0100
0000
0010
0010
,
0001
0000
1000
0001
1000
0000
1000
1000
,
0010
0000
0100
0010
0100
0000
0100
0100
,
0001
0001
1000
0000
0100
0000
1000
1000
,
0001
0010
0001
0000
0010
0000
0001
0001
,
1000
0000
0001
1000
0001
0000
0001
0001
,
0100
0000
0010
1000
0010
0000
0010
0010
,
0100
0100
0001
0000
0100
0001
0100
0000
,
0001
0000
1000
0100
0010
0000
0100
0000
,
1000
0000
0010
0100
0001
0000
0100
0100
,
0001
0000
0010
0100
1000
0000
0010
0000
,
0100
0010
0100
0000
0001
0010
0001
0000
,
1000
0000
0100
1000
0010
0000
0100
0000
,
0001
0000
0010
0001
0100
0000
0010
0010
,
1000
0000
0001
0000
0010
0100
0010
0000
,
0001
0000
0100
0000
0010
0100
0010
0000
,
1000
1100
0001
0101
,
1000
0000
1100
0000
0001
0100
0001
0000
,
1000
0100
0010
0000
0010
0001
0100
0000
,
0001
0100
0010
0000
1000
1000
0001
0000
,
1000
0011
0001
1010
,
1000
0000
0101
0000
0100
0010
0100
0000
,
0001
0100
0010
0000
0010
1000
0100
0000
,
1000
0001
0010
0000
0001
0001
1000
0000
,
0001
0110
1000
0110
,
0010
0000
1001
0000
0010
0100
0010
0000
,
1000
0110
1001
0110
,
1001
0000
0110
0000
0001
1000
0001
0000
,
1000
0001
0010
0100
,
1000
0100
1000
0100
0010
0001
0010
0001
,
1000
0000
0000
0000
,
1000
0000
0000
0000
0010
0100
0000
0000
0100
0000
0000
0000
0001
0010
0000
0000
,
0010
0000
0000
0000
0100
1000
0000
0000
1000
0000
0000
0000
0001
0100
0000
0000
,
0010
0000
0000
0000
1000
0100
0000
0000
0100
0000
0000
0000
0010
0001
0000
0000
,
0001
0000
0000
0000
1000
0010
0000
0000
0010
0000
0100
0000
0010
0000
0000
0000
,
1000
0000
0000
0000
0100
1000
0000
0000
0001
0000
0000
0000
0010
0001
0000
0000
,
1000
0000
0000
0000
0010
1000
0000
0000
0001
0000
0000
0000
0100
0001
0000
0000
,
1000
0000
0000
0000
0100
0010
0000
0000
0001
0000
0000
0000
0010
0100
0000
0000
,
1000
0000
0000
0000
0001
1000
0000
0000
0010
0000
0000
0000
0100
0001
0000
0000
,
1000
1001
0000
0000
;

//---------------dance-single - Blank----------------
#NOTES:
     dance-single:
     Blank:
     Beginner:
     3:
     0.264,0.329,0.143,0.000,0.000,179.000,15.000,0.000,0.000,0.000,0.000,0.264,0.329,0.143,0.000,0.000,179.000,15.000,0.000,0.000,0.000,0.000:
0000
0000
0000
0000
,
0000
0000
0000
0000
,
0000
0000
0000
0000
,
1000
0000
0001
0000
,
0100
0000
0001
0000
,
1000
0000
0100
0000
,
1000
0000
0001
0000
,
1000
0000
0100
0000
,
1000
0000
0001
0000
,
0100
0000
0001
0000
,
1000
0000
0010
0000
,
1000
0000
1000
0000
,
0001
0000
0010
0000
,
0001
0000
0001
0000
,
0100
0000
0001
0000
,
1000
0000
1000
0000
,
0001
0000
0001
0000
,
1000
0000
0001
0000
,
0010
0000
0100
0000
,
0000
1000
0000
1000
,
0000
1000
0000
1000
,
0000
0010
0000
0010
,
0000
0010
0000
0010
,
0000
0001
0000
0001
,
0000
0010
0000
0010
,
0000
1000
0000
1000
,
0000
1000
0000
1000
,
0001
0000
0001
0000
,
0100
0000
0100
0000
,
1000
0000
1000
0000
,
0100
0000
0100
0000
,
0001
0000
1000
0000
,
0010
0000
1000
0000
,
0001
0000
0010
0000
,
0001
0000
1000
0000
,
0000
1001
0000
1001
,
0000
0110
0000
1001
,
0000
0110
0000
0110
,
0000
1001
0000
0110
,
0000
1000
0000
0100
,
0000
1000
0000
0100
,
0000
0010
0000
0001
,
0000
0010
0000
0001
,
0000
1000
0000
0010
,
0000
1000
0000
0010
,
0000
0100
0000
0001
,
0001
0000
0001
0000
,
1000
0001
0000
0001
,
0000
0001
0000
0001
,
1000
0001
0000
0001
,
0000
0001
0001
0000
,
0001
1000
0000
1000
,
0000
1000
0000
1000
,
0001
1000
0000
1000
,
1000
0000
1000
1000
,
0001
0000
0010
0000
,
0100
0000
1000
0000
,
1000
0000
0100
0000
,
0010
0000
0001
0000
,
0001
0000
0100
0000
,
0010
0000
1000
0000
,
1000
0000
0010
0000
,
0100
0000
0001
0000
,
0000
1001
0000
0001
,
0000
1001
0000
1000
,
0001
0000
0010
0000
,
1000
0000
0100
0100
,
0000
0110
0000
0010
,
0000
0110
0000
0100
,
0010
0000
0001
0000
,
1000
0000
0010
0010
,
0000
1001
0000
0010
,
0000
1001
0000
0100
,
0000
0010
0010
0010
,
0010
0010
0010
0010
,
0000
0001
0000
1000
,
0001
0000
0001
0001
,
1000
0000
0000
0000
,
0010
0010
0000
1000
,
0000
0100
0000
0010
,
0000
0001
0000
0100
,
0000
0001
0001
0000
,
1000
1000
0000
0100
,
0000
1000
0000
0010
,
0000
0100
0000
0001
,
0000
1000
0000
0100
,
0000
1001
0000
0000
;

//---------------dance-double - Dark Luke----------------
#NOTES:
     dance-double:
     Dark Luke:
     Edit:
     10:
     1.000,1.000,1.000,0.257,0.533,699.000,113.000,27.000,21.000,0.000,0.000,1.000,1.000,1.000,0.257,0.533,699.000,113.000,27.000,21.000,0.000,0.000:
00000000
00000000
00000000
00000000
,
00000000
00000000
00000000
00000000
,
00000000
00000000
00000000
00000000
,
10000000
10000000
00010000
00000000
00100000
00000000
00010000
00000000
00100000
01000000
10000000
00000000
00010000
00000000
00000000
00000000
,
10000000
00100000
01000000
00000000
00010000
00000000
00000000
00000000
01000000
00100000
10000000
00000000
00010000
00000000
00000000
00000000
,
10000000
10000000
00100000
00000000
10000000
00000000
01000000
00000000
00100000
01000000
10000000
00000000
01000000
00000000
00100000
01000000
,
01000000
00001000
00100000
00000000
00001000
00010000
00100000
01000000
00001000
00000000
00000000
00000000
02002000
00000000
03003000
00000000
,
00001000
00000000
00001000
00000000
00101000
00000000
00100000
00010000
01000000
00000000
00100000
00000000
00110000
00000000
00000000
00000000
,
00010000
00000000
00001000
00000000
00011000
00000000
00001000
01000000
00001000
00000000
01000000
00000000
01010000
00000000
00000000
00000000
,
01002000
00000000
00100000
00003000
00101000
00000000
00001000
00010000
00100000
00000000
01000000
00000000
01010000
00000000
00010000
00000000
,
00011000
00000000
00010000
00000000
00010100
00000000
00000100
00100000
00002000
00000000
00003000
00000000
00100000
00010000
00100000
00010000
,
00001000
00000100
00100000
00000000
00001000
00000000
00100000
00000100
00010000
00000100
00100000
00000000
00001000
00000000
00000000
00000000
,
00100000
00010000
00001000
00000000
00010000
00000000
00000000
00001000
00000100
00001000
00000100
00000000
00100000
00000000
00000000
00000000
,
00000100
00010000
00001000
00000000
00010000
00000000
00001000
00100000
00001000
00010000
00000100
00000000
00010000
00000000
00000000
00000000
,
00000010
00000100
00001000
00000000
00000100
00000000
00000000
00001000
00010000
00000000
00000000
00000000
00002010
00000010
00000000
00003000
,
00001100
00000000
00010100
00000000
00010010
00000000
00000010
00010000
00000010
00000000
00001010
00000000
00011000
00000000
00000000
00000000
,
00011000
00000000
00001100
00000000
00000110
00000000
00000010
00010000
00000100
00000000
00010100
00000000
00001010
00000000
00000000
00000000
,
00001010
00000000
00000110
00000000
00010010
00000000
00010000
00000100
00001000
00000000
00001010
00000000
00010010
00000000
00010000
00001000
,
00001000
00000001
00000100
00000000
00000101
00000000
00000001
00000000
00001000
00000100
00000010
00000000
00000001
00000010
00000100
00000010
,
00000100
00000000
00001000
00000000
00000100
00001000
00000010
00000000
00000100
00000000
00001000
00000000
00000100
00000001
00001000
00000000
,
00001000
00000000
00000100
00000000
00000010
00000100
00000001
00000000
00000100
00000000
00000010
00000000
00000100
00001000
00000010
00000000
,
00001010
00001001
00000101
00000110
00001001
00001100
00000110
00000011
,
00010010
00011000
00001010
00010100
00001100
00010010
00001010
00000000
,
00000010
00000000
00010000
00000000
00000010
00000100
00001000
00000000
00000100
00000000
00001000
00000000
00010000
00000100
00001000
00000000
,
00000010
00000000
00000100
00000000
00000010
00001000
00000100
00000000
00010000
00000000
00001000
00000000
00000100
00001000
00010000
00000000
,
00000010
00000000
00001000
00000000
00000010
00010000
00000010
00010000
00000010
00000000
00010000
00000000
00000100
00010000
00000100
00010000
,
00001000
00000000
00100000
00000000
00010000
00001000
00010000
00001000
00010000
00000000
00001000
00000000
00000100
00100000
00000100
00100000
,
00000100
00010100
00001100
00010100
00101000
00110000
00101000
00000000
,
00100000
00110000
00101000
00110000
00001100
00010100
00001100
00000000
,
00100000
00010000
00001000
00000100
00001000
00010000
00100000
00000100
,
00100000
00010000
00101000
00010000
01100000
00002000
00100000
00003000
,
01000000
00100000
00110000
00010000
00001000
00100000
00101000
00000000
,
01000000
00000000
00100000
00000000
01100000
00000000
00000000
00000000
00001000
00000000
00100000
00000000
00101000
00000000
00000000
00001000
,
00010000
00100000
01000000
00000000
01100000
00000000
01000000
00000000
00010000
00000000
00100000
00000000
00101000
00000000
00001000
00000000
,
10000000
00000000
01000000
00000000
01100000
00000000
00100000
00000000
00010000
00000000
00000000
00000000
10000000
01000000
00100000
00010000
,
10000000
M0100000
10M00000
M1000000
1M000000
M0010000
010M0000
00000000
,
01000000
0M010000
001M0000
00000000
01000000
0M100000
00M10000
00000000
,
00010000
010M0000
0M100000
10M00000
M1000000
1M000000
M0010000
010M0000
,
00100000
00M10000
010M0000
0M001000
0020M000
00000000
00010000
00000000
,
00301000
00000000
00100000
00000000
00010000
00000000
01000000
00000000
00001000
00000000
00010000
00000000
00200000
00000000
01000000
00300000
,
00001000
00000000
00100000
00000000
00002000
00000000
00010000
00003000
00100000
00000000
01000000
00000000
00020000
00000000
01000000
00030000
,
00001000
01000000
00100000
00010000
00001000
01000000
00010000
00100000
,
00000100
00000000
00001000
00000000
00010000
00000000
00001000
00000000
00000200
00000000
00010000
00000000
00100000
00000000
00010000
00000300
,
00001000
00000000
00100000
00000000
00010000
00000000
00001000
00000000
00000100
00000000
00010000
00000000
00002000
00000000
00100000
00003000
,
00000100
00000000
00001000
00000000
00000200
00000000
00010000
00000300
00000100
00000000
00100000
00000000
00020000
00000000
00001000
00030000
,
00010000
00000000
00100000
00000000
00001000
00000000
00100000
00000000
00000100
00000000
00001000
00000000
00020000
00000000
00100000
00030000
,
00000010
00000100
00000010
00000100
00000010
00001000
00000000
00000100
00001000
00000000
00000100
00010000
00001000
00010000
00001000
00000100
,
00000020
00000000
00000000
00000000
00010030
00000000
00010000
00000000
00001000
00010000
00001000
00000000
00010000
00000000
00000010
00000000
,
00000100
00001000
00000100
00000000
00000010
00000000
00000010
00000000
00000100
00001000
00000100
00000000
00000010
00000000
00000010
00000000
,
00010200
00000000
00000000
00000000
00001300
00000000
00001000
00000000
00000100
00001000
00000100
00000000
00001000
00000000
00000100
00000000
,
00001000
00000010
00001000
00000000
00000001
00000000
00000010
00000000
00000100
00001000
00000100
00001000
00000001
00000000
00000010
00000000
,
00000021
00000000
00000001
00000030
00001000
00000000
00001000
00000000
00000010
00001000
00000010
00000000
00001000
00000000
00001000
00000000
,
00000100
00001000
00000100
00000000
00000010
00000000
00000010
00000000
00000001
00000100
00000001
00000000
00000010
00000000
00000010
00000000
,
00000201
00000000
00000001
00000300
00001000
00000000
00001000
00000000
00000100
00001000
00000100
00000000
00001000
00000000
00001000
00000000
,
00000010
00000100
00001000
00000000
00000100
00000000
00000010
00000000
00001000
00000100
00010000
00000100
00001000
00000000
00000100
00000000
,
00020010
00000000
00001000
00030000
00000100
00000000
00000010
00000000
00010000
00000100
00010000
00000000
00001000
00000000
00000100
00000000
,
00000010
00001000
00000010
00000000
00010000
00000000
00001000
00000000
00010000
00000100
00020000
00000000
00000010
00000000
00030010
00010000
,
00000200
00000000
00001000
00000300
00000100
00000000
00010000
00000000
00001000
00000100
00001000
00000000
00010000
00000000
00000100
00000000
,
00010000
00000100
00100000
00000000
00001000
00100000
00001000
00010000
00000100
00100000
00010000
00001000
00000100
00000000
00010000
00000000
,
00020100
00000000
00001000
00030000
00100000
00000000
00010000
00000000
00001000
00000100
00001000
00000000
00000100
00000000
00010000
00000000
,
00001000
00100000
00001000
00000000
00010000
00000000
00000100
00000000
00001000
00000000
00020000
00000000
00100000
00000000
00130000
00001000
,
00020000
00000000
00000100
00030000
00001000
00000000
00010000
00000000
00100000
00000100
00100000
00000000
00001000
00000000
00010000
00000000
,
00001000
00010000
00100000
00000000
00010000
00100000
01000000
00001000
01000000
00001000
00100000
00001000
01000000
00000000
00001000
00000000
,
01100000
00011000
00101000
00010000
,
01100000
00000000
00011000
00000000
00001000
00001000
00001000
00000000
,
01010000
01000000
00100000
00010000
00011000
00001000
01001000
00000000
,
10100000
00000000
10000000
00000000
00100000
00000000
01000000
00000000
00010000
10000000
00010000
10000000
00010000
00000000
00000000
00000000
,
11000000
10100000
01010000
00010000
,
00110000
00000000
11000000
00000000
10000000
10000000
10000000
00000000
,
10100000
00100000
01000000
00010000
00110000
00100000
01100000
00000000
,
01100000
00000000
01000000
00000000
00010000
00000000
00100000
00000000
00001000
01000000
00001000
01000000
00001000
00000000
00000000
00000000
,
01001000
00110000
00011000
01000000
,
00110000
00000000
01001000
00000000
00001000
00001000
00001000
00000000
,
00011000
01100000
00110000
00101000
,
00101000
00000000
00000000
00000000
00001100
00000000
00000000
00000000
00100000
00000100
00100000
00000100
00100000
00000000
00001000
00000000
,
00010000
00000000
00000000
00000000
00000100
00001000
00010000
00000000
00001000
00010000
00100000
00000000
00010000
00001000
00000100
00000000
,
00100000
00001000
00010000
00000000
00000100
00010000
00001000
00000000
00100000
00001000
00010000
00000000
00000100
00010000
00001000
00000000
,
00100000
00000000
00000000
00000000
,
00000010
00000100
00001100
00001000
00010000
00001000
00011000
00000000
,
00000010
00001000
00001010
00000000
00010000
00001000
00011000
00000000
,
00010000
00000100
00001100
00001000
00000010
00000100
00000110
00000010
,
00010000
00000000
00000100
00000000
00010100
00000000
00010000
00000000
00000010
00010000
00000010
00010000
00000010
00000000
00000000
00000000
,
00001000
00000100
00000110
00000010
00000001
00000100
00000101
00000000
,
00001000
00000100
00001100
00000000
00000001
00000100
00000101
00000000
,
00001000
00000010
00000110
00000100
00000001
00001000
00001100
00000100
,
00000010
00000001
00001001
00001000
00000010
00000100
00000101
00000001
,
00010000
00000100
00000000
00000000
00020020
00000000
00000000
00000000
00000000
00000000
00000000
00000000
00000000
00000000
00000000
00000000
,
00030030
00000000
00000000
00000000
;

//---------------dance-double - Blank----------------
#NOTES:
     dance-double:
     Blank:
     Challenge:
     11:
     1.000,1.000,0.429,0.076,0.652,721.000,45.000,8.000,0.000,0.000,0.000,1.000,1.000,0.429,0.076,0.652,721.000,45.000,8.000,0.000,0.000,0.000:
00000000
00000000
00000000
00000000
,
00000000
00000000
00000000
00000000
,
00000000
00000000
00000000
00000000
,
10000000
10000000
01000000
00000000
00100000
00000000
00010000
00000000
00001000
00010000
00100000
00000000
00001000
00000000
00000000
00000000
,
00010000
00100000
01000000
00000000
00010000
00000000
00000000
00000000
00100000
01000000
10000000
00000000
00100000
00000000
00000000
00000000
,
10000000
10000000
01000000
00000000
00100000
00000000
00010000
00000000
00001000
00010000
00100000
00000000
00001000
00000000
00000010
00000001
,
00000010
00000100
00001000
00000000
00000100
00010000
00000010
00001000
00000001
00000000
00000000
00000000
00022000
00000000
00000000
00033000
,
00100000
00000000
00010000
00000000
00001000
00000000
00000100
00001000
00000010
00000000
00001000
00000000
00000010
00000000
00000000
00000000
,
00000100
00000000
00001000
00000000
00000100
00000000
00000010
00000100
00001000
00000000
00100000
00000000
00001000
00000000
00000000
00000000
,
00100000
00000000
00010000
00000000
00001000
00000000
00000100
00001000
00000010
00000000
00001000
00000000
00000010
00000000
00000001
00000000
,
00000010
00000000
00001000
00000000
00100000
00000000
00010000
00000010
00001000
00000000
00000000
00000000
00001000
00000100
00010000
00001000
,
01000000
00000000
00100000
00000000
00010000
00000000
00001000
00010000
00000100
01000000
00010000
00000000
00000100
00000000
00000000
00000000
,
00000010
00010000
00001000
00000000
00000010
00000000
00000000
00000010
00000100
00010000
00001000
00000000
01000000
00000000
00000000
00000000
,
00010000
00100000
00001000
00000000
00000100
00000000
00000010
00000100
00000001
00001000
00000100
00000000
00000001
00000000
00000000
00000000
,
00000010
00000100
00010000
00000000
00000010
00000000
00000000
00000010
00000100
00000000
00000000
00000000
00001000
00001000
00000000
00000000
,
01000000
00000000
00100000
00000000
00010000
00000000
00001000
00010000
00000100
00000000
00010000
00000000
00000100
00000000
00000000
00000000
,
00001000
00000000
01000000
00000000
00001000
00000000
00100000
00001000
00010000
00000000
01000000
00000000
00010000
00000000
00000000
00000000
,
10000000
00000000
01000000
00000000
00100000
00000000
00010000
01000000
00001000
00000000
00100000
00000000
00001000
00000000
00000001
00000100
,
00001000
00000100
00010000
00000000
00100000
00000000
01000000
00000000
10000000
01000000
00100000
00000000
01000000
00010000
01000000
00100000
,
10000000
00000000
01000000
00000000
00100000
01000000
00010000
00000000
00001000
00000000
00010000
00000000
00100000
10000000
01000000
00000000
,
10000000
00000000
01000000
00000000
00100000
00001000
00010000
00000000
00001000
00000000
00100000
00000000
00001000
00010000
00001000
00000000
,
00010000
00000000
00001000
00000000
00000100
00000001
00000010
00000000
00000001
00000000
00000010
00000000
00000100
00010000
00001000
00000000
,
00010000
00000000
00001000
00000000
00000100
00000001
00000010
00000000
00000001
00000000
00000100
00000000
00000001
00000000
00000000
00000000
,
00100000
00000000
00010000
00000000
00001000
00000001
00000100
00000000
00000010
00000000
00001000
00000000
00000010
00010000
00001000
00000000
,
01000000
00000000
00100000
00000000
00010000
00000010
00001000
00000000
00000100
00000000
00010000
00000000
00000100
00010000
00001000
00000000
,
10000000
00000000
00000000
00000000
00000000
00000000
00000000
00000000
01000000
00000000
00000000
00000000
00000000
00000000
00000000
00000000
00100000
00000000
00000000
00010000
00000000
00000000
00100000
00000000
00000000
01000000
00000000
00000000
00100000
00000000
00000000
00000000
00010000
00000000
00000000
00000000
00000000
00000000
00000000
00000000
01000000
00000000
00000000
00000000
00000000
00000000
00000000
00000000
00001000
00000000
00000000
00010000
00000000
00000000
00001000
00000000
00000000
01000000
00000000
00000000
00001000
00000000
00000000
00000000
,
00010000
00000000
00000000
00000000
00000000
00000000
00000000
00000000
00000010
00000000
00000000
00000000
00000000
00000000
00000000
00000000
00001000
00000000
00000000
00000010
00000000
00000000
00000100
00000000
00000000
00000010
00000000
00000000
00000100
00000000
00000000
00000000
00000001
00000000
00000000
00000000
00000000
00000000
00000000
00000000
00001000
00000000
00000000
00000000
00000000
00000000
00000000
00000000
00000001
00000000
00000000
00001000
00000000
00000000
00000100
00000000
00000000
00001000
00000000
00000000
00000100
00000000
00000000
00000000
,
00010000
00001100
00000110
00000011
00001001
00000100
00001001
00000000
,
00101000
00010100
00001010
00000101
00001100
00010000
00010100
00000000
,
10000000
01000000
00100000
00010000
00001000
00010000
00100000
01000000
,
10000000
01000000
00110000
01000000
00100000
20000000
00010000
30000000
,
10000000
01000000
00100000
00010000
00001000
01000000
00001000
00000000
,
00010000
00000000
01000000
00000000
00010000
00000000
00000000
00000000
00100000
00000000
10000000
00000000
00100000
00000000
00000000
00100000
,
10000000
00010000
01000000
00000000
00100000
00000000
00010000
00000000
00001000
00000000
00100000
00000000
00001000
00000000
00000001
00000000
,
00000100
00000000
00010000
00000000
01000000
00000000
00010000
00000000
00000100
00000000
00000000
00000000
00010000
00001000
00100000
00010000
,
10000000
01000000
00101000
00010000
00001000
01000000
00101000
00000000
,
00010000
01000000
00011000
00000000
00100000
10000000
00110000
00000000
,
10000000
01000000
00101000
00010000
00001000
00100000
00001010
00000001
,
00001000
00010000
00110000
01000000
20000000
00000000
01000000
30000000
,
00010000
00000000
00100000
00000000
01000000
00100000
00010000
00000000
00100000
00000000
01000000
00000000
10000000
01000000
00100000
00000000
,
00001000
00000000
00010000
00000000
00100000
10000000
01000000
00000000
00100000
00000000
01000000
00000000
10000000
00100000
01000000
00000000
,
00001000
00000000
00010000
00000000
00100000
00010000
00001000
00000000
00010000
00000000
00100000
00000000
01000000
00010000
10000000
00000000
,
01000000
00000000
00100000
00000000
00010000
00100000
00001000
00000000
00010000
00000000
00001000
00000000
00000100
00000001
00000010
00000000
,
00000001
00000000
00000010
00000000
00000100
00010000
00001000
00000000
00000010
00000000
00000100
00000000
00001000
00000010
00010000
00000000
,
00001000
00000000
00010000
00000000
00100000
10000000
01000000
00000000
00100000
00000000
01000000
00000000
10000000
01000000
00010000
00000000
,
00000100
00000000
00001000
00000000
00000001
00000010
00000100
00000000
00001000
00000000
00000001
00000000
00000100
00000001
00001000
00000000
,
00000010
00000100
00000010
00000100
00000010
00001000
00000000
00000100
00001000
00000000
00000100
00010000
00001000
00010000
00001000
01000000
,
00020000
00000000
00000000
00000000
00130000
00000000
00100000
00000000
00010000
01000000
00010000
00000000
00100000
00000000
01000000
00000000
,
10000000
01000000
10000000
00000000
00010000
00000000
00010000
00000000
10000000
01000000
10000000
00000000
00100000
00000000
00100000
00000000
,
00012000
00000000
00000000
00000000
00013000
00000000
00010000
00000000
00000100
00001000
00000100
00000000
00010000
00000000
00010000
00000000
,
00000010
00001000
00000010
00000000
00000100
00000000
00000001
00000000
00000010
00000001
00000010
00000001
00000100
00000000
00000010
00000000
,
00012000
00000000
00010000
00003000
00001000
00000000
00001000
00000000
01000000
00010000
01000000
00000000
00001000
00000000
00001000
00000000
,
00100000
00010000
00100000
00000000
01000000
00000000
01000000
00000000
10000000
00100000
10000000
00000000
01000000
00000000
01000000
00000000
,
20010000
00000000
00010000
30000000
00100000
00000000
00001000
00000000
01000000
00010000
01000000
00000000
00001000
00000000
00010000
00000000
,
00000010
00001000
00000100
00000000
00000010
00000000
00000001
00000000
00000010
00000100
00001000
00000100
00010000
00000000
00001000
00000000
,
00100000
00000000
00010000
00000000
00001000
00000000
00000100
00000000
00000010
00000001
00000100
00000000
00001000
00000000
00010000
00000000
,
00100000
01000000
00010000
00000000
00001000
00000000
00100000
00000000
00001000
00100000
00010000
00000000
00100000
00000000
10000000
00010000
,
00100000
00000000
00010000
00000000
00001000
00000000
00000100
00000000
00000010
00000001
00000100
00000000
00001000
00000000
00010000
00000000
,
00000010
00001000
00000100
00000000
00010000
00000100
00001000
00000100
00010000
00001000
01000000
00001000
00010000
00000000
00001000
00000000
,
01000000
00000000
00100000
00000000
00010000
00000000
00001000
00000000
00000100
00000010
00001000
00000000
00010000
00000000
00100000
00000000
,
01000000
10000000
00100000
00000000
00010000
00000000
00001000
00000000
00010000
00001000
00100000
00000000
01000000
00000000
10000000
00010000
,
01000000
00000000
00100000
00000000
00010000
00000000
00001000
00000000
00000100
00000010
00001000
00000000
00010000
00000000
00100000
00000000
,
00001000
00100000
00010000
00000000
00100000
01000000
10000000
00010000
00100000
00001000
00100000
00001000
00010000
00000000
00001000
00000000
,
00000100
00001001
00011000
00101000
,
00010000
00000000
11000000
00000000
00010000
00100000
00010000
00000000
,
10000000
01000000
00100000
00010000
00001000
01000000
00001000
00000000
,
00000010
00000000
00010000
00000000
00000010
00000000
00000001
00000000
00000010
00000100
00000010
00000100
00000010
00000000
00000000
00000000
,
00011000
01010000
11000000
00100000
,
00011000
00000000
00001010
00000000
00010000
00001000
00010000
00000000
,
10000000
01000000
00100000
00010000
00001000
01000000
00001000
00000001
,
00000010
00000000
00001000
00000000
00000010
00000000
00000001
00000000
00001000
00000010
00001000
00000010
00001000
00000000
00000000
00000000
,
00000101
00001100
00010010
01001000
,
00110000
00000000
01100000
00000000
00001000
00010000
00001000
00000000
,
00001001
00000011
00001010
00110000
,
10100000
00000000
00000000
00000000
11000000
00000000
00000000
00000000
00100000
00001000
00010000
00001000
00010000
00000000
00000010
00000000
,
00001000
00000000
00000000
00000000
00000001
00000010
00000100
00000000
00000010
00000100
00001000
00000000
00000100
00010000
00001000
00000000
,
00010000
00001000
00100000
00000000
00010000
00100000
01000000
00000000
00100000
01000000
10000000
00000000
01000000
00100000
00010000
00000000
,
10000000
00000000
00000000
00000000
,
10000000
01000000
00100000
00010000
00001000
01000000
00001000
00000000
,
00010000
01000000
00010000
00000000
00100000
10000000
00100000
00000000
,
10000000
01000000
00100000
00010000
00001000
01000000
00001000
00000001
,
00000010
00000000
00001000
00000000
00100000
00000000
00001000
00000000
00000010
00000100
00000010
00000100
00000010
00000000
00000000
00000000
,
00000001
00000010
00000100
00001000
00010000
00000010
00010000
00000000
,
00001000
00000010
00001000
00000000
00000100
00000001
00000100
00000000
,
00000001
00000010
00000100
00001000
00010000
00000010
00010000
00100000
,
00001000
01000000
00001000
00100000
00010000
10000000
00100000
10000000
,
00010000
00100000
00000000
00000000
00011000
00000000
00000000
00000000
00000000
00000000
00000000
00000000
00000000
00000000
00000000
00000000
;

//---------------dance-double - Blank----------------
#NOTES:
     dance-double:
     Blank:
     Hard:
     9:
     0.865,0.821,0.171,0.095,0.319,608.000,18.000,10.000,0.000,0.000,0.000,0.865,0.821,0.171,0.095,0.319,608.000,18.000,10.000,0.000,0.000,0.000:
00000000
00000000
00000000
00000000
,
00000000
00000000
00000000
00000000
,
00000000
00000000
00000000
00000000
,
10000000
01000000
00100000
00000000
00010000
00000000
00100000
00000000
00001000
00010000
00000100
00000000
00000010
00000000
00000000
00000000
,
00000100
00010000
00001000
00000000
00010000
00000000
00000000
00000000
00100000
01000000
00010000
00000000
00100000
00000000
00000000
00000000
,
10000000
01000000
00100000
00000000
00010000
00000000
00100000
00000000
00001000
00010000
00000100
00000000
00000010
00000000
00000001
00000010
,
00000001
00001000
00000010
00000000
00000100
00000010
00001000
00000010
00010000
00000000
00000000
00000000
00200000
00000000
00000000
00300000
,
10000000
01000000
00100000
00010000
00001000
01000000
00001000
00000000
,
00010000
01000000
00010000
00000000
00100000
10000000
00100000
00000000
,
10000000
01000000
00100000
00010000
00001000
01000000
00001000
00000001
,
00000010
00001000
00100000
00001000
00000020
00000000
00000032
00000000
,
00001003
00000010
00001000
00000000
00000100
00000000
00000010
00000001
00000010
00000100
00000010
00000000
00000100
00000000
00000000
00000000
,
00010000
00001000
00100000
00000000
00001000
00000000
00000000
01000000
00010000
01000000
00100000
00000000
10000000
00000000
00000000
00000000
,
00010000
00100000
01000000
00000000
00100000
00000000
00010000
00100000
00001000
00010000
00001000
00000000
00010000
00000000
00000000
00000000
,
00000010
00000100
00000001
00000000
00000100
00000000
00000000
00001000
00020000
00000000
00000000
00030000
02000000
00000000
00000000
03000000
,
10000000
01000000
00100000
00010000
00001000
01000000
00001000
00000000
,
00010000
01000000
00010000
00000000
00100000
10000000
00100000
00000000
,
10000000
01000000
00100000
00010000
00001000
01000000
00001000
00000001
,
00000100
00000000
00001000
00000000
00000100
00000000
00000010
00000000
00020000
00000000
00000000
00030000
00010000
00001000
00100000
00010000
,
10000000
01000000
00100000
00010000
00001000
00010000
00100000
01000000
,
10000000
01000000
00100000
00010000
00001000
01000000
00001000
00000000
,
00010000
00001000
00000100
00000010
00000001
00000010
00000100
00001000
,
00010000
00001000
00000100
00000010
00000001
00000100
00000001
00000000
,
00001000
00000100
00000010
00000001
00001000
00000010
00001000
00000000
,
00100000
00010000
00001000
00000100
00000010
00001000
00000010
00000000
,
01000000
00100000
00010000
00001000
00000100
00001000
00010000
00100000
,
01000000
00000000
00100000
00000000
00010000
00000000
00100000
00000000
01000000
00000000
00000000
00000000
00010000
10000000
00010000
10000000
,
01000000
00100000
00010000
00001000
00000100
00010000
00000100
00000000
,
01000000
00100000
00010000
00001000
00000100
00010000
00000100
00000000
,
10000000
01000000
00100000
00010000
00001000
00010000
00100000
01000000
,
10000000
01000000
00100000
01000000
00100000
20000000
00000000
30000000
,
01000000
00100000
00010000
00001000
00000100
00010000
00000100
00000000
,
00001000
00000000
00100000
00000000
00001000
00000000
00000000
00000000
00010000
00000000
01000000
00000000
00010000
00000000
00000000
00010000
,
10000000
00100000
01000000
00000000
00100000
00000000
00010000
00000000
00001000
00000000
00100000
00000000
00001000
00000000
00000100
00000000
,
00000001
00000000
00000010
00000000
00001000
00000000
00000010
00000000
00000001
00000000
00000000
00000000
00001000
00000100
00001000
00000100
,
00010000
00001000
00000100
00000010
00000001
00000100
00000001
00000000
,
00000010
00010000
00000010
00000000
00000100
00010000
00000100
00000000
,
00100000
00010000
00001000
00000100
00000010
00001000
00000010
00000001
,
00000010
00000100
00001000
00010000
00200000
00000000
00000000
00000000
,
00300000
00000000
00000000
00000000
01000000
00100000
00010000
00000000
00000000
00000000
00000000
00000000
00100000
01000000
10000000
00000000
,
00000000
00000000
00000000
00000000
00010000
00100000
00001000
00000000
00000000
00000000
00000000
00000000
00010000
00000100
00001000
00000000
,
00000000
00000000
00000000
00000000
00000001
00000100
00000010
00000000
00000000
00000000
00000000
00000000
00000100
00000010
00001000
00000000
,
00000000
00000000
00000000
00000000
00000100
00010000
00001000
00000000
00000000
00000000
00000000
00000000
00100000
00010000
10000000
00000000
,
00000000
00000000
00000000
00000000
00100000
01000000
00100000
00000000
00000000
00000000
00000000
00000000
10000000
01000000
10000000
00000000
,
00000000
00000000
00000000
00000000
00001000
00010000
00001000
00000000
00000000
00000000
00000000
00000000
00000100
00000010
00000100
00000000
,
00000000
00000000
00000000
00000000
00000001
00000010
00000001
00000000
00000000
00000000
00000000
00000000
00001000
00000010
00001000
00000000
,
00000001
00000000
00000010
00000000
00000100
00000000
00000000
00000100
00010000
00000000
00001000
00000000
01000000
00000000
00010000
00000000
,
00100000
00000000
00000000
00000000
00010000
00000000
00010000
00000000
00100000
00010000
00100000
00000000
00010000
00000000
01000000
00000000
,
00100000
10000000
00100000
00000000
10000000
00000000
10000000
00000000
00100000
10000000
00100000
00000000
01000000
00000000
00001000
00000000
,
00010000
00001000
00010000
00000000
00000100
00000000
00000100
00000000
00010000
00001000
00010000
00000000
00000100
00000000
00001000
00000000
,
00000010
00000100
00000010
00000000
00000100
00000000
00000100
00000000
00000001
00000100
00000001
00000000
00000100
00000000
00000010
00000000
,
00001000
00000000
00000000
00000000
00000100
00000000
00000100
00000000
00010000
00000100
00010000
00000000
00001000
00000000
00001000
00000000
,
01000000
00010000
01000000
00000000
00010000
00000000
00010000
00000000
10000000
00100000
10000000
00000000
00010000
00000000
00010000
00000000
,
00100000
00000000
00000000
00000000
01000000
00000000
01000000
00000000
00100000
00010000
00100000
00000000
00010000
00000000
00010000
00000000
,
01000000
00001000
01000000
00000000
00001000
00000000
00001000
00000000
00100000
00010000
00100000
00000000
00010000
00000000
00010000
00000000
,
10000000
01000000
00100000
00010000
00001000
00010000
00100000
01000000
,
10000000
01000000
00100000
10000000
00100000
01000000
10000000
00000000
,
01000000
00100000
00010000
00001000
00000100
00001000
00010000
00100000
,
00000010
00001000
00000100
00010000
00001000
00100000
00010000
00100000
,
01000000
00100000
00010000
00001000
00000100
00001000
00010000
00100000
,
01000000
00100000
00010000
01000000
00010000
00100000
01000000
00000000
,
00010000
00001000
00000100
00000010
00000001
00000010
00000100
00001000
,
00100000
00010000
01000000
00100000
10000000
00100000
01000000
00010000
,
00100000
00110000
00001010
00110000
,
00011000
00000000
01010000
00000000
10000000
00100000
10000000
00000000
,
00010000
10000000
01000000
00100000
00010000
01000000
00010000
00000000
,
00000100
00000000
00001000
00000000
00000100
00000000
00000001
00000000
00001000
00000001
00001000
00000001
00001000
00000000
00000000
00000000
,
00000001
00000010
00001000
00010000
,
00100000
00000000
01000000
00000000
00010000
10000000
00010000
00000000
,
10000000
01000000
00100000
00001000
00010000
01000000
00010000
00000010
,
00000100
00000000
00001000
00000000
00000100
00000000
00000001
00000000
00001000
00000001
00001000
00000001
00001000
00000000
00000000
00000000
,
00000011
00001100
00010010
01001000
,
00110000
00000000
01100000
00000000
00001000
00010000
00001000
00000000
,
00011000
01010000
00011000
00001100
,
00011000
00000000
00000000
00000000
00110000
00000000
00000000
00000000
00001000
00010000
00001000
00010000
00000010
00000000
00000000
00000000
,
00001000
00000000
00000000
00000000
00000001
00000010
00000100
00000000
00000010
00000100
00001000
00000000
00000100
00010000
00001000
00000000
,
00010000
00000010
00010000
00001000
01000000
00001000
00100000
00010000
,
10000000
00000000
00000000
00000000
,
01000000
00100000
00010000
00001000
00000100
00010000
00000100
00000000
,
00001000
00100000
00001000
00000000
00010000
01000000
00010000
00000000
,
01000000
00100000
00010000
00001000
00000100
00001000
00000100
00000001
,
00000010
00001000
00010000
00001000
00000020
00000000
00000000
00000030
,
00000010
00000100
00001000
00010000
00100000
00001000
00100000
00000000
,
00010000
00000100
00010000
00000000
00001000
00000010
00001000
00000000
,
00000010
00000100
00001000
00010000
00100000
00010000
00100000
10000000
,
01000000
00010000
00001000
00010000
02000000
00000000
03000000
00000000
,
00100000
00010000
00000000
00000000
00011000
00000000
00000000
00000000
00000000
00000000
00000000
00000000
00000000
00000000
00000000
00000000
;

//---------------dance-double - Blank----------------
#NOTES:
     dance-double:
     Blank:
     Easy:
     5:
     0.427,0.411,0.238,0.076,0.000,281.000,25.000,8.000,0.000,0.000,0.000,0.427,0.411,0.238,0.076,0.000,281.000,25.000,8.000,0.000,0.000,0.000:
00000000
00000000
00000000
00000000
,
00000000
00000000
00000000
00000000
,
00000000
00000000
00000000
00000000
,
00100000
00001000
00100000
00001000
,
00010000
00000010
00010000
00000010
,
00001000
00000100
00001000
00000100
,
00010000
00001000
00010000
00001000
,
01000000
00010000
00100000
00010000
,
10000000
01000000
10000000
00100000
,
01000000
00001000
00010000
00000010
,
00000100
00000001
00001000
00000000
,
00001000
00000100
00000010
00000010
,
00000001
00000100
00000010
00000010
,
00001000
00000100
00010000
00010000
,
00000010
00010000
00001000
00000000
,
01000000
00100000
00010000
00001000
,
00100000
00010000
00100000
01000000
,
10000000
01000000
00010000
00001000
,
01000000
00010000
10000000
00000000
,
10000000
01000000
00100000
00010000
,
00001000
00000100
00000010
00000001
,
00000001
00000100
00000010
00001000
,
00010000
01000000
00100000
10000000
,
00010000
00100000
01000000
00100000
,
00001000
00010000
00100000
00010000
,
00000100
00001000
00010000
00001000
,
00000010
00000100
00001000
00000100
,
00000001
00000001
00000010
00000010
,
00000100
00000100
00010000
00010000
,
00001000
00010000
00100000
10000000
,
01000000
00100000
00001000
00000000
,
00001000
00100000
01000000
00000000
,
00100000
00001000
01000000
00000000
,
00001000
00010000
00000100
00000010
,
00000001
00000100
00001000
00000000
,
00010000
00011000
00000000
00110000
,
00000000
10100000
00000000
11000000
,
00000000
10010000
00000000
00101000
,
00000000
00010100
00000000
00001010
,
00000010
00010000
00000000
00100000
,
00000000
00010000
00000000
00000010
,
00010000
00000100
00000000
00010000
,
00000000
01000000
00000000
00010000
,
00001000
00100000
00000000
00001000
,
00000000
00000100
00000000
00001000
,
00010000
00000010
00000000
00010000
,
01000000
01000000
00100000
00100000
,
00010000
10000000
00000000
10000000
,
00100000
01000000
00000000
01000000
,
00001000
00100000
00000000
00100000
,
00001000
00010000
00000010
00001000
,
00000100
00000010
00000000
00000010
,
00000001
00000100
00000000
00000100
,
00000010
00010000
00000000
00010000
,
00001000
00001000
01000000
00010000
,
10000000
01000000
00010000
00001000
,
00000010
00000001
00000100
00000000
,
00000001
00000100
00001000
00010000
,
00000100
00000100
00000010
00000100
,
00010000
01000000
00100000
00010000
,
10000000
00100000
00010000
00000000
,
00000010
00001000
00000100
00000001
,
00000100
00000100
00000010
00000100
,
00000000
00011000
00100000
00011000
,
00000000
00011000
00000010
00011000
,
00002000
00000000
00000000
00003000
00020000
00000000
00000000
00030000
,
20000000
00000000
00000000
30000000
02000000
00000000
00000000
03000000
,
00000000
10010000
01000000
10010000
,
00000000
00101000
00010000
01001000
,
00002000
00000000
00000000
00003000
00000200
00000000
00000000
00000300
,
00000002
00000000
00000000
00000003
00000020
00000000
00000000
00000030
,
00000000
00001001
00000100
00001001
,
00000000
00001010
00010000
00001100
,
00000000
00011000
00001000
00101000
,
00010000
00011000
00001000
00010010
,
00000000
00000001
00000010
00000100
,
00001000
00010000
00100000
01000000
,
10000000
00000000
00000000
00000000
,
10000000
00010000
00100000
00010000
,
01000000
00100000
01000000
00010000
,
00100000
00001000
00010000
00000010
,
00001000
00000001
00000010
00000000
,
00001000
00000100
00000010
00000010
,
00000001
00000100
00000010
00000010
,
00001000
00000100
00010000
00010000
,
00001000
01000000
00010000
10000000
,
00000000
01100000
00000000
00000000
;

//---------------dance-double - Blank----------------
#NOTES:
     dance-double:
     Blank:
     Medium:
     7:
     0.671,0.616,0.295,0.038,0.071,458.000,31.000,4.000,0.000,0.000,0.000,0.671,0.616,0.295,0.038,0.071,458.000,31.000,4.000,0.000,0.000,0.000:
00000000
00000000
00000000
00000000
,
00000000
00000000
00000000
00000000
,
00000000
00000000
00000000
00000000
,
10000000
01000000
00100000
00010000
,
01000000
00100000
00010000
00001000
,
00100000
00010000
00001000
00000100
,
00001000
00000000
00000000
00000000
00000010
00000000
00000000
00000000
00000100
00000000
00000000
00000000
00000002
00000000
00000000
00000003
,
00001000
00000100
00000010
00000001
00000100
00000010
00000100
00000000
,
00000010
00010000
00001000
00000000
00100000
00010000
01000000
00000000
,
00010000
10000000
01000000
00100000
00010000
01000000
00010000
00100000
,
00001000
00010000
00000010
00000100
00000020
00000000
00002030
00000000
,
00003100
00010000
00000010
00001000
00000001
00000010
00000001
00000000
,
00000100
00001000
00000100
00000000
00000010
00010000
00000010
00000000
,
00001000
00000100
00010000
00000010
00010000
00001000
01000000
00000000
,
00100000
00000000
00010000
00000000
00100000
00000000
00000000
00000000
10000000
00000000
00000000
00000000
02000000
00000000
00000000
03000000
,
10000000
01000000
00100000
00000000
00001000
00010000
01000000
00000000
,
00100000
00001000
00010000
00000000
00001000
00000010
00000100
00000000
,
00001000
00000001
00000100
00000010
00000100
00000000
00000001
00000000
,
00000010
00000100
00010000
00001000
00100000
00000000
01000000
00000000
,
10000000
00000000
01100000
00000000
00010000
01000000
00100000
00000000
,
00010000
00000010
00001000
00000000
00000010
00010000
00001000
00000000
,
00000010
00000000
00000110
00000000
00001000
00000001
00000100
00000000
,
00000010
00010000
00001000
00000000
00010000
01000000
10000000
00000000
,
01000000
00000000
00110000
00000000
00001000
00010000
00001000
00000000
,
00000010
00000100
00000010
00000001
00000100
00000000
00000010
00000000
,
00010000
00000000
00011000
00000000
01000000
00001000
00100000
00000000
,
00010000
00100000
01000000
10000000
00010000
00000000
10000000
10000000
,
00100000
00000000
00010000
00000000
00000010
00000100
00000010
00000000
,
00001000
00000000
00000011
00000000
00000100
00001000
00000100
00000000
,
00010000
00000000
00100000
00000000
10000000
01000000
10000000
00000000
,
00010000
01010000
00011000
00001100
,
00001000
00000100
00000010
00000001
00000100
00000010
00000100
00000000
,
00000010
00010000
00001000
00000000
00100000
00010000
01000000
00000000
,
00010000
10000000
01000000
00100000
00010000
01000000
00010000
00100000
,
00001000
00010000
00000010
00000100
00000010
00000000
00001000
00000000
,
00000001
00000011
00001000
00001010
,
00000100
00010100
00001000
01001000
,
00100000
00110000
01000000
01001000
,
00010000
01100000
10000000
01010000
,
00001000
00100000
00001000
00000000
00001000
00010000
00001000
00000000
,
00100000
00010000
00100000
00000000
00100000
01000000
00100000
00000000
,
00001000
00010000
00001000
00000000
00001000
00000100
00001000
00000000
,
00000100
00000001
00000100
00000000
00000100
00000010
00000100
00000000
,
00000001
00000010
00000001
00000000
00000001
00000100
00000001
00000000
,
00000010
00000100
00000010
00000000
00000010
00001000
00000010
00000000
,
00001000
00010000
00001000
00000000
00001000
01000000
00001000
00000000
,
00100000
00100000
01000000
01000000
,
10000000
00000000
00010000
00010000
00100000
00000000
00010000
01000000
,
00100000
00000000
10000000
10000000
00100000
00000000
01000000
00001000
,
00010000
00000000
00000100
00000100
00010000
00000000
00000100
00001000
,
00000010
00000000
00000100
00000100
00000001
00000000
00000100
00000010
,
00001000
00000000
00000100
00000100
00010000
00000000
00001000
01000000
,
00010000
00000000
00010000
00010000
10000000
00000000
00010000
00100000
,
01000000
00000000
01000000
01000000
00100000
00000000
00010000
01000000
,
00001000
00000000
00001000
00001000
00100000
00000000
00010000
00000000
,
10000000
00000000
01000000
00000000
00100000
00001000
00010000
00000000
,
00000010
00000000
00000100
00000001
00001000
00000000
00000100
00000100
,
00010000
00000000
00001000
01000000
00100000
00000000
01000000
00000000
,
00010000
00100000
01000000
00000000
10000000
01000000
00100000
00000000
,
00001000
00000000
01000000
00001000
00010000
00000000
00000010
00000000
,
00000100
00000000
00000001
00000010
00000100
00000000
00001000
00001000
,
00000001
00000000
00000100
00000000
00000010
00010000
00001000
00000000
,
00100000
00000000
00010000
00000000
10000000
00100000
01000000
00000000
,
00001000
00110000
00001000
00010010
,
00010000
00000000
00101000
00000000
00000010
00010000
00000010
00000000
,
00001000
00000100
00000010
00000000
00000001
00000010
00000100
00000000
,
00010000
00001000
01000000
00000000
00100000
00100000
10000000
00000000
,
00010000
01001000
00010000
00010100
,
00001000
00000000
01010000
00000000
00001000
00010000
00001000
00000000
,
00100000
00010000
01000000
00000000
00100000
10000000
01000000
00000000
,
10000000
00010000
01000000
00000000
00001000
00001000
00010000
00000000
,
00000100
00011000
01000000
00011000
,
00100000
00000000
00011000
00000000
00000010
00001000
00000010
00000000
,
00000100
00000101
00000110
00001010
,
00010010
00000000
00011000
00000000
00000100
00010000
00001000
00000000
,
01000000
00001000
00010000
00100000
,
10000000
00010000
10000000
00010000
00100000
00001000
00100000
00001000
,
00010000
00000000
00000000
00000000
,
00000010
00000000
00000000
00000000
00000100
00000001
00000000
00000000
00000001
00000000
00000000
00000000
00000010
00000100
00000000
00000000
,
00000100
00000000
00000000
00000000
00010000
00001000
00000000
00000000
00001000
00000000
00000000
00000000
01000000
00010000
00000000
00000000
,
00010000
00000000
00000000
00000000
10000000
01000000
00000000
00000000
01000000
00000000
00000000
00000000
00100000
00001000
00000000
00000000
,
00001000
00000000
00000000
00000000
00010000
00000010
00000000
00000000
00000010
00000000
00000100
00000000
00000010
00000000
00000000
00000000
,
00001000
00000000
00000000
00000000
00001000
00000001
00000000
00000000
00000100
00000000
00000000
00000000
00000100
00000010
00000000
00000000
,
00001000
00000000
00000000
00000000
00001000
00000100
00000000
00000000
00010000
00000000
00000000
00000000
00010000
00001000
00000000
00000000
,
00100000
00000000
00000000
00000000
00100000
01000000
00000000
00000000
10000000
00000000
00000000
00000000
10000000
00100000
00000000
00000000
,
01000000
00000000
00000000
00000000
01000000
00010000
00000000
00000000
00100000
00000000
00000000
00000000
00100000
00001000
00000000
00000000
,
00010000
00011000
00000000
00000000
;
