#TITLE:Omnos;
#SUBTITLE:;
#ARTIST:Eluveitie;
#TITLETRANSLIT:;
#SUBTITLETRANSLIT:;
#ARTISTTRANSLIT:;
#GENRE:;
#CREDIT:;
#BANNER:omnos-bn.png;
#BACKGROUND:omnos-bg.png;
#LYRICSPATH:;
#CDTITLE:;
#MUSIC:08. Omnos.ogg;
#OFFSET:-1.055;
#SAMPLESTART:10.280;
#SAMPLELENGTH:12.000;
#SELECTABLE:YES;
#DISPLAYBPM:130.000;
#BPMS:0.000=130.000,131.000=260.000,131.500=130.000,131.750=65.000,132.000=130.000;
#STOPS:;
#TIMESIGNATURES:0.000=4=4
;
#BGCHANGES:0.000=test.avi=1.000=0=0=1=====,
196.000=omnos-bg.png=1.000=0=0=1=====,
99999=-nosongbg-=1.000=0=0=0 // don't automatically add -songbackground-
;
#KEYSOUNDS:;

//---------------dance-single - Dark Luke----------------
#NOTES:
     dance-single:
     Dark Luke:
     Hard:
     7:
     0.469,0.412,0.115,0.000,0.005,302.000,11.000,0.000,0.000,0.000,0.000,0.469,0.412,0.115,0.000,0.005,302.000,11.000,0.000,0.000,0.000,0.000: // measure 1
0000
0000
0000
0000
,  // measure 2
0000
0000
0000
0000
,  // measure 3
0000
0000
0000
0000
,  // measure 4
0000
0000
0000
0000
,  // measure 5
0000
0000
0000
0000
,  // measure 6
0010
1000
0100
0010
0001
1000
0100
1000
,  // measure 7
0001
0100
0010
0010
0010
1000
0100
0010
,  // measure 8
0100
1000
0001
0001
0010
0001
1000
0001
,  // measure 9
0010
0100
1000
0010
0100
0001
1000
0100
,  // measure 10
0010
0100
1000
0010
0100
0001
1000
0100
,  // measure 11
0010
0100
1000
1000
1000
0010
0100
0001
,  // measure 12
0100
0010
1000
1000
0100
0010
0001
0010
,  // measure 13
0100
0010
0001
1000
0010
0100
0001
0100
,  // measure 14
0010
1000
0100
0000
1000
0000
0001
0000
,  // measure 15
0010
0001
0100
0000
0010
1000
0001
0000
,  // measure 16
0010
0100
0010
0001
0000
0001
0100
0010
,  // measure 17
0000
0100
0001
1000
0000
0100
0010
0000
,  // measure 18
0001
1000
0001
0000
0100
0000
0010
0000
,  // measure 19
1000
0100
0010
0000
0001
0100
0010
0000
,  // measure 20
0100
0100
0010
0000
0100
0010
1000
0001
,  // measure 21
0010
0100
1000
0010
0100
0000
0101
0000
,  // measure 22
1000
0100
0010
0001
0100
0000
0010
0000
,  // measure 23
1000
0010
1000
0100
0010
0000
0001
0000
,  // measure 24
0010
0001
1000
0010
0000
0010
0100
0001
,  // measure 25
0000
1000
0100
0010
0001
0000
0010
0001
,  // measure 26
0100
0000
0010
0000
0100
0001
0010
0100
,  // measure 27
0000
0100
1000
0000
0100
1000
0010
0000
,  // measure 28
1000
0100
0010
0100
1000
0001
0010
0000
,  // measure 29
0001
0100
0010
1000
0001
0010
0100
0010
,  // measure 30
0001
0000
1010
0000
0001
0000
1010
1000
,  // measure 31
0100
0000
0011
0010
0100
0010
0001
0000
,  // measure 32
1000
0000
0101
0000
1000
0010
0100
0100
,  // measure 33
0001
0010
0001
1000
0010
0100
0110
0000
,  // measure 34
0001
1000
0100
0010
0001
0000
0101
0000
,  // measure 35
0010
1000
0100
0100
1000
0001
0100
0000
,  // measure 36
0010
1000
0001
1000
0100
0000
0110
0000
,  // measure 37
0001
0100
0001
0010
0100
1000
0001
1000
,  // measure 38
0010
0100
0010
1000
0100
0000
1010
0000
,  // measure 39
0001
0000
0010
0010
0001
0000
1000
0000
,  // measure 40
0010
0100
0001
0010
0100
0000
0011
0000
,  // measure 41
0100
0000
0000
0000
1000
0000
1000
0000
0010
0000
0000
0100
0001
0000
0000
0000
,  // measure 42
0010
0100
1000
0100
0010
0001
1000
0001
,  // measure 43
0100
0010
1000
1000
1000
0100
0010
0001
,  // measure 44
1000
0010
0100
0100
0010
1000
0100
1000
,  // measure 45
0001
0100
0010
0100
0001
0010
0100
0010
,  // measure 46
0001
1000
0010
0100
0001
1000
0100
1000
,  // measure 47
0001
0100
0010
0010
0010
0100
0001
0010
,  // measure 48
0001
1000
0100
0100
0010
0001
1000
0001
,  // measure 49
0100
0010
1000
0010
0100
0001
0010
0001
,  // measure 50
1001
0010
0000
0000
0000
0000
0000
0000
;

//---------------dance-single - Dark Luke----------------
#NOTES:
     dance-single:
     Dark Luke:
     Medium:
     5:
     0.371,0.360,0.189,0.000,0.000,230.000,18.000,0.000,0.000,0.000,0.000,0.371,0.360,0.189,0.000,0.000,230.000,18.000,0.000,0.000,0.000,0.000:
0000
0000
0000
0000
,
0000
0000
0000
0000
,
0000
0000
0000
0000
,
0000
0000
0000
0000
,
0000
0000
0000
0000
,
0010
0000
0001
1000
1000
0000
0001
0000
,
0100
0000
0010
1000
1000
0000
0100
0000
,
0010
0000
0001
0100
0100
0000
0010
0000
,
1000
0000
0001
0010
0010
0001
1000
0000
,
0010
0000
0100
0001
0001
0000
1000
0000
,
0100
0000
0010
0100
0100
0000
0010
0000
,
0001
0000
0100
0010
0010
0000
1000
0000
,
0100
0000
0010
0001
0001
0010
0100
0000
,
1000
0000
0001
0010
0000
0001
0000
1000
,
0010
0000
0100
0010
0000
1000
0000
0100
,
0010
0001
0010
0000
0001
0000
0100
0000
,
0010
0000
1000
0010
0100
0000
0010
1000
,
0001
0000
1000
0100
0000
0010
0000
0001
,
1000
0000
0001
0100
0000
0010
0000
1000
,
0001
0001
0010
0000
0100
0000
0010
0000
,
0100
1000
0001
1000
0001
0000
0110
0000
,
1000
0001
1000
0000
0001
0100
0010
0000
,
0100
0001
0100
0000
0010
1000
0100
0000
,
1000
0100
0010
0001
,
0100
0010
0100
0001
,
1000
0010
0100
0000
0001
0010
0001
0000
,
1000
0100
0010
0000
0001
1000
0001
0000
,
0100
0010
0100
0001
,
0010
0000
0100
1000
0001
0000
1000
0010
,
0100
0101
0010
1010
,
0001
0011
1000
1100
,
0010
0100
0010
0000
0001
0100
0001
0000
,
1010
0101
0110
1001
,
1000
0001
0100
0010
0100
0000
0001
0000
,
1000
0000
0100
0100
0010
0000
0001
0000
,
1000
0010
0100
0001
0010
0000
0001
0000
,
1000
0000
0010
0010
0100
0000
0001
0000
,
0001
0010
0100
1000
0010
0000
0100
0000
,
0001
0000
1000
1000
0010
0000
1000
0000
,
0100
0010
0001
1000
0010
0000
0100
0000
,
0001
0000
0100
0010
0100
0000
0001
0000
,
1100
0000
0100
0010
0010
0000
0001
0000
,
1010
0000
0010
0100
0100
0000
0001
0000
,
0110
0000
0001
1000
1000
0000
0100
0000
,
0110
0000
1000
0001
0001
0000
0100
0000
,
1010
0000
0001
0100
0100
0000
0010
0000
,
1001
0000
1000
0100
0100
0000
0010
0000
,
1100
0000
0001
0100
0100
0000
0010
0000
,
0101
0000
1000
0100
0100
0000
0010
0000
,
1001
0001
0000
0000
0000
0000
0000
0000
;

//---------------dance-single - Dark Luke----------------
#NOTES:
     dance-single:
     Dark Luke:
     Easy:
     3:
     0.237,0.282,0.105,0.000,0.000,148.000,10.000,0.000,0.000,0.000,0.000,0.237,0.282,0.105,0.000,0.000,148.000,10.000,0.000,0.000,0.000,0.000:
0000
0000
0000
0000
,
0000
0000
0000
0000
,
0000
0000
0000
0000
,
0000
0000
0000
0000
,
0000
0000
0000
0000
,
0001
0100
0001
1000
,
0100
0010
0100
0010
,
0001
1000
0010
1000
,
0100
0010
0100
1000
,
0001
0100
0010
1000
,
0100
0010
0001
0010
,
0001
1000
0010
0100
,
0010
1000
0100
1000
,
0001
0000
1000
0000
,
0100
0000
1000
0000
,
0010
0000
0100
0000
,
0001
0000
0010
0001
,
1000
0000
0010
0000
,
0100
0000
0010
0000
,
1000
0000
0100
0000
,
0010
0000
0001
0110
,
1000
0001
0100
0000
,
0010
0010
1000
0000
,
0100
0000
0010
0000
,
0001
0010
0001
0001
,
1000
0010
1000
0000
,
0001
0010
0001
0000
,
0100
0000
0010
0000
,
1000
1000
0001
0001
,
0010
0110
0000
0001
,
1000
0110
0000
1000
,
0010
1001
0000
0100
,
1001
1001
0010
1001
,
1000
0100
0010
0001
,
1000
1001
0000
0001
,
0100
0010
0100
0001
,
0010
0010
0000
0001
,
1000
0010
0100
0010
,
1000
1001
0000
0001
,
0010
0100
1000
0100
,
0010
0110
0000
0001
,
1000
0010
0100
0001
,
0010
0100
0010
0001
,
1000
0100
0010
0001
,
0100
0010
0100
0001
,
1000
0100
1000
0001
,
0100
0010
0100
0001
,
1000
0100
1000
0010
,
0100
0001
0010
0001
,
1000
0000
0000
0000
;

//---------------dance-single - Dark Luke----------------
#NOTES:
     dance-single:
     Dark Luke:
     Beginner:
     1:
     0.102,0.128,0.021,0.000,0.000,66.000,2.000,0.000,0.000,0.000,0.000,0.102,0.128,0.021,0.000,0.000,66.000,2.000,0.000,0.000,0.000,0.000:
0000
0000
0000
0000
,
0000
0000
0000
0000
,
0000
0000
0000
0000
,
0000
0000
0000
0000
,
0000
0000
0000
0000
,
0001
0000
0001
0000
,
1000
0000
1000
0000
,
0100
0000
0100
0000
,
1000
0000
1000
0000
,
0010
0000
0010
0000
,
1000
0000
1000
0000
,
0001
0000
0001
0000
,
0100
0000
0100
0000
,
0001
0000
0000
0000
,
1000
0000
0000
0000
,
0100
0000
0000
0000
,
0010
0000
0000
0000
,
0001
0000
0000
0000
,
0100
0000
0000
0000
,
0010
0000
0000
0000
,
1000
0000
0000
0000
,
0001
0000
0000
0000
,
0010
0000
0000
0000
,
1000
0000
0000
0000
,
0010
0000
0000
0000
,
0001
0000
0000
0000
,
0100
0000
0000
0000
,
1000
0000
0000
0000
,
0100
0000
0000
0100
,
0100
0000
0000
0001
,
0001
0000
0000
1000
,
1000
0000
0000
0100
,
0100
0000
0000
0110
,
0000
0001
0000
0001
,
0000
1000
0000
0100
,
0000
1000
0000
1000
,
0000
0010
0000
1000
,
0000
0001
0000
0001
,
0000
0010
0000
0100
,
0000
1000
0000
1000
,
0000
0001
0000
0001
,
0001
0000
0000
0000
,
1000
0000
0000
0000
,
0010
0000
0000
0000
,
0100
0000
0000
0000
,
0001
0000
0000
0000
,
0010
0000
0000
0000
,
0100
0000
0000
0000
,
1000
0000
0000
0000
,
1001
0000
0000
0000
;

//---------------dance-double - Dark Luke----------------
#NOTES:
     dance-double:
     Dark Luke:
     Hard:
     7:
     0.457,0.412,0.063,0.000,0.005,299.000,6.000,0.000,0.000,0.000,0.000,0.457,0.412,0.063,0.000,0.005,299.000,6.000,0.000,0.000,0.000,0.000:
00000000
00000000
00000000
00000000
,
00000000
00000000
00000000
00000000
,
00000000
00000000
00000000
00000000
,
00000000
00000000
00000000
00000000
,
00000000
00000000
00000000
00000000
,
00000100
00001000
00000001
00000100
00000010
00001000
00000100
00010000
,
00001000
01000000
00100000
00100000
00100000
10000000
01000000
00100000
,
00001000
01000000
00010000
00010000
00100000
00001000
00010000
00001000
,
01000000
00010000
10000000
00010000
00100000
01000000
10000000
01000000
,
00100000
01000000
10000000
00010000
01000000
00001000
00010000
00001000
,
00010000
00000010
00000100
00000100
00000100
00000001
00001000
00000100
,
00001000
00000010
00010000
00010000
00000100
00000010
00000001
00000010
,
00000100
00010000
00000010
00010000
00001000
01000000
00100000
01000000
,
00001000
00010000
00100000
00000000
00010000
00000000
00001000
00000000
,
00010000
00001000
00000010
00000000
00001000
00000010
00000100
00000000
,
00001000
00000100
00000010
00000001
00000000
00000001
00000100
00000010
,
00000000
00000100
00001000
00010000
00000000
00010000
00000100
00000000
,
00000010
00001000
00010000
00000000
00001000
00000000
00010000
00000000
,
00100000
00010000
00001000
00000000
00010000
00100000
10000000
00000000
,
10000000
10000000
01000000
00000000
10000000
01000000
00100000
00010000
,
01000000
00001000
00010000
00000010
00000100
00000000
00001001
00000000
,
00000001
00000010
00000100
00001000
00000100
00000000
00010000
00000000
,
00000010
00010000
00001000
01000000
00100000
00000000
10000000
00000000
,
01000000
10000000
00100000
01000000
00000000
01000000
00001000
00010000
,
00000000
00010000
00001000
00000010
00000100
00000000
00000010
00000001
,
00000100
00000000
00000010
00000000
00010000
00001000
00100000
01000000
,
00000000
01000000
10000000
00000000
01000000
00100000
00010000
00000000
,
10000000
00100000
01000000
00010000
00100000
00001000
00010000
00000000
,
00000010
00000100
00000001
00000010
00000001
00000100
00000010
00001000
,
00000100
00000000
00011000
00000000
01000000
00000000
00011000
00010000
,
00000010
00000000
00011000
00001000
00100000
00010000
01000000
00000000
,
00100000
00000000
00011000
00000000
00000010
00010000
00000100
00010000
,
00001000
01000000
00001000
00100000
01000000
00100000
00110000
00000000
,
10000000
01000000
00100000
00010000
00001000
00000000
00010000
00000000
,
00100000
00000000
00001000
00001000
00010000
00000000
00001000
00000000
,
00010000
00001000
00000100
00000010
00000001
00000000
00000010
00000000
,
00001000
00000000
00000001
00000001
00000010
00000100
00001000
00000100
,
00010000
00000010
00000100
00000010
00001000
00000000
00000001
00000000
,
00000010
00000000
00001000
00001000
00010000
00000000
00100000
00000000
,
10000000
00100000
01000000
00010000
00100000
00000000
01000000
00000000
,
10000000
00000000
00000000
00000000
00010000
00000000
00010000
00000000
00100000
00000000
00000000
00001000
00010000
00000000
00000000
00000000
,
00000010
00000100
00000001
00001000
00000100
00000010
00000001
00000010
,
00000100
00010000
00001000
00001000
00001000
01000000
00100000
10000000
,
01000000
00100000
00010000
00010000
10000000
00100000
01000000
00100000
,
10000000
00010000
00100000
00010000
01000000
00001000
00010000
00000100
,
00000010
00000100
00010000
00001000
00010000
00000010
00000100
00000010
,
00001000
00000100
00000010
00000010
00000010
00000001
00000100
00000001
,
00001000
00000010
00010000
00010000
00000100
00010000
00001000
00100000
,
01000000
00100000
00010000
01000000
00100000
10000000
01000000
10000000
,
00010000
00100000
00000000
00000000
00000000
00000000
00000000
00000000
;

//---------------dance-double - Dark Luke----------------
#NOTES:
     dance-double:
     Dark Luke:
     Medium:
     5:
     0.344,0.360,0.115,0.000,0.000,219.000,11.000,0.000,0.000,0.000,0.000,0.344,0.360,0.115,0.000,0.000,219.000,11.000,0.000,0.000,0.000,0.000:
00000000
00000000
00000000
00000000
,
00000000
00000000
00000000
00000000
,
00000000
00000000
00000000
00000000
,
00000000
00000000
00000000
00000000
,
00000000
00000000
00000000
00000000
,
00001000
00000000
01000000
00010000
00010000
00000000
10000000
00000000
,
01000000
00000000
00100000
00010000
00010000
00000000
01000000
00000000
,
00001000
00000000
00010000
00001000
00001000
00000000
00000100
00000000
,
00000001
00000000
00000010
00000100
00000100
00000010
00000001
00000000
,
00001000
00000000
00000010
00010000
00010000
00000000
00001000
00000000
,
00100000
00000000
01000000
10000000
10000000
00000000
00100000
00000000
,
01000000
00000000
00100000
00010000
00010000
00000000
00001000
00000000
,
00010000
00000000
00000100
00001000
00001000
00000100
00000010
00000000
,
00000001
00000000
00000100
00000010
00000000
00000100
00000000
00001000
,
00000000
00000000
00010000
00001000
00000000
00010000
00000000
01000000
,
00000000
00000000
00100000
01000000
00000000
00100000
00000000
00010000
,
00000000
00000000
10000000
00100000
00000000
00000000
00010000
00001000
,
00010000
00000000
00000100
00000010
00000000
00000001
00000000
00001000
,
00000000
00000000
00000100
00000010
00000000
00001000
00000000
00010000
,
00000000
00000000
00001000
01000000
00000000
00100000
00000000
10000000
,
00000000
00000000
01000000
00100000
00010000
00000000
00011000
00000000
,
00000010
00001000
00000100
00000000
00000010
00000001
00001000
00000000
,
00000010
00001000
00000010
00000000
00010000
00001000
00010000
00000000
,
00001000
00010000
01000000
10000000
,
00100000
00010000
00001000
00000010
,
00000001
00000010
00000100
00000000
00001000
00000100
00010000
00000000
,
00001000
01000000
00001000
00000000
00100000
01000000
00100000
00000000
,
00001000
00010000
01000000
00010000
,
00001000
00000000
00000100
00000001
00000010
00000000
00000100
00010000
,
00001000
00011000
00100000
00011000
,
00000010
00001100
00010000
01001000
,
00100000
01000000
00100000
00000000
00001000
00010000
00001000
00000000
,
00010010
00010100
01001000
00110000
,
00001000
01000000
00010000
10000000
01000000
00000000
00100000
00000000
,
10000000
00100000
00001000
00000010
,
00000001
00001000
00000010
00000100
00000001
00000000
00000100
00000000
,
00000010
00010000
00100000
10000000
,
01000000
10000000
00100000
01000000
00010000
00000000
00100000
00000000
,
01000000
00010000
00000010
00000100
,
00000001
00000100
00000001
00000010
00000100
00000000
00001000
00000000
,
00000010
00000000
00010000
00001000
00010000
00000000
01000000
00000000
,
10000000
00000000
00100000
01000000
00010000
00000000
00100000
00000000
,
01000000
00000000
00100000
00001000
00010000
00000000
00000100
00000000
,
00000010
00000000
00000001
00000100
00000010
00000000
00010000
00000000
,
00000100
00000000
00010000
00001000
01000000
00000000
00100000
00000000
,
10010000
00000000
10000000
01000000
00100000
00000000
00010000
00000000
,
01000000
00000000
00100000
01000000
00001000
00000000
00100000
00000000
,
00010000
00000000
00100000
00001000
00010000
00000000
00000010
00000000
,
00000100
00000000
00000001
00000010
00000100
00000000
00000010
00000000
,
00001001
00000001
00000000
00000000
00000000
00000000
00000000
00000000
;

//---------------dance-double - Dark Luke----------------
#NOTES:
     dance-double:
     Dark Luke:
     Easy:
     2:
     0.178,0.205,0.094,0.000,0.000,110.000,9.000,0.000,0.000,0.000,0.000,0.178,0.205,0.094,0.000,0.000,110.000,9.000,0.000,0.000,0.000,0.000:
00000000
00000000
00000000
00000000
,
00000000
00000000
00000000
00000000
,
00000000
00000000
00000000
00000000
,
00000000
00000000
00000000
00000000
,
00000000
00000000
00000000
00000000
,
00001000
00000000
01000000
00000000
,
00010000
00000000
10000000
00000000
,
01000000
00000000
01000000
00000000
,
10000000
00000000
00010000
00000000
,
01000000
00000000
00001000
00000000
,
00010000
00000000
00000100
00000000
,
00000010
00000000
00000010
00000000
,
00000001
00000000
00001000
00000000
,
00000010
00001000
00000000
00000100
,
00000000
00010000
00000000
00001000
,
00000000
01000000
00000000
00100000
,
00000000
10000000
00000000
01000000
,
00100000
00010000
00000000
00100000
,
00000000
00001000
00000000
00000010
,
00000000
00000100
00000000
00001000
,
00000000
00000001
00000000
00001001
,
00000001
00000100
00000000
00001000
,
00000000
00010000
00000000
01000000
,
00000000
10000000
00000000
01000000
,
00000000
00100000
00000000
00010000
,
10000000
00100000
00000000
00010000
,
00000000
00001000
00000000
00000010
,
00000100
00000100
00000010
00000000
,
00000001
00001000
00000010
00001000
,
00000000
00001001
00000000
00001100
,
00000000
00010100
00000000
00011000
,
00000000
01001000
00000000
01010000
,
01000000
00100000
01000000
01100000
,
00010000
10000000
10000000
00000000
,
01000000
00000000
00100000
00000000
,
00001000
00010000
00010000
00000000
,
00000010
00000000
00000100
00000000
,
00000001
00001000
00001000
00000000
,
00000100
00000000
00010000
00000000
,
00010000
00001000
00001000
00000000
,
01000000
00000000
00100000
00000000
,
10000000
01000000
00100000
00000000
,
01000000
00100000
00010000
00000000
,
00100000
00001000
00010000
00000000
,
00001000
00010000
00000100
00000000
,
00001000
00000010
00000100
00000000
,
00000001
00001000
00000010
00000000
,
00010000
00001000
01000000
00000000
,
00010000
10000000
00100000
00000000
,
10010000
00000000
00000000
00000000
;
