#TITLE:Dracula's Castle;
#SUBTITLE:;
#ARTIST:浅田靖;
#TITLETRANSLIT:;
#SUBTITLETRANSLIT:;
#ARTISTTRANSLIT:Yasushi Asada;
#GENRE:;
#CREDIT:;
#BANNER:draculacastle-bn.png;
#BACKGROUND:draculacastle-bg.png;
#LYRICSPATH:;
#CDTITLE:;
#MUSIC:11-Dracula'sCastle.ogg;
#OFFSET:-0.060;
#SAMPLESTART:43.522;
#SAMPLELENGTH:12.000;
#SELECTABLE:YES;
#BPMS:0.000=138.020;
#STOPS:;
#TIMESIGNATURES:0.000=4=4
;
#BGCHANGES:30.000=1.png=1.000=1=0=1===CrossFade==,
62.000=4.png=1.000=1=0=1===CrossFade==,
98.000=2.png=1.000=1=0=1===CrossFade==,
130.000=5.png=1.000=1=0=1===CrossFade==,
170.000=7.png=1.000=1=0=1===CrossFade==,
202.000=3.png=1.000=1=0=1===CrossFade==,
234.000=draculacastle-bg.png=1.000=1=0=1===CrossFade==,
99999=-nosongbg-=1.000=0=0=0 // don't automatically add -songbackground-
;
#KEYSOUNDS:;

//---------------dance-single - Blank----------------
#NOTES:
     dance-single:
     Blank:
     Challenge:
     9:
     0.626,0.610,0.117,0.018,0.526,473.000,13.000,2.000,0.000,0.000,0.000,0.626,0.610,0.117,0.018,0.526,473.000,13.000,2.000,0.000,0.000,0.000:
0000
0000
0000
0000
,
0000
0000
0000
0000
,
0000
0000
0000
0000
,
0000
0000
0000
0000
,
1000
0000
0101
0000
0010
0100
0001
0001
,
1000
0000
0000
0000
0100
0000
1000
0100
0010
0000
0001
0010
0001
1000
0100
0000
,
1000
0000
0000
0000
1010
0000
0000
0000
0100
0000
0001
0100
0010
1000
0010
0000
,
0100
0000
0000
0000
0001
0000
0010
0001
0010
0000
0100
1000
0100
1000
0001
0100
,
0001
0000
1000
0000
0000
0000
1000
0100
1000
0000
0010
0000
0000
0000
0010
0000
,
0100
0000
0001
0000
0000
0000
0001
0010
0001
0000
0100
0000
0000
0000
0100
0000
,
0010
0000
1000
0000
0000
0000
1000
0100
1000
0000
0001
0000
0000
0000
0001
0000
,
0100
0000
0010
0000
0000
0000
0010
1000
0010
0000
0100
0000
0000
0000
0100
0000
,
1001
0000
0001
0000
0000
0000
0001
0010
0100
0000
0010
0000
0000
0000
0010
0000
,
0001
0000
1000
0000
0000
0000
1000
0010
0100
0000
0010
0000
0000
0000
0010
0000
,
1000
0000
0100
0000
0000
0000
0100
0010
0001
0000
0100
0000
0000
0000
0100
0000
,
0010
0000
1000
0000
0001
0100
0010
1000
0001
0000
1000
0001
0010
0100
0010
0001
,
1000
0000
0000
0000
0000
0000
0100
0000
0000
0000
0000
0000
0100
0000
0000
0000
0000
0000
0010
0000
0000
0001
0000
0000
1000
0000
0000
0000
0000
0000
0000
0000
0010
0000
0000
0000
0000
0000
0000
0000
0001
0000
0000
0000
0000
0000
0000
0000
,
0010
0000
0100
0000
0100
0000
0010
1000
0001
0000
1000
0000
0100
0000
0100
0000
,
0001
0000
0100
0000
1000
0000
0010
0000
0100
0000
0001
0000
,
1000
0000
0010
0000
0010
0000
0100
0001
1000
0000
0001
0000
1000
0000
0001
0010
,
0100
0000
0010
0000
0001
0000
0100
0000
1000
0000
0100
0000
,
0001
0000
0000
0000
0010
0000
0000
0000
0100
0000
0000
0000
0010
0000
0000
0010
0000
0000
0001
0000
0000
1000
0000
0000
,
0101
0000
1000
0000
0010
0000
0100
0000
0001
0000
1000
0000
,
0110
0000
1000
0000
1000
0000
0001
0000
0010
0000
0001
0000
0001
0000
0010
0100
,
1000
0000
1000
0000
0010
0000
0000
0010
0100
0000
0010
0000
0100
0001
0010
0100
,
1000
0100
0001
0100
1000
0100
0001
0100
,
1000
0010
0001
0010
1000
0010
0001
0010
,
0100
0001
0010
0001
0100
0001
0010
0001
,
1000
0000
0100
0000
0010
0000
0100
0000
1000
0000
0100
0000
0010
0000
0001
1000
,
0001
0100
1000
0100
0001
0100
1000
0100
,
0001
0010
1000
0010
0001
0010
1000
0010
,
0100
1000
0010
1000
0100
1000
0010
1000
,
0100
0000
0010
0000
0010
0000
0001
1000
0001
0000
0100
0010
0100
0001
1000
0001
,
1000
0000
0010
1000
0100
0000
0001
0000
0100
0010
0001
0000
,
0020
0000
0000
0000
0001
0000
0000
0000
0100
0000
0000
0000
1000
0030
0000
0000
,
0100
0000
1000
0001
0100
0000
1000
0000
0100
0010
1000
0000
,
0200
0000
0001
0000
0010
0000
1000
0300
,
0010
0000
0100
1000
0010
0000
0001
0000
0010
1000
0001
0000
,
0100
0000
0010
0100
0001
0000
0010
0000
1000
0010
0100
0000
,
1001
0000
0000
0000
1000
0000
0100
1000
0001
0000
0001
0000
0011
0000
0001
0000
,
0100
0000
0100
0000
0100
0000
0010
0100
0001
0100
0001
1000
0010
0100
0010
1000
,
0001
0000
0001
0000
0001
0000
0001
0000
0010
0000
0010
0000
0100
0000
0010
0100
,
1000
0000
0001
0000
0001
0000
1000
0000
0101
0000
0000
0010
0000
0000
1000
0000
,
0100
0000
0010
0000
0001
0000
1000
0000
0100
0000
0010
0001
0000
1000
0010
0000
,
0100
0000
0010
0000
1000
0000
0001
0000
0100
0000
0010
1000
0000
0001
0100
0000
,
0010
0000
1000
0000
0100
0000
0010
0000
0100
0000
0010
0001
0000
0100
0010
0000
,
1000
0000
0010
0000
0100
0000
0001
0000
0010
0000
0100
1000
0000
0010
1000
0000
,
0110
0000
0100
0000
0010
0000
1000
0000
0100
0000
0010
0001
0000
1000
0010
0000
,
0110
0000
0100
0000
0001
0000
0010
0000
0001
0000
0100
0001
0000
1000
0100
0000
,
1100
0000
0010
0000
0001
0000
1000
0000
0010
0000
0100
0001
0000
0010
0001
0000
,
0110
0000
0000
0000
1000
0000
0000
0000
0001
0000
0100
0010
0000
1000
0100
0000
,
0010
0000
0010
0000
0100
0010
0001
0000
0010
0100
0010
0000
0100
1000
0001
0000
,
0100
0000
0100
0000
0010
0100
0001
0000
1000
0010
0100
0000
0001
0100
0010
1000
,
0100
0000
0100
0000
1000
0100
0010
0000
0100
1000
0100
0000
0010
0001
0100
0000
,
0001
0000
0001
0000
1000
0010
0100
0000
0010
0100
0001
0000
0010
0100
1000
0001
,
1000
0000
0100
0000
0010
0001
0010
0000
0001
1000
0100
0000
1000
0001
0010
0000
,
0100
0000
0010
0000
0001
0100
0010
0000
0100
0001
1000
0000
0010
0100
0001
1000
,
0001
0000
0010
0000
0100
0010
0001
0000
1000
0010
0100
0000
0100
0010
1000
0000
,
0001
0000
0010
0000
0001
1000
0000
1000
0010
0000
0000
0100
0000
0000
0010
0000
,
1001
0000
0000
0000
;

//---------------dance-single - Blank----------------
#NOTES:
     dance-single:
     Blank:
     Hard:
     7:
     0.463,0.424,0.216,0.261,0.229,308.000,24.000,29.000,0.000,0.000,0.000,0.463,0.424,0.216,0.261,0.229,308.000,24.000,29.000,0.000,0.000,0.000:
0000
0000
0000
0000
,
0000
0000
0000
0000
,
0000
0000
0000
0000
,
0000
0000
0000
0000
,
1100
0000
0010
0000
0001
0100
0010
0010
,
1000
0000
0100
1000
0010
0100
0001
0000
,
0011
0000
1000
0000
0100
0010
0001
1000
,
0010
0000
0100
0001
0010
0000
0001
0001
,
0020
0000
0000
0000
0030
0000
0001
1000
0200
0000
0000
0000
0000
0000
0300
0000
,
1000
0000
0000
0000
0000
0000
0000
0000
0000
0000
0000
0000
0000
0000
0000
0000
0000
0000
0010
0000
0000
0100
0000
0000
0001
0000
0000
0000
0000
0000
0000
0000
0010
0000
0000
0000
0000
0000
0000
0000
0100
0000
0000
0000
0000
0000
0000
0000
,
1000
0000
0010
0000
0100
0000
0001
0000
0010
0000
0100
0000
,
0020
0000
0000
0000
0230
0000
0000
0300
,
1001
0000
0000
0000
0000
0000
0100
1000
0020
0000
0000
0000
0000
0000
0030
0000
,
0200
0000
0000
0000
0000
0000
0000
0000
0000
0000
0000
0000
0300
0000
0000
0000
0000
0000
0010
0000
0000
0100
0000
0000
0001
0000
0000
0000
0000
0000
0000
0000
0010
0000
0000
0000
0000
0000
0000
0000
0100
0000
0000
0000
0000
0000
0000
0000
,
1000
0000
0100
0000
0001
0000
0100
0000
0010
0000
0001
0000
,
1000
0001
0010
0001
0100
0010
1000
0000
,
0001
0010
0100
0000
0010
0001
0100
0000
,
0010
1000
0001
0000
0010
0100
0010
0010
,
0001
1000
0010
0000
0100
0001
0010
0000
,
0001
1000
0100
0010
0001
0100
0001
0000
,
1010
0000
0100
0000
0001
0010
0001
0000
,
1000
0010
0100
0000
0010
0010
1000
0000
,
0011
0000
1000
0000
0010
0100
0001
0000
,
0011
0000
1000
0000
0010
0010
1001
0000
,
0101
0000
0001
0000
0010
0000
0000
0010
0100
0000
0000
0000
1000
0000
1000
0000
,
0020
0000
0000
0000
0000
0000
1030
0100
0010
0000
0000
0100
0000
0000
1000
0000
,
0010
0000
0000
0000
0100
0000
0000
0000
0002
0000
0000
0000
0003
0000
0010
0100
,
0020
0000
0000
0000
0030
0000
0001
0100
0020
0000
0000
0000
0030
0000
1000
0100
,
0010
0100
0010
0001
,
0200
0000
0000
0000
0300
0000
0010
1000
0001
0000
0000
0010
0000
0000
0100
0000
,
0010
0000
0000
0000
0001
0000
0000
0000
0200
0000
0000
0000
0300
0000
0001
0010
,
0002
0000
0000
0000
0003
0000
1000
0100
0020
0000
0000
0000
0000
0000
0130
1000
,
0200
0000
0000
0300
,
0101
0000
0010
0000
1000
0000
0100
0000
0001
0000
0100
0000
,
0020
0000
0001
0000
0100
0000
0001
0030
,
1010
0000
0100
0000
0001
0000
0010
0000
1000
0000
0010
0000
,
0002
0000
0010
0000
0100
0000
1000
0003
,
0101
0000
0010
0000
0001
0000
1100
0000
0010
0000
1000
0000
,
0110
0000
0001
0000
0010
0000
0101
0000
1000
0000
0010
0000
,
1100
0000
0001
0000
1000
1000
0001
0010
,
0011
0000
1000
0100
0010
0001
0100
0000
,
0001
0001
0010
0010
0100
0100
0010
0001
,
1000
0000
1000
0000
0010
0000
0010
0000
0100
0000
0000
0001
0000
0000
1000
0000
,
0020
0000
0000
0000
2000
0000
0030
0001
,
3002
0000
0000
0000
0013
0001
0000
0001
,
0200
0000
0000
0000
0020
0000
0300
1000
,
2030
0000
0000
0000
0000
0000
0000
0000
0001
0000
0000
0010
0000
0000
3001
0000
,
0021
0000
0000
0030
1002
0000
0000
1003
,
1200
0000
0000
0000
0310
0100
0000
0100
,
2000
0000
0000
3000
1020
0000
0000
0130
,
0102
0000
0000
0000
1000
0000
0003
0000
0001
0000
0010
0001
0000
0001
1000
0000
,
0100
0100
1000
0010
0000
0100
0010
1000
,
0001
0010
0001
0100
0000
0010
0100
0001
,
1000
0100
1000
0010
0000
0010
1000
0100
,
0010
0000
0001
0000
0100
0000
0010
0000
0000
0000
1010
0000
0000
0101
0000
0000
,
0001
1000
0001
0010
0100
0100
1000
0100
,
0010
0001
0100
0001
1000
0010
0100
0001
,
0010
0100
0010
0001
1000
1000
0010
1000
,
0100
0000
0010
0000
0001
0010
0000
0010
0100
0000
0000
0010
0000
0000
0001
0000
,
1001
0000
0000
0000
;

//---------------dance-single - Blank----------------
#NOTES:
     dance-single:
     Blank:
     Easy:
     3:
     0.248,0.318,0.180,0.189,0.000,152.000,20.000,21.000,0.000,0.000,0.000,0.248,0.318,0.180,0.189,0.000,152.000,20.000,21.000,0.000,0.000,0.000:
0000
0000
0000
0000
,
0000
0000
0000
0000
,
0000
0000
0000
0000
,
0000
0000
0000
0000
,
0110
0000
0001
0000
,
0100
0000
1000
0100
,
0110
0000
1000
0100
,
0010
1000
0001
0100
,
1000
0000
0010
0000
,
1000
0000
0001
0000
,
0010
0000
0100
0000
,
1000
0000
0001
0000
,
1001
0000
0100
0000
,
0001
0000
1000
0000
,
0110
0000
0001
0001
,
2000
0000
0000
0000
0000
0000
0000
3000
,
0001
0000
0100
0001
,
1000
0000
0100
0000
,
0001
0000
0100
1000
,
0010
0000
0100
0001
,
0010
0000
1000
0000
,
0010
0000
0100
0000
,
0110
0000
0001
1000
,
0101
0000
0010
0110
,
2002
0000
0000
0000
0000
0000
0000
3003
,
1000
0100
0001
0100
,
1000
0100
0001
0100
,
1000
0010
0001
0010
,
1000
0010
0001
0010
,
0100
0001
0010
0001
,
0100
0001
0010
0001
,
1000
0100
0010
0100
,
1000
0010
0010
0000
,
1010
0000
0100
0000
,
0001
0010
0001
0100
,
0101
0000
0010
0000
,
1000
0001
0010
0100
,
0110
0000
0001
0000
,
1000
0000
0010
0000
,
1001
0000
1000
0001
,
1100
0000
0001
1000
,
0010
0010
0100
0010
,
1000
1000
0001
0000
,
0010
0000
0002
0000
,
0203
0000
0320
0000
,
0030
0000
2000
0000
,
3002
0000
0023
0000
,
0031
0000
0000
0000
0022
0000
0000
0033
,
2002
0000
0000
3003
2200
0000
0000
3300
,
0000
0000
0000
0000
2002
0000
0000
3003
,
0202
0000
0000
0303
2020
0000
0000
3030
,
0001
0100
0000
0100
,
1000
0100
0000
0100
,
0001
0010
0000
0010
,
1000
0010
0001
0000
,
1000
0010
0100
0001
,
0010
0100
0010
0001
,
1000
0001
0100
0010
,
1000
0001
0010
0000
,
1001
0000
0000
0000
;

//---------------dance-single - Blank----------------
#NOTES:
     dance-single:
     Blank:
     Medium:
     5:
     0.354,0.345,0.081,0.144,0.171,251.000,9.000,16.000,0.000,0.000,0.000,0.354,0.345,0.081,0.144,0.171,251.000,9.000,16.000,0.000,0.000,0.000:
0000
0000
0000
0000
,
0000
0000
0000
0000
,
0000
0000
0000
0000
,
0000
0000
0000
0000
,
0110
0001
0100
0001
,
1100
0010
0100
0010
,
1001
0001
1000
0010
,
0110
1000
0100
0010
,
0001
1000
0000
1000
0010
1000
0000
1000
,
0001
0010
0000
0010
0100
0010
0000
0010
,
0001
0100
0000
0100
0010
1000
0000
1000
,
0001
0010
0000
0010
0100
1000
0000
1000
,
1001
0001
0000
0001
0100
0001
0000
0001
,
0010
0100
0000
0100
0010
0100
0000
0100
,
1000
0010
0000
0010
0100
0001
0000
0001
,
1000
0010
0100
0010
,
2000
0000
0000
0000
0000
0000
0000
0000
0000
0000
0000
0000
3000
0000
0000
0000
0000
0000
0010
0000
0000
1000
0000
0000
0010
0000
0000
0000
0000
0000
0000
0000
0100
0000
0000
0000
0000
0000
0000
0000
0001
0000
0000
0000
0000
0000
0000
0000
,
0020
0000
0000
0000
0030
0000
0001
0010
0001
0000
0000
0000
1000
0000
0000
0000
,
0010
0000
0100
0000
0001
0000
0010
0000
0001
0000
1000
0000
,
0020
0000
0000
0000
0230
0000
0000
0300
,
0001
0000
0100
0000
0010
0000
1000
0000
0100
0000
0010
0000
,
0001
0000
0000
0000
1000
0000
0000
0000
0001
0000
0000
0000
0100
0000
0000
0000
0000
0000
0000
0000
0000
0100
0000
0000
,
0010
0000
1000
0000
0001
0000
0010
0000
0001
0000
0100
0000
,
0020
0000
0000
0000
0100
0000
0000
0000
0000
0000
0030
0000
0100
0000
0001
0100
,
0002
0000
0000
0003
,
0001
0010
0001
1000
0000
1000
0100
1000
,
0000
0010
0100
0010
0000
0010
1000
0010
,
0000
0100
0001
0100
0000
0100
0010
0100
,
0000
0001
0010
0001
0000
0001
1000
0001
,
0000
1000
0010
1000
0000
1000
0100
1000
,
0000
0100
0010
0100
0000
0100
1000
0100
,
0000
1000
0001
1000
0000
1000
0010
1000
,
0002
0000
0000
0000
0000
0000
0000
0003
,
1000
0000
0100
0000
0010
0000
0001
0000
0100
0000
0001
0000
,
2000
0000
0000
0000
0000
0000
0000
3000
,
0010
0000
0100
0000
0001
0000
1000
0000
0100
0000
1000
0000
,
0020
0000
0000
0000
0000
0000
0000
0030
,
0100
0000
0001
0000
1000
0000
0001
0000
0010
0000
0100
0000
,
1000
0000
0001
0000
0100
0000
0010
0000
1000
0000
0100
0000
,
0010
0000
0001
0000
1000
1000
0001
0000
,
0100
0000
0010
0000
0100
0010
0100
0001
,
2000
0000
0001
0000
0001
0000
0010
3000
,
0002
0000
0100
0000
0010
0000
0000
0003
,
2000
0000
0001
0000
,
0010
0000
0100
3000
,
0002
0000
0010
0000
,
0100
0000
1000
0003
,
0201
0000
0010
0000
,
1000
0000
0001
0300
,
2000
0000
0100
3000
,
1200
0000
0000
0000
0001
0000
0000
0300
,
1000
0000
0100
0010
0000
0100
1000
0000
,
0010
0000
0100
0001
0000
0100
0010
0000
,
1000
0000
0001
0010
0000
0100
1000
0000
,
0010
0000
0000
0000
0100
0000
0001
0000
0000
0000
0001
0000
0000
0010
0000
0000
,
0100
0000
0110
0000
0010
0001
1000
0000
,
0010
0100
0001
0000
0010
0100
0010
0000
,
0001
0000
1010
0000
1000
0100
0010
0000
,
0001
0000
1000
0000
0000
0010
0000
0000
0100
0000
0000
0001
0000
0000
0010
0000
,
0001
0000
0000
0000
;

//---------------dance-single - Blank----------------
#NOTES:
     dance-single:
     Blank:
     Beginner:
     1:
     0.125,0.106,0.054,0.000,0.000,91.000,6.000,0.000,0.000,0.000,0.000,0.125,0.106,0.054,0.000,0.000,91.000,6.000,0.000,0.000,0.000,0.000:
0000
0000
0000
0000
,
0000
0000
0000
0000
,
0000
0000
0000
0000
,
0000
0000
0000
0000
,
0010
0000
0000
0000
,
1000
0000
0000
0000
,
0001
0000
0000
0000
,
0010
0000
0001
0000
,
1000
0000
1000
0000
,
1000
0000
1000
0000
,
0100
0000
0010
0000
,
0001
0000
0001
0000
,
0100
0000
0100
0000
,
0100
0000
0100
0000
,
0010
0000
1000
0000
,
0001
0000
0001
0000
,
0100
0000
0000
0000
,
1000
0000
0100
0000
,
0001
0000
0010
0000
,
0001
0000
0000
0000
,
0010
0000
0100
0000
,
0001
0000
0100
0000
,
1000
0000
0010
0000
,
0100
0000
0000
0100
,
0100
0000
0000
0000
,
0001
0000
0001
0000
,
1000
0000
1000
0000
,
0100
0000
0100
0000
,
1000
0000
1000
0000
,
0001
0000
0001
0000
,
0100
0000
0100
0000
,
0010
0000
0010
0000
,
1000
0000
0000
0000
,
1001
0000
0001
0000
,
1000
0000
0000
0000
,
1001
0000
1000
0000
,
0001
0000
0000
0000
,
1001
0000
0010
0000
,
1000
0000
0001
0000
,
1001
0000
0000
0000
,
0110
0000
0000
0000
,
0110
0000
0000
0000
,
0001
0000
0000
0000
,
1000
0000
0000
0000
,
0100
0000
0000
0000
,
0010
0000
0000
0000
,
0001
0000
0000
0000
,
1000
0000
0000
0000
,
0010
0000
0000
0000
,
0100
0000
0000
0000
,
0001
0000
0001
0000
,
1000
0000
0100
0000
,
1000
0000
0010
0000
,
1000
0000
0001
0000
,
1000
0000
0100
0000
,
0010
0000
0001
0000
,
1000
0000
0001
0000
,
0100
0000
0001
0000
,
1000
0000
0010
0000
,
1000
0000
0000
0000
;

//---------------dance-double - Blank----------------
#NOTES:
     dance-double:
     Blank:
     Challenge:
     9:
     0.611,0.610,0.018,0.018,0.526,472.000,2.000,2.000,0.000,0.000,0.000,0.611,0.610,0.018,0.018,0.526,472.000,2.000,2.000,0.000,0.000,0.000: // measure 1
00000000
00000000
00000000
00000000
,  // measure 2
00000000
00000000
00000000
00000000
,  // measure 3
00000000
00000000
00000000
00000000
,  // measure 4
00000000
00000000
00000000
00000000
,  // measure 5
00000110
00000000
00001000
00000000
00000001
00000010
00000100
00000100
,  // measure 6
00001000
00000000
00000000
00000000
00000001
00000000
00000100
00000001
00000100
00000000
00000001
00001000
00000100
00001000
00000100
00000000
,  // measure 7
00010000
00000000
00000000
00000000
00001000
00000000
00000000
00000000
01000000
00000000
00001000
01000000
00010000
01000000
00010000
00000000
,  // measure 8
10000000
00000000
00000000
00000000
01000000
00000000
00100000
00010000
00100000
00000000
00001000
00010000
00001000
01000000
00010000
01000000
,  // measure 9
00100000
00000000
10000000
00000000
00000000
00000000
10000000
01000000
00100000
00000000
00010000
00000000
00000000
00000000
00010000
00000000
,  // measure 10
01000000
00000000
00001000
00000000
00000000
00000000
00001000
00010000
00001000
00000000
00000100
00000000
00000000
00000000
00000100
00000000
,  // measure 11
00000001
00000000
00001000
00000000
00000000
00000000
00001000
00000010
00000100
00000000
00000001
00000000
00000000
00000000
00000001
00000000
,  // measure 12
00001000
00000000
00000100
00000000
00000000
00000000
00000100
00010000
00001000
00000000
00010000
00000000
00000000
00000000
00010000
00000000
,  // measure 13
00100000
00000000
01000000
00000000
00000000
00000000
01000000
00010000
10000000
00000000
01000000
00000000
00000000
00000000
01000000
00000000
,  // measure 14
00100000
00000000
00001000
00000000
00000000
00000000
00001000
00010000
00000010
00000000
00001000
00000000
00000000
00000000
00001000
00000000
,  // measure 15
00000100
00000000
00000001
00000000
00000000
00000000
00000001
00000100
00000010
00000000
00000001
00000000
00000000
00000000
00000001
00000000
,  // measure 16
00001000
00000000
00000010
00000000
00010000
00000100
00010000
00001000
00100000
00000000
00001000
00010000
00001000
01000000
00010000
10000000
,  // measure 17
01000000
00000000
00000000
00000000
00000000
00000000
10000000
00000000
00000000
00000000
00000000
00000000
01000000
00000000
00000000
00000000
00000000
00000000
00100000
00000000
00000000
00010000
00000000
00000000
10000000
00000000
00000000
00000000
00000000
00000000
00000000
00000000
01000000
00000000
00000000
00000000
00000000
00000000
00000000
00000000
00010000
00000000
00000000
00000000
00000000
00000000
00000000
00000000
,  // measure 18
00001000
00000000
00010000
00000000
00010000
00000000
00000100
00010000
00000010
00000000
00001000
00000000
00000001
00000000
00000001
00000000
,  // measure 19
00000010
00000000
00001000
00000000
00010000
00000000
00000010
00000000
00000100
00000000
00001000
00000000
,  // measure 20
00010000
00000000
00001000
00000000
00001000
00000000
00100000
00001000
01000000
00000000
00010000
00000000
10000000
00000000
00010000
10000000
,  // measure 21
00100000
00000000
00010000
00000000
00001000
00000000
00010000
00000000
01000000
00000000
00010000
00000000
,  // measure 22
00000010
00000000
00000000
00000000
00000100
00000000
00000000
00000000
00001000
00000000
00000000
00000000
00010000
00000000
00000000
00010000
00000000
00000000
00001000
00000000
00000000
00010000
00000000
00000000
,  // measure 23
00000100
00000000
00000010
00000000
00000001
00000000
00001000
00000000
00000010
00000000
00010000
00000000
,  // measure 24
00001000
00000000
00100000
00000000
00100000
00000000
01000000
00000000
00100000
00000000
00010000
00000000
00010000
00000000
00100000
00010000
,  // measure 25
10000000
00000000
00100000
00000000
00010000
00000000
00000000
00010000
00001000
00000000
00000000
00000000
01000000
00001000
00010000
00001000
,  // measure 26
00100000
00001000
00000010
00001000
00100000
00001000
00000010
00001000
,  // measure 27
01000000
00001000
00000100
00001000
01000000
00001000
00000100
00001000
,  // measure 28
01000000
00001000
00000010
00001000
01000000
00001000
00000010
00001000
,  // measure 29
00100000
00000000
00001000
00000000
00000100
00000000
00001000
00000000
00100000
00000000
00001000
00000000
00000100
00000000
00001000
00010000
,  // measure 30
00000010
00010000
00100000
00010000
00000010
00010000
00100000
00010000
,  // measure 31
00000010
00010000
01000000
00010000
00000010
00010000
01000000
00010000
,  // measure 32
00000100
00010000
00100000
00010000
00000100
00010000
00100000
00010000
,  // measure 33
00001000
00000000
00100000
00000000
00100000
00000000
00010000
01000000
00010000
00000000
00100000
00010000
00100000
00001000
00010000
00000010
,  // measure 34
00010000
00000000
00001000
00000100
00000010
00000000
00000100
00000000
00001000
00010000
01000000
00000000
,  // measure 35
00020000
00000000
00000010
00000000
00001000
00000000
00100000
00030000
,  // measure 36
00001000
00000000
00000010
00000001
00000100
00000000
00001000
00000000
00000100
00001000
00010000
00000000
,  // measure 37
00002000
00000000
00000010
00000000
00010000
00000000
00100000
00003000
,  // measure 38
00010000
00000000
00001000
00000010
00001000
00000000
00010000
00000000
00100000
01000000
00100000
00000000
,  // measure 39
00010000
00000000
00001000
00000100
00000001
00000000
00000010
00000000
00000100
00010000
00001000
00000000
,  // measure 40
00110000
00000000
00000000
00000000
01000000
00000000
00100000
01000000
00010000
00000000
00010000
00000000
00100000
00000000
00010000
00000000
,  // measure 41
10000000
00000000
01000000
00000000
00100000
00000000
01000000
10000000
00010000
00100000
00001000
00010000
00000100
00010000
00000010
00001000
,  // measure 42
00000001
00000000
00000001
00000000
00000001
00000000
00000001
00000000
00000010
00000000
00000010
00000000
00000100
00000000
00000010
00000100
,  // measure 43
00001000
00000000
00001000
00000000
00000100
00000000
00010000
00000000
00000010
00000000
00000000
00010000
00000000
00000000
01000000
00000000
,  // measure 44
00100000
00000000
00010000
00000000
10000000
00000000
01000000
00000000
10000000
00000000
00100000
01000000
00000000
00010000
00100000
00000000
,  // measure 45
01000000
00000000
00100000
00000000
00001000
00000000
00010000
00000000
00000010
00000000
00001000
00000100
00000000
00010000
00001000
00000000
,  // measure 46
00010000
00000000
00000100
00000000
00000010
00000000
00001000
00000000
00010000
00000000
00000100
00000010
00000000
00000001
00001000
00000000
,  // measure 47
00000010
00000000
00000100
00000000
00000001
00000000
00001000
00000000
00000001
00000000
00000010
00000100
00000000
00001000
00000010
00000000
,  // measure 48
00010000
00000000
00001000
00000000
00000100
00000000
00001000
00000000
00010000
00000000
00000100
00000010
00000000
00001000
00010000
00000000
,  // measure 49
00001000
00000000
01000000
00000000
00100000
00000000
01000000
00000000
00001000
00000000
00100000
01000000
00000000
10000000
00010000
00000000
,  // measure 50
10000000
00000000
00100000
00000000
01000000
00000000
10000000
00000000
01000000
00000000
00100000
00010000
00000000
00100000
10000000
00000000
,  // measure 51
01000000
00000000
00000000
00000000
00010000
00000000
00000000
00000000
00000010
00000000
00000100
00000001
00000000
00000010
00000001
00000000
,  // measure 52
00000010
00000000
00000010
00000000
00000100
00000010
00000001
00000000
00000010
00000100
00000010
00000000
00000100
00001000
00000001
00000000
,  // measure 53
00000100
00000000
00000100
00000000
00000010
00000100
00000001
00000000
00001000
00000010
00000100
00000000
00000001
00000100
00000010
00001000
,  // measure 54
00000100
00000000
00000100
00000000
00010000
00000100
00001000
00000000
00000100
00010000
00000100
00000000
00010000
00001000
01000000
00000000
,  // measure 55
00010000
00000000
00010000
00000000
10000000
00100000
01000000
00000000
00100000
01000000
00010000
00000000
00100000
00001000
00100000
00010000
,  // measure 56
10000000
00000000
10000000
00000000
01000000
00100000
00010000
00000000
00100000
01000000
00100000
00000000
00010000
00100000
00001000
00000000
,  // measure 57
00010000
00000000
00010000
00000000
00000010
00001000
00000100
00000000
00001000
00000100
00000010
00000000
00000001
00000010
00000100
00001000
,  // measure 58
00000010
00000000
00000010
00000000
00000100
00000001
00000010
00000000
00000100
00001000
00000100
00000000
00010000
00001000
00100000
00000000
,  // measure 59
00010000
00000000
01000000
00000000
00100000
10000000
00000000
10000000
01000000
00000000
00000000
00010000
00000000
00000000
00001000
00000000
,  // measure 60
00010000
00000000
00000000
00000000
;

//---------------dance-double - Hard----------------
#NOTES:
     dance-double:
     Hard:
     Hard:
     7:
     0.435,0.424,0.063,0.081,0.112,323.000,7.000,9.000,0.000,0.000,0.000,0.435,0.424,0.063,0.081,0.112,323.000,7.000,9.000,0.000,0.000,0.000: // measure 1
00000000
00000000
00000000
00000000
,  // measure 2
00000000
00000000
00000000
00000000
,  // measure 3
00000000
00000000
00000000
00000000
,  // measure 4
00000000
00000000
00000000
00000000
,  // measure 5
00000110
00000000
00001000
00000000
00000010
00000100
00000001
00000001
,  // measure 6
00000010
00000000
00001000
00010000
00001000
00100000
00010000
00000000
,  // measure 7
00011000
00000000
01000000
00000000
00100000
10000000
00010000
00010000
,  // measure 8
00100000
00000000
01000000
00100000
00001000
00000000
00010000
00000010
,  // measure 9
00000100
00000001
00000000
00000001
00000100
00001000
00000000
00001000
,  // measure 10
00010000
00100000
00000000
00100000
10000000
00010000
00000000
00010000
,  // measure 11
10000000
01000000
00000000
01000000
00010000
00001000
00000000
00001000
,  // measure 12
00000010
00000001
00000000
00000001
00001000
00000010
00000000
00000010
,  // measure 13
00001001
00001000
00000000
00001000
00000100
00000010
00000000
00000010
,  // measure 14
00001000
00010000
00000000
00010000
00001000
01000000
00000000
01000000
,  // measure 15
00100000
00010000
00000000
00010000
00001000
00100000
00000000
00100000
,  // measure 16
01000000
00000000
00100000
00001000
00010000
00000000
00001000
01000000
,  // measure 17
00100000
10000000
01000000
00000000
10000000
00100000
01000000
00000000
,  // measure 18
00010000
00100000
00001000
00000000
00010000
00000100
00001000
00001000
,  // measure 19
00000010
00000100
00000001
00000000
00000010
00000100
00001000
00000000
,  // measure 20
00000001
00001000
00000010
00010000
00001000
01000000
00100000
00000000
,  // measure 21
10000000
00000000
01000000
00000000
00100000
00010000
00100000
00000000
,  // measure 22
00001000
00000000
01000000
00000000
00100000
00100000
01000000
00000000
,  // measure 23
10000000
00000000
01000000
00000000
00010000
00100000
00001000
00000000
,  // measure 24
00011000
00000000
00000010
00000000
00000100
00000100
00000001
00000000
,  // measure 25
00001010
00000000
00000010
00000000
00010000
00000000
00000000
00010000
00001000
00000000
00000000
00000000
00100000
00000000
00010000
00000000
,  // measure 26
10000000
00000000
01000000
00100000
00001000
00000000
00010000
01000000
,  // measure 27
10000000
00000000
00100000
10000000
00010000
00000000
01000000
00100000
,  // measure 28
00010000
00000000
00000010
00001000
00000100
00000000
00000010
00000100
,  // measure 29
00010000
00000000
00001000
00010000
00000010
00000100
00000001
00000000
,  // measure 30
00001000
00000010
00000100
00000000
00001000
00000100
00000001
00000000
,  // measure 31
00001000
00000100
00010000
00000000
01000000
00100000
00010000
00000000
,  // measure 32
10000000
00100000
01000000
00000000
00001000
00010000
00100000
00000000
,  // measure 33
00010000
00001000
00010000
00000100
00000010
00000000
00000100
00000000
,  // measure 34
00010000
00000000
00001000
00000000
00000100
00000000
00001000
00000000
00010000
00000000
00100000
00000000
,  // measure 35
00020000
00000000
00000010
00000000
00000100
00000000
00001000
00030000
,  // measure 36
00001000
00000000
00000010
00000000
00000001
00000000
00000010
00000000
00001000
00000000
00010000
00000000
,  // measure 37
00000200
00000000
00000010
00000000
00001000
00000000
00010000
00000300
,  // measure 38
00001000
00000000
00010000
00000000
01000000
00000000
00010000
00000000
00001000
00000000
00000010
00000000
,  // measure 39
00000100
00000000
00010000
00000000
00001000
00000000
00010000
00000000
00100000
00000000
10000000
00000000
,  // measure 40
01000000
00000000
10000000
00000000
00010000
00010000
00100000
01000000
,  // measure 41
00100000
00000000
00001000
00010000
00000010
00000010
00000100
00000000
,  // measure 42
00000001
00000001
00000010
00000010
00000100
00000100
00000010
00000001
,  // measure 43
00001000
00000000
00001000
00000000
00000010
00000000
00001000
00000000
00000001
00000000
00000000
00000010
00000000
00000000
00000100
00000000
,  // measure 44
00020000
00000000
00000000
00000000
00000010
00000000
00030000
00010000
,  // measure 45
00200000
00000000
00000000
00000000
01300000
00010000
00000000
00010000
,  // measure 46
20000000
00000000
00000000
00000000
01000000
00000000
00000000
30010000
,  // measure 47
00200000
00000000
00000000
00000000
00000000
00000000
00300000
00000000
00001000
00000000
00000000
00000100
00000000
00000000
00000010
00000000
,  // measure 48
00002000
00000000
00000000
00000000
00000001
00000000
00003000
00000100
,  // measure 49
00020000
00000000
00000000
00030000
00100000
10000000
00000000
10000000
,  // measure 50
02000000
00000000
00000000
00000000
00100000
00000000
03000000
01000000
,  // measure 51
00010000
00000000
00000000
00000000
00001000
00000000
00000000
00000000
00010000
00000000
00000010
00001000
00000000
00001000
00000100
00000000
,  // measure 52
00000010
00000010
00000100
00000010
00000000
00000001
00000100
00000010
,  // measure 53
00001000
00000100
00010000
00001000
00000000
01000000
00010000
00100000
,  // measure 54
00010000
10000000
00100000
01000000
00000000
00100000
10000000
01000000
,  // measure 55
00100000
00000000
00001000
00000000
00010000
00000000
00001000
00000000
00000000
00000000
00101000
00000000
00000000
00010010
00000000
00000000
,  // measure 56
00000100
00001000
00000100
00000010
00000100
00000100
00001000
00000100
,  // measure 57
00000010
00000001
00000100
00000001
00001000
00000010
00000100
00000010
,  // measure 58
00010000
00010000
00001000
00100000
01000000
01000000
00100000
00010000
,  // measure 59
10000000
00000000
00100000
00000000
01000000
00010000
00000000
00010000
00100000
00000000
00000000
00001000
00000000
00000000
01000000
00000000
,  // measure 60
00001000
00000000
00000000
00000000
;

//---------------dance-double - Beginner----------------
#NOTES:
     dance-double:
     Beginner:
     Easy:
     2:
     0.163,0.212,0.045,0.036,0.000,118.000,5.000,4.000,0.000,0.000,0.000,0.163,0.212,0.045,0.036,0.000,118.000,5.000,4.000,0.000,0.000,0.000:
00000000
00000000
00000000
00000000
,
00000000
00000000
00000000
00000000
,
00000000
00000000
00000000
00000000
,
00000000
00000000
00000000
00000000
,
00000001
00000000
00000000
00000000
,
00000100
00000000
00000000
00000000
,
00001000
00000000
00000000
00000000
,
00010000
00000000
00001000
00000000
,
00100000
00000000
00010000
00000000
,
10000000
00000000
00100000
00000000
,
01000000
00000000
00010000
00000000
,
00200000
00000000
00000000
00300000
,
00011000
00000000
00000010
00000000
,
00001000
00000000
00000100
00000000
,
00000010
00000000
00000001
00000000
,
00000200
00000000
00000000
00000300
,
00011000
00000000
00001000
00000000
,
01000000
00000000
00100000
00000000
,
10000000
00000000
01000000
00000000
,
00010000
00000000
00000000
00000000
,
00001000
00000000
00010000
00000000
,
00000010
00000000
00000100
00000000
,
00001000
00000000
00000100
00000000
,
00000001
00000000
00000010
00000100
,
00000120
00000000
00000000
00000030
,
00000001
00000000
00001000
00000000
,
00000010
00000000
00010000
00000000
,
00001000
00000000
00100000
00000000
,
01000000
00000000
00100000
00000000
,
00001000
00000000
01000000
00000000
,
00010000
00000000
10000000
00000000
,
01000000
00000000
00100000
00000000
,
00002000
00000000
00000000
00003000
,
00011000
00000000
00000010
00000000
,
00001000
00000100
00000010
00000001
,
00000110
00000000
00001000
00000000
,
00000010
00010000
00001000
00100000
,
00010000
00000000
01000000
00000000
,
10000000
00000000
01000000
00000000
,
00100000
10000000
00100000
01000000
,
00010000
00100000
00001000
00010000
,
00000010
00000010
00001000
00001000
,
00000100
00000100
00010000
00000000
,
00001000
00000000
00000010
00000000
,
00001000
00000000
00010000
00000000
,
00000000
00000000
00001000
00000000
,
00000100
00000000
00000001
00000000
,
00000000
00000000
00000010
00000000
,
00000100
00000000
00010000
00000000
,
00000000
00000000
00001000
00000000
,
00010000
00001000
00001000
00100000
,
00010000
00000000
01000000
00000000
,
10000000
00000000
01000000
00000000
,
00010000
00000000
00100000
00000000
,
00001000
00000000
00000010
00000000
,
00000001
00000010
00000001
00000000
,
00001000
00000010
00001000
00000000
,
00000100
00010000
00001000
00000000
,
01000000
00001000
00100000
00000000
,
00010000
00000000
00000000
00000000
;

//---------------dance-double - Medium----------------
#NOTES:
     dance-double:
     Medium:
     Medium:
     5:
     0.340,0.318,0.027,0.099,0.085,251.000,3.000,11.000,0.000,0.000,0.000,0.340,0.318,0.027,0.099,0.085,251.000,3.000,11.000,0.000,0.000,0.000: // measure 1
00000000
00000000
00000000
00000000
,  // measure 2
00000000
00000000
00000000
00000000
,  // measure 3
00000000
00000000
00000000
00000000
,  // measure 4
00000000
00000000
00000000
00000000
,  // measure 5
00000010
00000000
00001000
00000000
00000001
00000100
00000001
00000000
,  // measure 6
00000010
00000000
00000100
00000000
00010000
00001000
00010000
00000000
,  // measure 7
00001000
00000000
01000000
00000000
00100000
01000000
00010000
00000000
,  // measure 8
00100000
01000000
00100000
00010000
,  // measure 9
10000000
00100000
00000000
00100000
10000000
00010000
00000000
00010000
,  // measure 10
00100000
00001000
00000000
00001000
00010000
00000100
00000000
00000100
,  // measure 11
00001000
00000010
00000000
00000010
00000100
00000001
00000000
00000001
,  // measure 12
00001000
00000100
00000000
00000100
00010000
00001000
00000000
00010000
,  // measure 13
00001000
01000000
00000000
01000000
00010000
00100000
00000000
00100000
,  // measure 14
00001000
01000000
00000000
01000000
00010000
10000000
00000000
10000000
,  // measure 15
01000000
00100000
00000000
00100000
00010000
01000000
00000000
01000000
,  // measure 16
00001000
00010000
00001000
00000000
,  // measure 17
01000000
00000000
00010000
00000000
01000000
00100000
10000000
00000000
,  // measure 18
01000000
00000000
00100000
00000000
00010000
00100000
00001000
00001000
,  // measure 19
00010000
00000000
00000010
00000000
00001000
00000010
00000100
00000000
,  // measure 20
00000001
00000000
00001000
00000000
00000100
00000010
00000100
00000100
,  // measure 21
00010000
00000000
00001000
00000000
01000000
00010000
00100000
00000000
,  // measure 22
00010000
00000000
10000000
00000000
01000000
10000000
00100000
00000000
,  // measure 23
01000000
00000000
00010000
00000000
00100000
00001000
00010000
00000000
,  // measure 24
00011000
00000000
00001000
00000010
,  // measure 25
00000002
00000000
00000000
00000000
00000000
00000000
00000000
00000003
,  // measure 26
00001000
00000100
00001000
00000001
00000000
00000001
00000100
00000001
,  // measure 27
00000000
00000010
00000100
00000010
00000000
00000010
00000001
00000010
,  // measure 28
00000000
00000100
00010000
00000100
00000000
00000100
00001000
00000100
,  // measure 29
00000000
00010000
00001000
00010000
00000000
00010000
00000010
00010000
,  // measure 30
00000000
00001000
00100000
00001000
00000000
00001000
01000000
00001000
,  // measure 31
00000000
00100000
00010000
00100000
00000000
00100000
01000000
00100000
,  // measure 32
00000000
00010000
10000000
00010000
00000000
00010000
01000000
00010000
,  // measure 33
00200000
00000000
00000000
00000000
00000000
00000000
00000000
00300000
,  // measure 34
01000000
00000000
00100000
00000000
00001000
00000000
00010000
00000000
00001000
00000000
01000000
00000000
,  // measure 35
00020000
00000000
00000000
00000000
00000000
00000000
00000000
00030000
,  // measure 36
00100000
00000000
00001000
00000000
00010000
00000000
00000010
00000000
00001000
00000000
00000100
00000000
,  // measure 37
00000020
00000000
00000000
00000000
00000000
00000000
00000000
00000030
,  // measure 38
00000100
00000000
00000010
00000000
00000001
00000000
00000100
00000000
00000010
00000000
00001000
00000000
,  // measure 39
00000100
00000000
00010000
00000000
00001000
00000000
00100000
00000000
01000000
00000000
00100000
00000000
,  // measure 40
00010000
00000000
10000000
00000000
00100000
00100000
10000000
00000000
,  // measure 41
01000000
00000000
00100000
00000000
00001000
00010000
00001000
00000000
,  // measure 42
00020000
00000000
00000010
00000000
00000010
00000000
00001000
00030000
,  // measure 43
00000200
00000000
00001000
00000000
00010000
00000000
00000000
00000300
,  // measure 44
00002000
00000000
00000001
00000000
,  // measure 45
00000010
00000000
00000100
00003000
,  // measure 46
00020000
00000000
00001000
00000000
,  // measure 47
00000010
00000000
00000100
00030000
,  // measure 48
00002000
00000000
00010000
00000000
,  // measure 49
00100000
00000000
01000000
00003000
,  // measure 50
00201000
00000000
00010000
00300000
,  // measure 51
20100000
00000000
01000000
30000000
,  // measure 52
10000000
00000000
01000000
00100000
00000000
01000000
10000000
00000000
,  // measure 53
00010000
00000000
01000000
00001000
00000000
00010000
00001000
00000000
,  // measure 54
00100000
00000000
01000000
00100000
00000000
00001000
00010000
00000000
,  // measure 55
00000010
00000000
00000000
00000000
00001000
00000000
00000010
00000000
00000000
00000000
00000100
00000000
00000000
00000010
00000000
00000000
,  // measure 56
00001000
00000000
00000100
00000000
00000010
00000100
00001000
00000000
,  // measure 57
00000010
00000100
00000001
00000000
00000100
00000010
00010000
00000000
,  // measure 58
00000100
00000000
00010000
00000000
00001000
00100000
01000000
00000000
,  // measure 59
10000000
00000000
00010000
00000000
00000000
01000000
00000000
00000000
00100000
00000000
00000000
01000000
00000000
00000000
00001000
00000000
,  // measure 60
00010000
00000000
00000000
00000000
;
