#TITLE:Labour Of Love;
#SUBTITLE:;
#ARTIST:Dead Can Dance;
#TITLETRANSLIT:;
#SUBTITLETRANSLIT:;
#ARTISTTRANSLIT:;
#GENRE:;
#CREDIT:;
#BANNER:laboroflove-bn.png;
#BACKGROUND:laboroflove-bg.png;
#LYRICSPATH:;
#CDTITLE:;
#MUSIC:02 - Dead Can Dance - Labour Of Love (cut).ogg;
#OFFSET:-6.165;
#SAMPLESTART:6.160;
#SAMPLELENGTH:12.000;
#SELECTABLE:YES;
#DISPLAYBPM:125.000;
#BPMS:0.000=125.000,201.000=120.000,201.250=110.000,201.500=100.000,201.750=90.000,202.000=80.000,202.250=70.000,202.500=60.000,202.750=50.000,202.875=45.000,203.000=40.000,203.125=35.000,203.250=30.000,203.375=25.000,203.500=20.000,203.625=15.000,203.750=10.000,203.875=5.000;
#STOPS:;
#TIMESIGNATURES:0.000=4=4
;
#BGCHANGES:;
#KEYSOUNDS:;

//---------------dance-single - Blank----------------
#NOTES:
     dance-single:
     Blank:
     Challenge:
     9:
     0.719,0.689,0.103,0.009,0.644,527.000,11.000,1.000,0.000,0.000,0.000,0.719,0.689,0.103,0.009,0.644,527.000,11.000,1.000,0.000,0.000,0.000: // measure 1
0001
0100
1000
0100
0001
0100
0010
1000
,  // measure 2
0001
1000
0100
1000
0001
0010
0100
0010
,  // measure 3
1000
0010
0001
1000
0010
1000
0100
0100
,  // measure 4
1000
0100
0001
0100
0010
0100
1000
0001
,  // measure 5
0100
0001
0010
0001
0100
0010
0001
0010
,  // measure 6
1000
0010
0100
0001
1000
0001
0010
0001
,  // measure 7
1000
0100
1000
0000
0001
0000
1000
0000
0010
0000
1000
0000
0100
0010
0100
0000
,  // measure 8
1000
0000
0100
0000
0001
0000
0100
0000
0010
0001
0010
0000
0100
0000
0010
0000
,  // measure 9
0001
0000
0100
0000
0001
0010
0001
0000
1000
0000
0001
0000
0100
0000
0001
0000
,  // measure 10
1000
0010
0100
0000
0001
0000
0100
0000
0010
0000
0100
0000
0001
0010
0100
0000
,  // measure 11
1000
0000
0100
0000
0010
0000
0100
0000
0010
0001
1000
0000
0100
0000
1000
0000
,  // measure 12
0001
0000
1000
0000
0001
0100
0010
0000
1000
0000
0010
0000
0100
0000
0001
0000
,  // measure 13
0001
0010
0001
0010
0100
0010
0100
0010
0100
1000
0100
1000
0001
0000
1000
0010
,  // measure 14
1000
0000
0010
0100
0001
0010
0001
0000
1000
0000
0100
1000
0100
0000
0010
0100
,  // measure 15
0010
0000
0001
0010
0001
0000
0100
0001
0100
0010
0100
0010
0100
0010
1000
0000
,  // measure 16
0001
0000
1000
0100
1000
0000
0100
0000
0010
0001
0010
0000
0100
0000
1000
0001
,  // measure 17
1000
0000
0100
0000
0010
0100
0010
0001
1000
0000
0001
1000
0001
0000
0100
0000
,  // measure 18
0010
0100
0010
0100
0001
0000
1000
0000
0100
0000
1000
0100
0010
0000
0100
0010
,  // measure 19
0001
0001
0010
0010
0100
0100
1000
1000
,  // measure 20
0100
0000
1000
0100
1000
0001
0010
0001
1000
0010
1000
0000
0010
0000
0100
0010
,  // measure 21
0100
0000
0001
0100
0010
1000
0010
0000
0100
0001
0100
0001
0010
0000
0001
1000
,  // measure 22
0001
1000
0100
1000
0100
0000
0010
0000
0001
0010
0001
0010
0001
1000
0010
0000
,  // measure 23
0100
0000
0001
0100
0001
0000
0010
0000
0001
0000
1000
0000
0100
1000
0100
0000
,  // measure 24
0010
0000
0001
0000
0100
0010
0100
0000
0001
0000
0001
0000
0010
0000
0010
0000
,  // measure 25
0001
0100
0010
0100
1000
0100
0001
1000
,  // measure 26
1010
0000
1100
0000
0001
0010
0100
0010
,  // measure 27
1000
0010
0001
1000
0011
0000
0101
0000
,  // measure 28
1000
0010
0100
0010
0001
0010
1000
0001
,  // measure 29
0101
0000
0011
0000
1000
0100
0010
0100
,  // measure 30
0001
0100
1000
0001
0011
0000
0101
0000
,  // measure 31
1010
0000
0100
0000
0001
0000
0100
0010
0100
0001
0010
0000
0100
0010
0100
1000
,  // measure 32
0100
0000
0010
0100
1000
0010
1000
0000
0010
0000
0100
0000
0001
0000
0100
0001
,  // measure 33
0100
0010
0100
0001
0010
0000
0100
1000
0100
0000
0010
0001
0010
0000
0001
1000
,  // measure 34
0100
0000
1000
0000
0010
0000
1000
0000
0010
0100
0010
0100
0001
0010
0001
0010
,  // measure 35
0100
0000
0010
0100
0010
0001
0010
0100
1000
0000
0010
0100
0010
0000
1000
0010
,  // measure 36
1000
0010
0100
0010
1000
0000
0001
0010
0001
0000
0010
0100
0010
0001
0010
0000
,  // measure 37
0101
0000
1000
0000
0010
0000
0010
1000
0100
0000
1000
0100
0010
0000
0001
0000
,  // measure 38
0100
0000
0100
0001
0010
0000
0100
0010
0001
1000
0001
1000
0010
0000
0100
0010
,  // measure 39
1000
0000
1000
0001
0010
0100
0010
0000
0001
0000
0010
0100
1000
0100
1000
0010
,  // measure 40
0100
0001
0100
0000
0001
0100
0001
0010
0100
1000
0001
0010
0001
0000
0100
0000
,  // measure 41
0010
0000
1000
0010
0100
0001
0100
0000
0001
0000
1000
0100
1000
0000
0010
0100
,  // measure 42
0010
1000
0001
1000
0001
0000
0010
0100
0010
0000
0001
1000
0100
1000
0010
0000
,  // measure 43
1001
0000
0001
0000
0010
0000
0100
0000
1000
0001
0010
0001
0100
0000
0010
1000
,  // measure 44
0010
0000
0100
0001
1000
0010
1000
0100
0010
0001
0010
0000
0001
0100
0010
1000
,  // measure 45
0001
1000
0100
0010
0001
0100
0010
0100
0001
1000
0100
0000
0010
0100
1000
0001
,  // measure 46
0100
0000
0010
1000
0010
0000
1000
0001
0010
0100
0010
0100
1000
0010
0100
0001
,  // measure 47
0010
0001
1000
0010
1000
0100
1000
0001
0100
0001
0010
0000
0100
0000
1000
0000
,  // measure 48
0100
0010
0001
1000
0010
0100
0010
1000
0001
0000
0010
0001
0010
0100
0010
0001
,  // measure 49
1000
0001
0100
0000
0100
0000
0001
0010
,  // measure 50
0100
0000
0100
0000
1000
0010
0100
0000
,  // measure 51
0100
0000
0000
0000
0002
0000
0000
0000
0000
0000
0000
0000
0000
0000
0000
0003
;

//---------------dance-single - Blank----------------
#NOTES:
     dance-single:
     Blank:
     Hard:
     7:
     0.459,0.380,0.112,0.009,0.000,331.000,12.000,1.000,0.000,0.000,0.000,0.459,0.380,0.112,0.009,0.000,331.000,12.000,1.000,0.000,0.000,0.000:
0100
0001
0010
0000
0010
0000
0100
1000
,
0010
0000
0010
0000
1000
0001
0010
0000
,
0001
0100
1000
0100
0010
0000
0010
0000
,
1000
0001
0100
0000
0100
0000
0001
0010
,
0100
0000
0100
0000
1000
0010
0001
0000
,
0010
1000
0100
0010
0001
0000
0001
0000
,
1000
0010
0100
0001
0010
0100
0001
0100
,
1000
0000
0100
0000
1000
0010
0100
0000
,
0100
0001
0010
0100
1000
0000
0100
0000
,
1000
0001
0100
0010
1000
0001
0100
0010
,
0001
0010
1000
0000
1000
0001
0100
0010
,
0100
0000
0001
0010
0100
0000
0010
0000
,
0001
0001
0010
0010
0100
0100
1000
0000
,
0010
0010
0100
0000
0001
0001
1000
1000
,
0100
0100
0010
0010
0001
0001
0100
0000
,
0001
0001
1000
1000
0010
0010
0100
0100
,
0001
0000
0010
0010
0001
0001
1000
1000
,
0010
0010
1000
1000
0100
0100
0010
0000
,
0001
0010
0100
0100
1000
1000
0010
0000
,
1000
0100
0010
0010
0001
0001
1000
1000
,
0001
0001
0100
0000
0010
1000
1000
0100
,
0010
0100
0010
0010
0001
0000
1000
0010
,
0100
0100
0001
0000
0010
0100
0010
0010
,
0001
0000
1000
0010
0100
0100
0001
0000
,
0010
0001
0100
0000
0110
0000
1000
0001
,
0010
0000
0110
0000
0001
1000
0010
0000
,
0101
0000
1000
0100
0010
0000
1100
0000
,
0001
0100
0010
0000
0011
0000
0100
0001
,
1000
0000
1100
0000
0001
0010
0100
0000
,
1010
0000
0100
1000
0001
0000
0110
0000
,
0001
1000
0001
0010
0100
0000
0010
0001
,
0100
0001
0100
0000
0010
1000
0001
1000
,
0100
0000
0010
0001
0001
0100
0001
0000
,
1000
0010
0100
0001
1000
0000
0100
1000
,
0001
0010
0100
0000
0010
0001
0100
0010
,
1000
0000
0001
0010
0100
1000
0010
0000
,
1000
0001
0010
0100
1000
0001
0100
0010
,
0100
0000
1010
0000
0100
0010
1000
0100
,
0010
0100
1000
0001
0010
0000
0101
0000
,
1000
0100
1000
0010
0100
0001
0010
0100
,
0010
0000
1100
0000
0010
0100
0010
0001
,
1000
0001
0100
0010
1000
0000
0101
0000
,
1000
0100
0010
0001
0010
0100
1000
0010
,
0100
0001
0100
0010
1000
0001
0010
0001
,
0100
0010
1000
0100
1000
0001
0010
0001
,
1000
0010
0100
0001
1000
0100
0010
0100
,
0010
0001
1000
0010
0100
0001
0100
0001
,
0010
0100
1000
0010
1000
0010
0100
0010
,
1000
0001
0100
0000
0100
0000
0001
0010
,
0100
0000
0100
0000
1000
0010
0100
0000
,
0100
0000
0000
0000
0002
0000
0000
0000
0000
0000
0000
0000
0000
0000
0000
0003
;

//---------------dance-single - Blank----------------
#NOTES:
     dance-single:
     Blank:
     Medium:
     5:
     0.365,0.333,0.149,0.009,0.000,257.000,16.000,1.000,0.000,0.000,0.000,0.365,0.333,0.149,0.009,0.000,257.000,16.000,1.000,0.000,0.000,0.000:
0100
0001
0001
0010
,
0001
0001
1000
0010
,
0001
0010
1000
0100
,
0001
0100
0100
1000
,
0100
0100
1000
0010
,
0001
0010
1000
0100
,
1000
0000
0010
0000
0010
0100
0001
0000
,
0010
0000
0010
0100
1000
0000
0100
0000
,
1000
0001
0100
0000
0010
0000
0010
0000
,
1000
0000
0100
0000
0010
0100
1000
0000
,
0010
0000
0010
0000
1000
0000
0001
0010
,
0001
1000
0010
0100
,
0001
0010
0001
0000
1000
0100
1000
0000
,
0100
0010
0001
0000
1000
0001
1000
0000
,
0010
1000
0010
0000
0100
0001
0100
0000
,
0001
1000
0100
0000
0010
0000
0100
0010
,
0001
0000
0010
0000
0001
1000
0010
0000
,
1000
0000
0100
1000
0100
0000
0010
0000
,
0001
0010
0001
0000
1000
0010
1000
0000
,
0100
0010
0001
0000
0001
1000
0001
0000
,
0100
0001
0100
0000
0010
1000
0100
0000
,
1000
0100
0010
0000
0001
0000
1000
0010
,
0100
0000
0001
0000
0010
0100
0010
0000
,
0001
0000
1000
0010
0100
0000
0001
0000
,
0010
0011
0011
1000
,
0110
0110
1000
1010
,
1010
0100
0011
0011
,
1000
1001
0011
0100
,
0110
0011
1000
1010
,
0101
0001
0110
1001
,
1000
0100
0010
0000
0100
0000
0010
0001
,
0100
0000
0001
0000
0100
0010
1000
0000
,
0100
0000
1000
0001
0100
0000
0010
0000
,
1000
0100
0100
0000
1000
0000
0010
0100
,
0100
0000
0010
0000
1000
0001
0001
0000
,
0010
0000
0001
0100
0100
0000
0010
0100
,
0001
1000
0001
0000
0100
0000
0010
1000
,
0100
0000
0010
0000
0001
1000
0001
0010
,
0100
0010
0001
0001
,
1000
0010
0100
0000
0010
1000
0100
0000
,
0010
0000
0010
0000
0100
1000
0001
1000
,
0010
0100
0001
0000
0100
0000
0100
0001
,
1000
0100
0010
0000
0100
0000
0010
0001
,
0100
0000
0010
0000
1000
0010
0100
0001
,
1000
0000
0001
0010
0100
0010
0001
0000
,
1000
0001
0010
0000
0100
1000
0100
0010
,
0001
0000
0001
0000
1000
0010
0100
0000
,
0100
0000
0001
0010
0100
0000
0010
0000
,
0001
1000
1000
0010
,
1000
1000
0001
0010
,
0010
0000
0000
0000
0002
0000
0000
0000
0000
0000
0000
0000
0000
0000
0000
0003
;

//---------------dance-single - Blank----------------
#NOTES:
     dance-single:
     Blank:
     Easy:
     3:
     0.235,0.214,0.084,0.009,0.000,166.000,9.000,1.000,0.000,0.000,0.000,0.235,0.214,0.084,0.009,0.000,166.000,9.000,1.000,0.000,0.000,0.000:
1000
0000
0000
0100
,
0000
0000
0001
0000
,
0100
1000
0000
0000
,
1000
0000
0000
0010
,
0000
0000
0001
0000
,
0010
1000
0000
0000
,
0001
0010
0100
1000
,
0000
0100
0010
0000
,
0001
1000
0000
0000
,
1000
0010
0100
0001
,
0000
0100
1000
0000
,
0100
0001
0000
0000
,
0001
1000
0010
0100
,
0010
1000
0001
1000
,
0100
0010
0100
1000
,
0001
1000
0001
0100
,
0010
0100
0001
1000
,
0100
1000
0010
0100
,
0001
0010
0100
1000
,
0100
0010
0001
0100
,
0010
1000
0001
1000
,
0100
1000
0100
0010
,
0100
0010
0001
1000
,
0010
0100
0010
0100
,
0110
0000
0001
0101
,
0000
0010
1001
0000
,
1000
0110
0000
1000
,
1010
0000
0100
1100
,
0000
0001
0101
0000
,
0010
0011
0000
0100
,
1001
1000
1000
0100
,
0010
0010
0001
1000
,
1000
0010
0100
0100
,
0001
1000
1000
0100
,
0010
0010
0001
0100
,
0100
0001
1000
1000
,
0100
0010
0001
0100
,
0010
0100
0001
1000
,
0100
1000
0010
0100
,
0001
1000
0001
0010
,
0100
0010
0001
0100
,
0010
0100
0001
0010
,
1000
0010
0001
0100
,
0010
0100
0001
1000
,
0010
0100
0001
1000
,
0001
0010
1000
0010
,
0100
0010
0001
0100
,
0001
1000
0010
0100
,
0001
0000
0000
1000
,
0000
0000
0100
0000
,
0000
0000
0000
0000
2000
0000
0000
0000
0000
0000
0000
0000
0000
0000
0000
3000
;

//---------------dance-single - Blank----------------
#NOTES:
     dance-single:
     Blank:
     Beginner:
     1:
     0.113,0.141,0.047,0.000,0.000,80.000,5.000,0.000,0.000,0.000,0.000,0.113,0.141,0.047,0.000,0.000,80.000,5.000,0.000,0.000,0.000,0.000:
1000
0000
0000
0100
,
0000
0000
0001
0000
,
0000
0100
0000
0000
,
1000
0000
0000
0010
,
0000
0000
0001
0000
,
0000
0010
0000
0000
,
1000
0000
0000
0010
,
0000
0000
1000
0000
,
0000
0001
0000
0000
,
0010
0000
0000
0001
,
0000
0000
1000
0000
,
0000
0010
0000
0000
,
0100
0000
0100
0100
,
0000
0000
0001
0000
,
0001
0001
0000
0000
,
1000
0000
0000
0100
,
0000
0000
0010
0000
,
0000
0001
0000
0000
,
0010
0000
0010
0010
,
0000
0000
1000
0000
,
1000
1000
0000
0000
,
0001
0000
0000
0100
,
0000
0000
1000
0000
,
0000
0001
0000
0000
,
0100
0000
0000
0010
,
0000
0000
1000
0000
,
0000
0100
0000
0000
,
1000
0000
0000
0010
,
0000
0000
0100
0000
,
0000
0001
0000
0000
,
1001
0000
0000
0100
,
0000
0000
0010
0000
,
0000
0100
0000
0000
,
1001
0000
0000
0001
,
0000
0000
0010
0000
,
0000
0100
0000
0000
,
0110
0000
0001
0001
,
0000
0000
1000
0000
,
0010
0010
0000
0000
,
1000
0000
0001
0001
,
0000
0000
1000
0000
,
0100
0100
0000
0000
,
0110
0000
0001
0001
,
0000
1000
1000
0000
,
0010
0010
0000
0000
,
1001
0000
0001
0001
,
0000
0000
0010
0000
,
0000
0100
0000
0000
,
1000
0000
0000
0001
,
0000
0000
1000
0000
,
0000
0010
0000
0000
;

//---------------dance-double - Blank----------------
#NOTES:
     dance-double:
     Blank:
     Challenge:
     9:
     0.715,0.689,0.009,0.009,0.649,534.000,1.000,1.000,0.000,0.000,0.000,0.715,0.689,0.009,0.009,0.649,534.000,1.000,1.000,0.000,0.000,0.000:
00001000
00010000
00100000
00010000
00001000
00010000
00000010
00010000
,
00001000
00010000
01000000
00010000
00001000
00010000
00100000
00010000
,
00000010
00010000
00001000
00010000
01000000
00010000
00001000
00010000
,
00000100
00000001
00000100
00001000
00000100
00000010
00001000
00100000
,
00001000
00010000
00001000
00000100
00001000
01000000
00010000
00100000
,
00010000
10000000
00100000
00010000
00100000
01000000
00010000
00100000
,
00010000
00100000
00001000
00000000
00010000
00000000
00001000
00000000
00000100
00000000
00001000
00000000
00000100
00000010
00001000
00000000
,
00000001
00000000
00001000
00000000
00000100
00000000
00001000
00000000
00000010
00010000
00001000
00000000
00100000
00000000
00001000
00000000
,
00010000
00000000
00001000
00000000
01000000
00010000
10000000
00000000
01000000
00000000
10000000
00000000
00100000
00000000
10000000
00000000
,
00010000
00100000
01000000
00000000
00100000
00000000
01000000
00000000
00010000
00000000
01000000
00000000
00100000
00001000
00010000
00000000
,
00001000
00000000
00010000
00000000
01000000
00000000
00010000
00000000
00000010
00001000
00000010
00000000
00000100
00000000
00000010
00000000
,
00010000
00000000
00000010
00000000
00001000
00000010
00000100
00000000
00000001
00000000
00000100
00000000
00001000
00000000
00000100
00000000
,
00000001
00000100
00000001
00000100
00000010
00010000
00000010
00010000
00001000
01000000
00001000
01000000
00010000
00000000
10000000
00010000
,
00100000
00000000
00010000
00100000
00001000
00010000
00001000
00000000
00010000
00000000
00000100
00010000
00001000
00000000
00010000
00001000
,
00100000
00000000
00010000
00100000
01000000
00000000
00100000
01000000
00100000
01000000
00100000
00010000
10000000
00010000
10000000
00000000
,
00100000
00000000
10000000
00100000
01000000
00000000
00100000
01000000
00010000
01000000
00001000
00000000
00100000
00000000
00001000
00010000
,
00000100
00000000
00001000
00000000
00000010
00000100
00000010
00010000
00001000
00000000
00010000
00000100
00001000
00000000
00000100
00000000
,
00000010
00000100
00000010
00000001
00000100
00000000
00000010
00000000
00010000
00000000
00001000
00010000
00000100
00000000
00001000
00000100
,
00010000
00010000
00100000
00100000
10000000
10000000
01000000
01000000
,
10000000
00000000
01000000
00000000
00100000
00010000
00100000
00010000
10000000
00100000
10000000
00000000
00010000
00000000
00100000
00001000
,
00010000
00000000
00001000
00010000
00000010
00001000
00000010
00000000
00000100
00000001
00000100
00000001
00001000
00000000
00000100
00001000
,
00000100
00010000
00001000
00010000
00001000
00000000
01000000
00000000
00010000
01000000
00010000
01000000
00100000
10000000
00100000
00000000
,
01000000
00000000
00010000
00100000
00001000
00000000
00010000
00000000
00000010
00000000
00010000
00000000
00001000
00010000
00000100
00000000
,
00000010
00000000
00000100
00000000
00001000
00000010
00001000
00000000
00000010
00000000
00000100
00000000
00000001
00000000
00000001
00000000
,
00000010
00001000
00010000
00001000
00000100
00001000
00010000
00001000
,
00100000
00001000
01000000
00010000
10000000
00100000
00010000
00100000
,
10000000
01000000
00010000
00001000
00010000
00000010
00001000
00000000
,
00000001
00000100
00001000
00000100
00000001
00000010
00000100
00010000
,
00000010
00010000
00001000
01000000
00001000
00010000
01000000
00010000
,
00001000
00010000
00100000
10000000
01000000
10000000
00010000
00000000
,
11000000
00000000
00100000
00000000
00010000
00000000
00100000
01000000
00100000
00010000
00100000
00000000
00010000
10000000
00010000
01000000
,
00001000
00000000
00010000
00001000
00010000
00000010
00010000
00000000
00000100
00000000
00001000
00000000
00000100
00000000
00000010
00000100
,
00001000
00000001
00001000
00000001
00000100
00000000
00000010
00001000
00000010
00000000
00010000
00001000
00010000
00000000
00001000
01000000
,
00010000
00000000
00100000
00000000
01000000
00000000
10000000
00000000
00100000
10000000
00100000
10000000
00010000
01000000
00010000
01000000
,
00100000
00000000
01000000
00010000
01000000
00001000
00010000
00001000
00010000
00000000
00000100
00001000
00000100
00000000
00001000
00000010
,
00001000
00000010
00000100
00000001
00000100
00000000
00000001
00000010
00000001
00000000
00001000
00000100
00010000
00001000
00010000
00000000
,
00001000
00000000
01000000
00000000
00100000
00000000
00010000
00100000
01000000
00000000
00010000
10000000
01000000
00000000
00100000
00000000
,
00001000
00000000
00010000
00001000
00000010
00000000
00000100
00001000
00000001
00001000
00000010
00000100
00000001
00000000
00000100
00000010
,
00001000
00000000
00000001
00000010
00000100
00000010
00000001
00000000
00000010
00000000
00001000
00010000
00000010
00010000
00001000
01000000
,
00010000
10000000
00010000
00000000
00100000
00010000
00100000
01000000
10000000
00010000
10000000
00100000
01000000
00000000
00100000
00000000
,
00010000
00000000
00001000
00010000
00000010
00001000
00000010
00000000
00010000
00000000
00000100
00000010
00000100
00000000
00001000
00000001
,
00001000
00000010
00000100
00000001
00000100
00000000
00000010
00000100
00001000
00000000
00010000
00001000
01000000
00001000
00100000
00000000
,
00010000
00000000
10000000
00000000
01000000
00000000
10000000
00000000
00010000
10000000
01000000
00100000
00010000
00100000
00001000
00010000
,
00000100
00000000
00001000
00000010
00000100
00000001
00000100
00000010
00001000
00000010
00010000
00000000
00000100
00010000
00001000
00100000
,
00010000
01000000
00100000
10000000
00010000
00100000
00001000
00100000
00010000
01000000
00010000
00000000
10000000
01000000
00100000
01000000
,
10000000
00000000
00010000
00100000
00001000
00000000
00010000
00000010
00001000
00000010
00001000
00000100
00000010
00000001
00000010
00000100
,
00001000
00000001
00000100
00000010
00010000
00001000
01000000
00001000
00010000
00001000
00100000
00000000
00001000
00000000
00010000
00000000
,
01000000
10000000
01000000
00100000
00010000
10000000
00010000
01000000
00001000
00000000
00010000
00000010
00001000
00000100
00001000
00000001
,
00000010
00000100
00001000
00000000
00001000
00000000
00000001
00000100
,
00001000
00000000
00001000
00000000
00100000
01000000
10000000
00000000
,
10000000
00000000
00000000
00000000
00020000
00000000
00000000
00000000
00000000
00000000
00000000
00000000
00000000
00000000
00000000
00030000
;

//---------------dance-double - Hard----------------
#NOTES:
     dance-double:
     Hard:
     Hard:
     7:
     0.443,0.380,0.000,0.009,0.000,331.000,0.000,1.000,0.000,0.000,0.000,0.443,0.380,0.000,0.009,0.000,331.000,0.000,1.000,0.000,0.000,0.000:
00001000
00100000
00010000
00000000
00100000
00000000
00001000
01000000
,
00100000
00000000
01000000
00000000
00001000
00010000
00000010
00000000
,
00010000
00000100
00000010
00000100
00001000
00000000
00000100
00000000
,
00010000
00000010
00000100
00000000
00000010
00000000
00010000
00001000
,
01000000
00000000
00010000
00000000
00100000
00001000
00010000
00000000
,
00001000
01000000
00010000
00100000
01000000
00000000
00100000
00000000
,
00010000
10000000
00100000
01000000
00100000
10000000
00010000
00100000
,
00001000
00000000
00010000
00000000
00001000
00010000
00000010
00000000
,
00001000
00000001
00000100
00000010
00001000
00000000
00000100
00000000
,
00001000
00000001
00001000
00000100
00010000
00001000
01000000
00010000
,
01000000
00100000
10000000
00000000
00010000
10000000
01000000
10000000
,
00100000
00000000
01000000
00010000
00100000
00000000
00001000
00000000
,
00010000
00010000
00000010
00000010
00010000
00010000
00001000
00000000
,
01000000
01000000
00010000
00000000
10000000
10000000
01000000
01000000
,
00100000
00100000
01000000
01000000
00100000
00100000
00001000
00000000
,
00010000
00010000
00000100
00000100
00001000
00001000
00000010
00000010
,
00000100
00000000
00000001
00000001
00001000
00001000
00000100
00000100
,
00010000
00010000
00000010
00000010
00001000
00001000
00000001
00000000
,
00000100
00000100
00001000
00001000
00010000
00010000
00100000
00000000
,
00010000
00010000
00001000
00001000
00100000
00100000
01000000
01000000
,
10000000
10000000
01000000
00000000
00100000
00010000
00010000
10000000
,
01000000
01000000
00010000
00010000
00001000
00000000
00010000
00010000
,
00001000
00001000
00000010
00000000
00000100
00000100
00000010
00000010
,
00000001
00000000
00001000
00001000
00000010
00000010
00010000
00000000
,
00001000
01000000
00010000
00000000
00100000
00000000
00001000
00010000
,
01000000
00000000
00100000
00000000
00010000
10000000
00100000
00000000
,
01000000
00000000
00001000
00010000
00100000
00000000
01000000
00000000
,
00010000
10000000
01000000
00000000
00100000
00000000
01000000
00010000
,
00001000
00000000
00010000
00000000
00000010
00001000
00000001
00000000
,
00001000
00000000
00000010
00000100
00001000
00000000
00000100
00000000
,
00000010
00001000
00001000
00000100
00010000
00000000
00001000
01000000
,
01000000
00010000
00100000
00000000
00010000
10000000
10000000
01000000
,
00100000
00000000
00001000
00010000
00000010
00001000
00000010
00000000
,
00000100
00000010
00000010
00001000
00000001
00000000
00000010
00000100
,
00000100
00010000
00001000
00000000
01000000
00010000
00010000
10000000
,
01000000
00000000
10000000
00100000
01000000
00010000
00100000
00000000
,
00001000
00100000
01000000
10000000
00010000
10000000
01000000
00100000
,
01000000
00000000
00010000
00000000
00001000
00010000
00000100
00001000
,
00000100
00000010
00000001
00001000
00000010
00000000
00000100
00000000
,
00000001
00001000
00000010
00001000
00000100
00010000
00001000
00100000
,
00001000
00000000
00010000
00000000
00100000
01000000
00010000
01000000
,
00010000
10000000
01000000
00100000
00001000
00000000
00010000
00000000
,
00000010
00000100
00000001
00000100
00000010
00001000
00000100
00000010
,
00000001
00000010
00000100
00010000
00001000
01000000
00010000
01000000
,
00100000
10000000
01000000
00100000
00010000
00100000
00001000
00010000
,
00001000
01000000
00100000
10000000
00010000
00100000
00001000
00010000
,
00000100
00000010
00000100
00010000
00000010
00001000
00000010
00000100
,
00000001
00001000
00000100
00000010
00000001
00000010
00000001
00001000
,
00000010
00010000
00001000
00000000
00001000
00000000
00010000
01000000
,
00100000
00000000
00100000
00000000
00010000
10000000
00100000
00000000
,
00010000
00000000
00000000
00000000
00002000
00000000
00000000
00000000
00000000
00000000
00000000
00000000
00000000
00000000
00000000
00003000
;

//---------------dance-double - Blank----------------
#NOTES:
     dance-double:
     Blank:
     Easy:
     1:
     0.097,0.095,0.037,0.009,0.000,68.000,4.000,1.000,0.000,0.000,0.000,0.097,0.095,0.037,0.009,0.000,68.000,4.000,1.000,0.000,0.000,0.000:
10000000
00000000
00000000
00100000
,
00000000
00000000
01000000
00000000
,
00000000
00010000
00000000
00000000
,
01000000
00000000
00000000
00001000
,
00000000
00000000
00010000
00000000
,
00000000
00000100
00000000
00000000
,
00001000
00000000
00000000
00000010
,
00000000
00000000
00000100
00000000
,
00000000
00000001
00000000
00000000
,
00001000
00000000
00000000
00000100
,
00000000
00000000
00010000
00000000
,
00000000
00001000
00000000
00000000
,
00001000
00000000
00000000
01000000
,
00000000
00000000
00001000
00000000
,
00000000
00100000
00000000
00000000
,
00010000
00000000
00000000
10000000
,
00000000
00000000
01000000
00000000
,
00000000
00100000
00000000
00000000
,
00001000
00000000
00000000
00010000
,
00000000
00000000
00000100
00000000
,
00000000
00010000
00000000
00000000
,
00000010
00000000
00000000
00000100
,
00000000
00000000
00000001
00000000
,
00000000
00000010
00000000
00000000
,
00000001
00000000
00000000
00001000
,
00000000
00000000
00000100
00000000
,
00000000
00010000
00000000
00000000
,
00001000
00000000
00000000
01000000
,
00000000
00000000
00010000
00000000
,
00000000
10000000
00000000
00000000
,
10010000
00000000
00000000
00010000
,
00000000
00000000
00100000
00000000
,
00000000
00001000
00000000
00000000
,
00011000
00000000
00000000
00010000
,
00000000
00000000
00000010
00000000
,
00000000
00001000
00000000
00000000
,
00000110
00000000
00000000
00000001
,
00000000
00000000
00000010
00000000
,
00000000
00000100
00000000
00000000
,
00011000
00000000
00000000
01000000
,
00000000
00000000
00100000
00000000
,
00000000
10000000
00000000
00000000
,
10000000
00000000
00000000
01000000
,
00000000
00000000
00010000
00000000
,
00000000
00001000
00000000
00000000
,
00000100
00000000
00000000
00000001
,
00000000
00000000
00000010
00000000
,
00000000
00001000
00000000
00000000
,
00010000
00000000
00000000
00100000
,
00000000
00000000
10000000
00000000
,
00000000
00000000
00000000
00000000
00020000
00000000
00000000
00000000
00000000
00000000
00000000
00000000
00000000
00000000
00000000
00030000
;

//---------------dance-double - Blank----------------
#NOTES:
     dance-double:
     Blank:
     Medium:
     5:
     0.344,0.309,0.000,0.009,0.000,257.000,0.000,1.000,0.000,0.000,0.000,0.344,0.309,0.000,0.009,0.000,257.000,0.000,1.000,0.000,0.000,0.000:
00010000
00100000
00001000
01000000
,
00010000
00100000
01000000
00100000
,
00001000
00010000
00000010
00001000
,
00000001
00000010
00000100
00001000
,
00000010
00001000
00000001
00000100
,
00000010
00010000
00001000
00010000
,
00001000
00000000
00100000
00000000
01000000
10000000
01000000
00000000
,
00100000
00000000
00010000
00100000
00001000
00000000
00010000
00000000
,
00000010
00001000
00000010
00000000
00000100
00000000
00000001
00000000
,
00001000
00000100
00010000
00000000
00010000
00001000
01000000
00000000
,
00010000
00000000
01000000
00000000
00100000
00000000
10000000
01000000
,
10000000
00010000
01000000
00001000
,
00010000
00001000
00010000
00000000
00100000
00010000
00100000
00000000
,
00010000
00000000
00001000
00000000
00010000
00000010
00010000
00000000
,
00001000
00100000
00001000
00000000
00010000
00000000
00000100
00000000
,
00001000
00000100
00001000
00000000
00000010
00000000
00000100
00000001
,
00000100
00000000
00000001
00000000
00001000
00000100
00000010
00000000
,
00000100
00000000
00010000
00001000
00100000
00000000
00001000
00000000
,
00010000
00001000
00010000
00000000
01000000
00010000
01000000
00000000
,
00100000
00000000
00010000
00000000
10000000
00100000
10000000
00000000
,
01000000
00100000
00010000
00000000
00100000
00000000
00001000
00000000
,
00010000
00001000
00010000
00000000
00001000
00000000
00000010
00000100
,
00000010
00000000
00000001
00000000
00000100
00000010
00000100
00000000
,
00000001
00000000
00001000
00000010
00000100
00000000
00000010
00000000
,
00010000
00001000
00000010
00001000
,
00010000
00001000
01000000
00100000
,
00010000
00100000
01000000
00010000
,
10000000
01000000
00100000
01000000
,
00010000
00001000
00010000
00000010
,
00001000
00000001
00000100
00000010
,
00010000
00001000
00001000
00000000
00010000
00000000
00001000
00100000
,
00100000
00000000
01000000
00000000
00100000
00010000
00010000
00000000
,
10000000
00000000
00100000
01000000
01000000
00000000
00100000
00000000
,
10000000
01000000
01000000
00000000
00010000
00000000
01000000
00010000
,
00010000
00000000
00001000
00000000
00010000
00001000
00001000
00000000
,
00000010
00000000
00000100
00000010
00000010
00000000
00000001
00001000
,
00000010
00000100
00000010
00000000
00001000
00000000
00000100
00010000
,
00000100
00000000
00010000
00000000
00001000
01000000
00010000
00100000
,
00010000
00000000
10000000
01000000
00100000
00000000
00010000
00000000
,
10000000
00010000
10000000
00000000
00100000
10000000
00010000
01000000
,
00010000
00000000
01000000
00000000
00001000
00000000
00010000
00001000
,
00010000
00000010
00001000
00000000
00000100
00000000
00000010
00000001
,
00001000
00000010
00001000
00000000
00000100
00000000
00000010
00000001
,
00000010
00000000
00000100
00000000
00010000
00001000
00010000
00000000
,
00001000
01000000
00010000
10000000
00100000
00000000
01000000
00000000
,
00010000
10000000
01000000
00000000
10000000
01000000
00100000
00010000
,
00100000
00000000
00001000
00000000
00010000
00000010
00000100
00000000
,
00000010
00000000
00010000
00001000
00100000
00000000
01000000
00000000
,
10000000
01000000
00100000
00000000
00100000
00000000
00010000
00100000
,
00001000
00000000
00001000
00000000
00010000
00000010
00001000
00000000
,
00001000
00000000
00000000
00000000
00000002
00000000
00000000
00000000
00000000
00000000
00000000
00000000
00000000
00000000
00000000
00000003
;
