#TITLE:Foggy Dew;
#SUBTITLE:;
#ARTIST:Beltaine;
#TITLETRANSLIT:;
#SUBTITLETRANSLIT:;
#ARTISTTRANSLIT:;
#GENRE:;
#CREDIT:;
#BANNER:foggydew-bn.png;
#BACKGROUND:foggydew-bg.png;
#LYRICSPATH:;
#CDTITLE:;
#MUSIC:09.-.Foggy.Dew-Beltaine-Rockhill.2004(cut2).ogg;
#OFFSET:-0.520;
#SAMPLESTART:12.880;
#SAMPLELENGTH:12.000;
#SELECTABLE:YES;
#DISPLAYBPM:75.000:150.000;
#BPMS:0.000=150.000,127.000=132.000,127.250=120.000,127.500=112.000,127.750=104.000,128.000=96.000,128.250=88.000,128.500=80.000,129.000=78.000,130.000=76.500,131.000=75.000,188.000=72.000,189.000=67.000,190.000=62.000,191.000=47.000,192.000=57.400,193.000=55.500,194.000=51.500,195.000=150.000;
#STOPS:195.000=1.480
;
#TIMESIGNATURES:0.000=4=4
;
#BGCHANGES:;
#KEYSOUNDS:;

//---------------dance-single - Blank----------------
#NOTES:
     dance-single:
     Blank:
     Challenge:
     11:
     0.798,0.860,0.273,0.126,0.927,703.000,37.000,17.000,0.000,0.000,0.000,0.798,0.860,0.273,0.126,0.927,703.000,37.000,17.000,0.000,0.000,0.000:
1100
0000
0000
0100
1000
0000
0010
0000
0000
0010
0100
0000
0001
0000
0100
0001
,
1000
0000
0000
0100
0010
0000
0001
0000
0000
0001
0100
0000
0010
0100
0010
1000
,
0001
0000
0000
0010
0100
0000
0010
0000
0000
0001
0100
0000
0010
0100
0010
1000
,
0001
0000
0000
0001
0010
0000
0100
0000
1000
0100
1000
0100
0010
0001
0010
0001
,
1000
0000
1000
0100
0010
0100
1000
0000
0010
0000
0100
0001
0010
0001
0100
0000
,
0010
0000
1000
0001
0010
0100
0010
0000
0002
0000
0000
0000
0103
0000
0000
0000
,
1010
0000
0001
0100
0010
0100
0001
0000
0010
0000
0100
1000
0010
1000
0100
0000
,
0010
0000
0001
1000
0010
0100
0010
0000
2000
0000
0000
3000
1001
0000
0010
0000
,
0001
0000
0000
0001
0010
0000
0001
0100
0000
0001
0010
0000
0001
1000
0010
0000
,
0100
0000
0000
0001
0100
0000
0010
1000
0000
0100
1000
0000
0100
0000
0100
0010
,
0001
0000
0000
0001
0010
0000
0010
0100
1000
0000
0000
1000
0010
0000
0010
0100
,
0001
0000
0000
0010
0100
0000
0010
0001
0000
1000
0010
0000
1000
0100
1000
0000
,
0001
0000
0000
0100
0010
0100
0001
0000
0000
0001
0010
0100
1000
0000
0100
1000
,
0001
0000
0000
0100
0010
1000
0010
0000
0000
0100
0001
0010
0100
0010
0001
0000
,
1000
0000
0010
1000
0010
0000
0100
0001
0100
0000
0001
0010
0100
0000
0010
0001
,
1000
0000
0000
0100
0010
0001
0010
0000
0010
0001
0100
0001
1000
0000
1000
0100
,
0010
0000
0001
0010
0001
0000
1000
0000
0010
0100
0010
0000
0100
0001
1000
0000
,
0010
0000
0000
0100
0001
0000
0000
0001
0010
0000
0000
0100
1000
0000
0001
0100
,
0010
0000
1000
0001
1000
0000
0100
0010
0100
0000
1000
0010
0100
0000
0010
1000
,
0001
0000
0000
0010
0001
0000
0100
0010
0000
1000
0100
0000
0010
0000
0001
0100
,
0001
0000
1000
0010
1000
0001
1000
0000
0001
0010
0001
1000
0001
0000
0100
0010
,
1000
0000
0001
0100
0001
0010
0001
0000
1000
0100
1000
0010
1000
0001
0010
0100
,
0010
0000
0000
0100
1000
0001
1000
0000
0010
0000
0100
0001
0100
0010
1000
0000
,
0001
0010
0011
0011
1100
1100
0110
0110
,
1001
0000
1000
0100
0010
0100
1000
0000
0011
0000
0100
0010
0001
0010
0100
0000
,
1001
0000
0001
1000
0010
0100
0001
0000
0120
0000
0000
0000
1030
0000
0000
0000
,
1100
0000
0001
1000
0100
0010
0100
0000
1000
0000
0001
0010
0001
0100
0010
0000
,
1000
0000
0001
0100
0010
1000
0100
0000
0020
0000
0000
0000
0031
0000
0000
0000
,
0011
0000
1000
0010
0100
0010
1000
0000
0001
0010
0001
1000
0100
1000
0010
0100
,
0010
0000
0100
0001
0100
0010
1000
0000
0001
1000
0100
0010
0001
1000
0001
0100
,
0010
0000
0100
0001
0010
0001
0010
0000
0100
1000
0001
0010
0001
1000
0010
0100
,
0010
0000
1000
0100
1000
0010
1000
0001
0010
0001
0100
0001
2002
0000
0000
0000
,
0000
0000
0000
0000
0000
3003
0000
0000
,
1000
0100
0001
0100
0010
1000
0010
0001
,
1000
0010
0001
0010
0100
1000
0100
0001
,
1000
0100
0001
0100
1000
0010
0001
0010
,
1000
0100
0010
0001
0100
0010
0100
0001
,
0020
0000
0001
1000
0100
0030
0001
1000
,
0020
0000
0000
0000
0100
0000
0000
0000
0000
0000
0000
0000
1000
0000
0000
0000
0001
0000
0000
0000
0000
0000
0000
0000
0130
0000
0000
0000
0010
0000
1000
0001
,
0010
0000
0200
0000
1000
0000
0300
0000
0020
0000
0100
0030
0002
0000
0000
0003
,
0001
0100
1000
0100
0001
0010
1000
0010
,
1200
0000
0000
0000
0000
0000
0000
0000
0000
0000
0000
0000
0000
0000
0000
0000
0000
0000
0000
0000
0000
0000
0000
0000
0000
0000
0000
0000
0000
0000
0000
0000
0000
0000
0000
0000
0000
0000
0000
0000
0000
0000
0000
0000
0000
0000
0000
0000
0310
0000
0000
0000
0000
0000
0000
0000
0000
0000
0000
0000
0000
0000
0000
0000
0000
0000
0000
0000
0000
0000
0000
0000
1000
0000
0000
0000
0000
0000
0000
0000
0100
0000
0000
0000
0000
0000
0000
0000
0010
0000
0000
0000
0000
0000
0000
0000
0001
0000
0000
0000
0000
0000
0000
0000
0000
0000
0000
0000
0000
0000
0000
0000
0000
0000
0000
0000
0000
0000
0000
0000
0000
0000
0000
0000
0000
0000
0000
0000
0000
0000
0000
0000
0000
0000
0000
0000
0000
0000
0000
0000
0000
0000
0000
0000
1000
0000
0000
0000
0000
0000
0000
0000
0000
0000
0000
0000
0000
0000
0000
0000
0000
0000
0000
0000
0000
0000
0000
0000
0000
0000
0000
0000
0000
0000
0000
0000
0000
0000
0000
0000
0010
0000
0000
0000
0000
0000
0100
0000
0000
0000
0000
0000
,
0201
0000
0000
0000
0000
0000
0310
0000
0000
0100
0001
1000
0010
0000
0000
0000
0000
0000
1000
0000
0000
0100
0000
0000
,
1020
0000
0000
0000
0000
0000
0031
0000
0000
0010
0100
0001
1000
0100
0000
0000
0000
0000
0010
0000
0000
0100
0000
0000
,
2000
0000
0000
0000
0000
0000
0001
0000
0000
0000
0000
0000
0000
0000
0000
0000
0000
0000
0000
0000
0000
0000
0000
0000
0000
0000
0000
0000
0000
0000
0000
0000
0000
0000
0000
0000
0000
0000
0000
0000
0000
0000
0000
0000
0000
0000
0000
0000
3010
0000
0000
0000
0000
0000
0000
0000
0000
0000
0000
0000
0000
0000
0000
0000
0000
0000
0000
0000
0000
0000
0000
0000
0100
0000
0000
0000
0000
0000
0000
0000
0001
0000
0000
0000
0000
0000
0000
0000
0010
0000
0000
0000
0000
0000
0000
0000
0100
0000
0000
0000
0000
0000
0000
0000
0000
0000
0000
0000
0000
0000
0000
0000
0000
0000
0000
0000
0000
0000
0000
0000
0000
0000
0000
0000
0000
0000
0000
0000
0000
0000
0000
0000
0000
0000
0000
0000
0000
0000
0000
0000
0000
0000
0000
0000
0010
0000
0000
0000
0000
0000
0000
0000
0000
0000
0000
0000
0000
0000
0000
0000
0000
0000
0000
0000
0000
0000
0000
0000
0001
0000
0000
0000
0000
0000
0000
0000
0000
0000
0000
0000
0000
0000
0000
0000
0000
0000
0000
0000
0000
0000
0000
0000
,
1000
0000
0000
0010
0000
0000
0100
0000
0000
0001
0010
0100
1000
0000
0000
0100
0000
0000
0100
0000
0000
1000
0000
0000
,
0001
0010
0000
0000
0000
0000
0001
0000
0000
0100
0010
1000
0100
0000
0000
0100
0000
0000
0010
0000
0000
0100
0000
0000
,
1000
0000
0000
0000
0000
0000
0010
0100
0000
0100
0001
0010
0200
0010
0000
0000
0000
0000
0010
0000
0000
0300
0000
0000
,
0102
0000
0000
0000
1000
0000
0000
0000
0010
0000
0000
0003
0001
0000
0000
0000
,
0001
0000
0000
0000
1000
0000
0100
0000
1000
0000
0100
0000
0010
0000
0100
0000
1000
0100
1000
0000
0100
0000
0010
0000
0001
0000
0010
0000
0100
1000
0100
0000
,
1000
0000
0001
0000
0100
0000
0001
0000
0100
0000
0001
0000
0010
0000
0001
0000
0100
0001
0100
0000
0001
0000
0100
0000
0010
0000
1000
0000
0001
0100
0001
0000
,
1000
0000
0010
0000
0100
0000
0010
0000
0100
0000
0001
0000
1000
0000
0010
0000
0100
0001
0100
0000
0001
0000
0100
0000
0010
0000
1000
0000
0001
0100
0001
0000
,
1000
0000
0100
0000
0010
0000
0100
0000
0010
0000
0001
0000
1000
0000
0100
0000
0010
0100
0010
0000
0100
0000
0010
0000
0001
0000
1000
0000
0100
0010
0100
0000
,
1000
0000
0001
0000
0010
0000
0100
0000
0010
0000
0001
0000
1000
0000
0000
0000
0010
0100
0010
0000
0100
0000
0001
0000
0010
0000
0000
0000
0001
0010
0001
0000
,
1000
0000
0100
0000
0010
0000
0001
0000
0010
0000
0100
0000
1000
0000
0000
0000
0010
1000
0010
0000
1000
0000
0100
0000
0010
0000
0000
0000
0100
1000
0100
0000
,
1000
0000
0001
0000
0100
0000
0010
0000
1000
0000
0100
0000
0010
0000
0000
0000
0001
1000
0001
0000
0100
0000
0010
0000
1000
0000
0000
0000
0100
0000
1000
0000
,
0001
0000
0000
0000
0010
0000
0000
0000
0100
0000
0000
0000
0010
0000
0000
0000
0100
0000
0000
0000
1000
0000
0000
0000
0001
0000
0000
0100
0000
0000
0001
0000
0000
1000
0000
0000
0010
0000
0000
0000
0100
0000
0000
0000
0001
0000
0000
0000
1000
0000
0000
0001
0000
0000
0010
0000
0000
0100
0000
0000
0010
0000
0000
0000
,
0001
0100
0110
0001
1010
0100
0101
0010
,
1001
0000
1000
0100
0010
0001
0100
0000
0110
0000
0001
0000
0011
0000
1000
0100
,
0110
0000
1000
0010
0100
0001
1000
0001
0010
0000
0100
0010
0001
1000
0010
0100
,
0010
0000
0100
0001
0010
0100
0010
0001
1000
0010
0100
0000
0010
1000
0100
0010
,
0110
1000
0011
0001
0110
1000
0011
0100
,
1001
0000
0001
0100
0010
1000
0100
0000
0011
0000
0010
0000
1010
0000
0100
1000
,
1100
0000
0010
0001
1000
0001
0100
0010
0100
0000
0001
0100
0010
1000
0001
0010
,
0001
0000
0100
0001
0100
0010
1000
0000
0101
0000
0010
0000
1100
0000
0000
0000
;

//---------------dance-single - Blank----------------
#NOTES:
     dance-single:
     Blank:
     Hard:
     9:
     0.551,0.526,0.140,0.066,0.362,494.000,19.000,9.000,0.000,0.000,0.000,0.551,0.526,0.140,0.066,0.362,494.000,19.000,9.000,0.000,0.000,0.000:
1000
0000
0000
0100
0000
0000
0011
0000
0000
0000
1000
0000
0010
0000
0100
0000
,
0001
0000
0000
0100
0000
0000
1010
0000
0000
0000
0100
0000
0001
0000
0010
0000
,
0100
0000
0000
1000
0000
0000
0110
0000
0000
0000
0001
0000
0100
0000
0010
0000
,
1000
0000
0000
0001
0000
0000
0100
0000
0010
0000
1000
0000
0100
0000
0010
0000
,
0011
0000
1000
0100
1100
0000
0010
0001
,
0101
0000
0001
1000
1010
0000
0100
0000
,
0011
0000
0001
0100
0110
0000
1000
0100
,
0011
0000
1000
0001
0010
0000
0001
0001
,
1000
0000
0000
0100
1000
0000
1000
0001
0000
0001
0010
0000
0010
0000
0001
0000
,
0100
0000
0000
0010
0100
0000
0100
0001
0000
0001
1000
0000
1000
0000
0100
0000
,
0010
0000
0000
0000
0001
0000
0010
0001
1000
0000
0000
0000
0100
0000
0100
1000
,
0001
0000
0000
0100
0001
0000
0001
1000
0000
1000
0010
0000
0010
0000
1000
0000
,
0001
0000
0000
0010
0100
0000
1000
0000
0000
0100
0010
0000
0100
0000
1000
0000
,
0010
0000
0000
0100
0001
0000
0100
0000
0000
0001
1000
0000
0010
0000
0100
0000
,
0001
0000
0000
0010
0001
0000
0000
0001
1000
0000
0000
1000
0010
0000
0100
0000
,
0001
0000
0000
0001
0100
0000
0100
0001
0000
0001
0010
0000
0010
0000
0100
0000
,
1000
0000
0100
1000
0100
0000
0010
0000
0100
0010
0100
0000
0010
0000
0001
0000
,
0100
0000
0000
0100
0001
0000
0000
0001
0010
0000
0000
0100
1000
0000
0001
0000
,
0100
0000
0000
0000
0001
0000
1000
0001
1000
0000
0000
0000
0100
0000
0010
0001
,
0010
0000
0000
0010
0100
0000
0100
1000
0000
1000
0010
0000
0010
0000
0100
0000
,
0001
0000
0000
0010
0001
0000
0010
0000
0000
0100
1000
0000
0100
0000
1000
0000
,
0010
0000
0000
0100
0001
0000
1000
0000
0000
0010
1000
0000
0010
0000
0100
0000
,
0001
0000
0000
0010
0001
0010
0001
0000
1000
0000
0000
0100
1000
0100
1000
0000
,
0001
1000
0010
0010
0100
0100
0001
0001
,
1000
0000
0000
0100
1000
0000
0010
0000
0000
0010
0100
0000
0001
0000
0001
0000
,
1000
0000
0000
0100
0010
0000
0001
0000
0000
0001
0100
0000
0010
0000
0010
0000
,
1000
0000
0000
0001
0100
0000
0010
0000
0000
1000
0100
0000
0010
0000
0010
0000
,
0001
0000
0000
0010
0001
0000
0100
0000
0001
1000
0001
0000
0001
1000
0001
0000
,
1000
0010
0010
1000
0001
0010
0010
0001
,
1000
0100
0010
0001
0100
0010
1000
0000
,
0001
0100
0100
0001
0010
0100
0100
0010
,
0001
1000
0010
0100
0001
0000
2002
0000
,
0000
0000
0000
0000
0000
3003
0010
0001
,
0100
0000
1000
0000
0100
0000
0001
1000
,
0100
0010
0000
1000
0010
0000
0001
1000
,
0010
0000
0000
0000
0000
0000
0100
0010
0100
0000
0000
0000
0001
0000
0000
0000
0000
0000
0010
0000
0000
0001
0000
0000
,
1000
0000
0100
0010
1000
0000
0010
0001
,
2000
0000
0100
0000
0001
3000
0010
0100
,
0002
0000
0000
0000
0000
0000
0000
0000
1000
0000
0000
0000
0000
0000
0000
0000
0100
0000
0000
0000
0003
0000
0000
0000
0010
0000
0000
0000
0000
0000
0100
1000
,
0200
0000
0000
0000
0000
0000
0300
0000
2000
0000
0000
3000
0020
0000
0000
0030
,
0002
0000
0000
0000
0000
0003
1000
0100
,
0001
0000
1000
0100
0010
0000
0001
0000
,
0100
0001
1000
0000
0010
0000
0100
0001
,
1100
0000
0010
0000
0001
1000
0010
0000
,
0011
0100
0010
0001
0100
0001
1000
0000
,
0001
0100
1000
0000
0100
0010
0100
0001
,
0010
0100
0001
0000
0100
1000
0001
1000
,
0010
0000
0000
0000
0000
0000
0100
0001
0000
0000
0000
0000
1000
0100
0000
0000
0000
0000
0010
0000
0000
0000
0000
0000
,
1002
0000
0000
0000
0100
0000
0000
0000
0010
0000
0000
0003
0001
0000
0000
0000
,
0001
0000
1000
0100
1000
0000
0010
0000
0100
0001
0100
0000
0010
0000
0100
0001
,
1000
0000
0001
0010
0001
0000
1000
0000
0010
0100
0010
0000
0100
0000
0001
1000
,
0100
0000
1000
0001
1000
0000
0100
0000
0010
0001
0010
0000
0100
0000
0010
0001
,
1000
0000
0001
0010
0001
0000
0100
0000
0010
1000
0010
0000
0100
0000
0010
1000
,
0001
0000
0000
0010
0001
0000
0100
0000
0010
0100
0001
0000
1000
0000
0100
1000
,
0100
0000
0000
0010
0001
0000
1000
0000
0010
0100
0010
0000
1000
0000
0100
0010
,
0001
0000
0000
1000
0010
0000
0100
0000
0001
0100
0001
0000
1000
0000
0001
0100
,
0010
0000
0000
1000
0100
0000
1000
0000
0001
0010
0100
0000
0010
0000
0001
1000
,
0001
0100
0110
0001
1000
0010
0110
1000
,
0001
0000
0010
0001
0010
0001
1000
0000
0100
0000
0000
0000
1000
0000
0000
0000
,
0010
0000
0100
0001
0100
0010
0100
0000
0010
0000
1000
0001
0100
0001
0100
0000
,
0010
0000
1000
0001
0100
0010
0100
0000
0001
0000
0000
0000
0001
0000
0000
0000
,
1000
0100
0011
0010
0001
1000
0110
0100
,
1000
0000
0001
0010
0100
0010
0001
0000
1000
0000
0000
0000
0001
0000
0000
0000
,
0100
0000
0010
1000
0010
0100
0010
0000
0100
0000
0001
0100
0001
0100
0010
0000
,
1000
0000
0001
0100
0001
1000
0010
0000
1000
0000
0000
0000
1100
0000
0000
0000
;

//---------------dance-single - Blank----------------
#NOTES:
     dance-single:
     Blank:
     Medium:
     7:
     0.394,0.382,0.074,0.081,0.162,353.000,10.000,11.000,0.000,0.000,0.000,0.394,0.382,0.074,0.081,0.162,353.000,10.000,11.000,0.000,0.000,0.000:
1000
0000
0000
0100
0000
0000
0010
0000
0000
0000
0001
0000
0010
0000
0000
0000
,
0001
0000
0000
0100
0000
0000
0010
0000
0000
0000
0010
0000
1000
0000
0000
0000
,
0100
0000
0000
1000
0000
0000
0001
0000
0000
0000
0100
0000
0001
0000
0000
0000
,
1000
0000
0000
0010
0000
0000
0100
0000
0010
0000
0000
0000
0110
0000
0000
0000
,
0001
0000
0000
0010
0000
0000
0001
0000
1000
0000
0000
0000
0010
0000
0000
0000
,
0100
0000
0000
0010
0000
0000
1000
0000
0001
0000
0000
0000
1000
0000
0000
0000
,
0100
0000
0000
0010
0000
0000
0001
0000
0010
0000
0000
0000
0100
0000
0000
0000
,
1000
0000
0000
0010
0000
0000
0100
0000
0001
0000
0000
0000
0101
0000
0000
0000
,
1000
0000
0000
0100
0000
0000
0010
0000
0000
0001
0000
0000
0010
0000
0001
0000
,
0100
0000
0000
0010
0000
0000
0100
0000
0000
0001
0000
0000
0100
0000
0010
0000
,
1000
0100
0010
0100
,
1000
0000
0000
0010
0000
0000
0100
0000
0000
0001
0000
0000
0100
0000
0010
0000
,
1000
0000
0000
0001
0000
0000
0010
0000
0000
0100
0000
0000
1000
0000
0001
0000
,
0100
0000
0000
0010
0000
0000
1000
0000
0000
0001
0000
0000
0100
0000
0001
0000
,
0010
0100
1000
0100
,
0010
0000
0000
0001
0000
0000
0100
0000
0000
0001
0000
0000
1000
0000
0100
0000
,
0010
0000
0000
0100
0000
0000
1000
0000
0000
0010
0000
0000
1000
0000
0001
0000
,
0100
0000
0100
0010
1000
0000
1000
0100
,
0010
0000
0100
1000
0010
0000
0010
0100
,
0001
0000
0000
1000
0000
0000
0100
0000
0000
1000
0000
0000
0010
0000
0100
0000
,
0001
0000
0000
0100
0000
0000
1000
0000
0000
0100
0000
0000
0001
0000
1000
0000
,
0100
0000
0000
0010
0000
0000
0100
0000
0000
0001
0000
0000
0100
0000
1000
0000
,
0001
0000
0001
0100
0010
0000
0100
0000
,
0001
1000
0001
0001
1000
1000
0001
1000
,
0010
0000
0100
0001
1000
0000
0100
1000
,
0001
0000
0010
0100
0010
0000
0001
0000
,
0100
0010
0100
0000
0001
0100
0001
0000
,
1000
0100
1000
0000
0001
0000
0011
0000
,
1000
0001
0100
0000
0010
1000
0100
0000
,
1000
0001
0010
0000
0110
0000
0001
0000
,
1000
0010
1000
0000
0100
0010
0100
0000
,
0010
0001
0100
0000
0010
0000
2002
0000
,
0000
0000
0000
0000
0000
3003
0010
0001
,
1000
0000
0010
0000
0100
0000
0010
1000
,
0100
0010
0000
0002
0000
0000
0003
1000
,
0010
0100
0000
0001
,
2000
0000
0000
0000
0000
3000
0100
0000
,
0010
0000
0001
0100
0000
0000
0010
0000
,
1000
0100
0000
2000
0000
3000
0100
0010
,
0001
0200
0000
0000
0300
0000
0010
1000
,
0002
0000
0000
0000
0000
0003
1000
0100
,
0001
0000
0100
0010
0000
0000
0001
0000
,
0100
0000
0010
1000
0000
0000
0001
0100
,
1000
0000
0100
0000
0001
0000
0000
0001
,
0020
0000
0000
0000
0000
0030
0001
0000
,
0010
0000
1000
0010
0000
0000
0000
0001
,
0100
0000
0000
0020
0000
0000
0030
1000
,
0001
0000
0010
0000
0200
0000
0000
0300
,
0002
0000
0000
0003
,
0001
0000
0000
1000
0100
0000
1000
0000
0000
0001
0010
0000
0001
0000
1000
0000
,
0001
0000
0000
0100
0001
0000
1000
0000
0000
0010
1000
0000
0010
0000
0100
0000
,
0001
0000
0000
0100
0010
0000
1000
0000
0000
0010
1000
0000
0010
0000
0100
0000
,
0001
0000
0000
0010
0001
0000
1000
0000
0000
0100
0010
0000
0100
0000
1000
0000
,
0001
0000
0000
0010
0100
0000
0010
0000
0000
0001
0010
0000
0001
0000
0100
0000
,
0010
0000
0000
1000
0001
0000
0100
0000
0000
0010
1000
0000
0100
0000
1000
0000
,
0001
0000
0000
0010
0100
0000
0010
0000
0000
0001
1000
0000
0001
0000
0100
0000
,
0010
0000
0000
0100
0001
0000
1000
0000
0000
0010
0100
0000
0010
0000
1000
0000
,
0100
0010
0011
0000
0010
0100
1100
0000
,
0001
1000
0100
0010
0001
1000
0001
0000
,
0100
0010
1000
1000
0001
0100
0010
0010
,
1000
0001
0100
0010
1000
0000
0001
0000
,
0010
0001
1001
0000
1000
0100
0110
0000
,
1000
0001
0100
0001
1000
0010
0100
0000
,
0001
1000
0100
0100
1000
0001
0010
0010
,
0001
1000
0100
1000
0001
0000
0110
0000
;

//---------------dance-single - Blank----------------
#NOTES:
     dance-single:
     Blank:
     Easy:
     4:
     0.264,0.263,0.133,0.133,0.015,214.000,18.000,18.000,0.000,0.000,0.000,0.264,0.263,0.133,0.133,0.015,214.000,18.000,18.000,0.000,0.000,0.000:
1000
0100
1000
0100
,
0010
0001
0010
0010
,
0001
0100
0001
0100
,
0010
1000
0001
0001
,
1000
0100
0010
0010
,
0001
1000
0010
0010
,
0100
0001
0100
0010
,
1000
0001
0010
0001
,
1000
0000
0000
0100
0000
0000
1000
0000
,
0010
0000
0000
0100
0000
0000
0010
0000
,
1000
0000
0100
0000
,
0010
0000
0000
0010
0000
0000
0001
0000
,
1000
0000
0000
0010
0000
0000
1000
0000
,
0001
0000
0000
0010
0000
0000
0001
0000
,
0100
0000
0010
0000
,
1000
0000
0000
0100
0000
0000
0010
0000
,
0001
0000
0000
0001
0000
0000
1000
0000
,
0010
0000
0100
0000
,
1000
0000
0100
0000
,
0001
0000
0000
0001
0000
0000
0010
0000
,
0100
0000
0000
0010
0000
0000
0001
0000
,
1000
0000
0000
0010
0000
0000
0100
0000
,
0010
0000
1000
0000
,
0001
0010
0001
0001
,
0110
0000
1001
0000
,
1100
0000
0010
0100
,
1001
0000
0101
0000
,
0110
0000
0001
1000
,
1100
0000
0110
0000
,
1001
0000
1000
0001
,
0101
0000
1001
0000
,
0110
0000
0001
2002
,
0000
0000
0000
0000
0000
3003
0000
0000
,
1000
0100
0001
0100
,
1000
0010
0001
0010
,
1000
0100
0010
0001
,
1000
0010
0100
0001
,
0020
0000
0000
0000
0000
0030
0001
0000
,
0200
0000
0000
0000
0000
0300
0010
0000
,
2000
0000
0000
3000
0100
0000
0010
0000
,
0002
0000
0000
0003
,
0200
0000
0000
0300
0002
0000
0000
0003
,
0010
0000
0100
0000
2000
0000
0000
3000
,
0020
0000
0000
0030
0200
0000
0300
0001
,
0020
0000
0000
0000
0000
0030
0100
0000
,
2000
0000
0000
3000
0020
0000
0000
0030
,
0200
0000
0000
0000
0000
0300
0010
1000
,
0002
0000
0000
0003
0020
0000
0000
0030
,
2000
0000
0000
3000
,
0001
0000
1000
0100
0000
1000
0001
0000
,
0010
0000
0001
1000
0000
0001
0010
0000
,
0001
0000
0100
0010
0000
1000
0010
0000
,
0100
0000
0001
1000
0000
0010
1000
0000
,
0001
0000
0000
0010
0000
0000
0001
0000
0000
0000
0000
0000
1000
0000
0000
0000
,
0100
0000
0000
0010
0000
0000
0100
0000
0000
0000
0000
0000
1000
0000
0000
0000
,
0001
0000
0000
1000
0000
0000
0010
0000
0000
0000
0000
0000
0100
0000
0000
0000
,
0010
0000
0000
1000
0000
0000
0001
0000
0000
0000
0000
0000
0010
0000
0000
0000
,
0001
0110
1000
0110
,
0001
1000
0001
0000
1000
0000
0010
0000
,
0100
0001
0100
0000
0001
1000
0001
0000
,
1000
0100
1000
0000
0001
0000
0001
0000
,
0010
1001
0100
1001
,
1000
0000
0010
1000
0001
0000
0100
0000
,
0010
1000
0010
0000
0100
0001
1000
0000
,
0001
0010
0001
0000
1000
0000
0110
0000
;

//---------------dance-single - Blank----------------
#NOTES:
     dance-single:
     Blank:
     Beginner:
     2:
     0.137,0.167,0.037,0.000,0.000,125.000,5.000,0.000,0.000,0.000,0.000,0.137,0.167,0.037,0.000,0.000,125.000,5.000,0.000,0.000,0.000,0.000:
0001
0000
1000
0000
,
0001
0000
1000
0000
,
0100
0000
1000
0000
,
0100
0000
0010
0010
,
0010
0000
0001
0000
,
0010
0000
0001
0000
,
0100
0000
0010
0000
,
0100
0000
0010
0010
,
0010
0000
0000
1000
,
1000
0000
0000
0001
,
0001
0000
1000
0000
,
0001
0000
0000
0010
,
0010
0000
0000
0001
,
0001
0000
0000
1000
,
1000
0000
0010
0000
,
0100
0000
0000
0100
,
0100
0000
0000
1000
,
1000
0000
0100
0000
,
0001
0000
0100
0000
,
0001
0000
0000
0001
,
0001
0000
0000
0010
,
0010
0000
0000
0001
,
0001
0000
1000
0000
,
0001
0001
0001
0001
,
0001
0000
1000
0000
,
0010
0000
1000
0000
,
0100
0000
1000
0000
,
0001
0000
1000
1000
,
1000
0000
0001
0000
,
0100
0000
0001
0000
,
0010
0000
0001
0000
,
0100
0000
0010
0010
,
0000
0000
0000
0000
,
0001
0000
0000
0000
,
0100
0000
0000
0000
,
0010
0000
1000
0000
,
0100
0000
0000
0000
,
0100
0000
0000
0000
,
0010
0000
0000
0000
,
0001
0000
0100
0000
,
1000
0000
0000
0000
,
0001
0000
0010
0000
,
0100
0000
0010
0000
,
0001
0000
0100
0000
,
1000
0000
0100
0000
,
0010
0000
1000
0000
,
0100
0000
0001
0000
,
0100
0000
1000
0000
,
0001
0000
0000
0000
,
0001
0000
0000
0000
,
0100
0000
0000
0000
,
1000
0000
0000
0000
,
0010
0000
0000
0000
,
0001
0000
0000
0010
,
0010
0000
0000
1000
,
1000
0000
0000
0100
,
0100
0000
0100
0000
,
0000
1001
0000
1001
,
0000
0001
0001
0000
,
0100
0000
0010
0000
,
0100
0000
1000
1000
,
0000
0110
0000
0110
,
0000
0001
0001
0000
,
0010
0000
0100
0000
,
0010
0010
0000
1001
;

//---------------dance-double - Blank----------------
#NOTES:
     dance-double:
     Blank:
     Challenge:
     10:
     0.719,0.765,0.089,0.066,0.794,661.000,12.000,9.000,0.000,0.000,0.000,0.719,0.765,0.089,0.066,0.794,661.000,12.000,9.000,0.000,0.000,0.000: // measure 1
11000000
00000000
00000000
01000000
10000000
00000000
00100000
00000000
00000000
00100000
01000000
00000000
00010000
00000000
01000000
00001000
,  // measure 2
00010000
00000000
00000000
00000100
00000010
00000000
00000001
00000000
00000000
00000001
00000100
00000000
00000010
00001000
00000010
00010000
,  // measure 3
00001000
00000000
00000000
00100000
01000000
00000000
00100000
00000000
00000000
00001000
01000000
00000000
00010000
10000000
01000000
00100000
,  // measure 4
01000000
00000000
00000000
00100000
00001000
00000000
00010000
00000000
00000100
00001000
00000100
00001000
00000001
00000010
00000001
00000010
,  // measure 5
00000001
00000000
00000000
00000100
00000010
00000000
00010000
00000000
00000000
00000100
00000010
00000000
00000100
00000000
00010000
00001000
,  // measure 6
01000000
00000000
00000000
00100000
00010000
00000000
00001000
00000000
00000000
01000000
00010000
00000000
10000000
00100000
10000000
00010000
,  // measure 7
00100000
00000000
00000000
01000000
00100000
00000000
00001000
00000000
00000000
00000010
00000100
00000000
00001000
00000001
00000010
00000100
,  // measure 8
00000010
00000000
00000000
00000001
00000100
00000000
00001000
00000000
00000200
00000000
00000000
00000300
00000110
00000000
00000001
00000000
,  // measure 9
00001000
00000000
00000000
00000100
00010000
00000000
00000100
00001000
00000000
00000100
00000010
00000000
00000100
00000000
00000001
00000100
,  // measure 10
00000010
00000000
00000000
00001000
00010000
00000000
00001000
00100000
00000000
00001000
01000000
00000000
00001000
00000000
00010000
00001000
,  // measure 11
00000100
00000000
00000000
00000100
00000010
00000000
00010000
00001000
00100000
00000000
00000000
00100000
00010000
00000000
00010000
10000000
,  // measure 12
00100000
00000000
00000000
01000000
00001000
00000000
01000000
00010000
00000000
01000000
00100000
00000000
01000000
10000000
01000000
00000000
,  // measure 13
00010000
00000000
00000000
10000000
00010000
10000000
01000000
00000000
00000000
00010000
00001000
00010000
00000100
00000000
00001000
00000001
,  // measure 14
00000010
00000000
00000000
00000001
00001000
00000001
00000100
00000000
00000000
00001000
00010000
00001000
01000000
00010000
01000000
00000000
,  // measure 15
00100000
00000000
10000000
00010000
10000000
00000000
00010000
00100000
00001000
00000000
00100000
00001000
00010000
00000000
00000010
00000100
,  // measure 16
00000010
00000000
00000000
00000100
00000001
00000100
00000010
00000000
00000010
00001000
00000001
00001000
00000100
00000000
00001000
00000100
,  // measure 17
00010000
00000000
00001000
01000000
00001000
00000000
00100000
00000000
00010000
10000000
00010000
00000000
10000000
01000000
00100000
00000000
,  // measure 18
00001000
00000000
00000000
00001000
00000010
00000000
00000000
00000010
00000001
00000000
00000000
00000001
00000100
00000000
00000010
00001000
,  // measure 19
00000100
00000000
00000010
00000001
00000010
00000000
00000100
00001000
00000100
00000000
00010000
00000010
00010000
00000000
00001000
01000000
,  // measure 20
00010000
00000000
00000000
10000000
00100000
00000000
01000000
00100000
00000000
00010000
00100000
00000000
01000000
00000000
00100000
10000000
,  // measure 21
00010000
00000000
10000000
01000000
10000000
00010000
00100000
00000000
00010000
00100000
00001000
01000000
00001000
00000000
00010000
00000010
,  // measure 22
00001000
00000000
00000010
00001000
00000100
00001000
00000001
00000000
00000010
00000001
00000010
00000100
00001000
00000001
00000100
00000001
,  // measure 23
00001000
00000000
00000000
00000100
00010000
00001000
01000000
00000000
00010000
00000000
00100000
00001000
00010000
00000010
00001000
00000000
,  // measure 24
00000001
00000010
00001000
00001000
00100000
00100000
01000000
01000000
,  // measure 25
10000000
00000000
00010000
00100000
00001000
00100000
00010000
00000000
01000000
00000000
00001000
00010000
00000010
00010000
00001000
00000000
,  // measure 26
00010000
00000000
00000100
00001000
00000100
00000010
00000100
00000000
00001000
00000000
00000000
00000000
00000001
00000000
00000000
00000000
,  // measure 27
00000100
00000000
00000100
00000001
00001000
00000001
00000100
00000000
00000010
00000000
00010000
00001000
00100000
00001000
00010000
00000000
,  // measure 28
00001000
00000000
01000000
00010000
01000000
00100000
01000000
00000000
00010000
00000000
00000000
00000000
00100000
00000000
00000000
00000000
,  // measure 29
10010000
00000000
10000000
00010000
01000000
00001000
00010000
00000000
00001000
00000000
00010000
00000010
00001000
00000001
00001000
00000000
,  // measure 30
00000001
00000000
00000010
00000100
00000010
00000001
00001000
00000000
00000010
00000000
00000000
00000000
00010000
00000000
00000000
00000000
,  // measure 31
00000100
00000000
00010000
00001000
01000000
00010000
01000000
00000000
00001000
00000000
00010000
00000010
00001000
00000010
00010000
00000000
,  // measure 32
00000100
00000000
00010000
00001000
00100000
00010000
00100000
00000000
01000000
00000000
00000000
00000000
20020000
00000000
00000000
00000000
,  // measure 33
00000000
00000000
00000000
00000000
00000000
30030000
00000000
00000000
,  // measure 34
10000000
00100000
00001000
00000010
00001000
00100000
00001000
00000010
,  // measure 35
00100000
00001000
00000100
00000010
00000100
00001000
00000100
00000010
,  // measure 36
01000000
00100000
00010000
00001000
00100000
01000000
00010000
00001000
,  // measure 37
10000000
01000000
00001000
00000100
00001000
01000000
00001000
00000100
,  // measure 38
00010000
00001000
00000100
00000010
00000100
00001000
00000100
00000010
,  // measure 39
00100000
01000000
00010000
00001000
00010000
01000000
00010000
00001000
,  // measure 40
10000000
00100000
00010000
00000100
01000000
00010000
00100000
00000000
,  // measure 41
10000000
00010000
00001000
00000100
00001000
00010000
00001000
00000100
,  // measure 42
00001002
00000000
00000000
00000000
00000000
00000000
00000000
00000000
00000000
00000000
00000000
00000000
00000000
00000000
00000000
00000000
00000000
00000000
00000000
00000000
00000000
00000000
00000000
00000000
00000000
00000000
00000000
00000000
00000000
00000000
00000000
00000000
00000000
00000000
00000000
00000000
00000000
00000000
00000000
00000000
00000000
00000000
00000000
00000000
00000000
00000000
00000000
00000000
00000013
00000000
00000000
00000000
00000000
00000000
00000000
00000000
00000000
00000000
00000000
00000000
00000000
00000000
00000000
00000000
00000000
00000000
00000000
00000000
00000000
00000000
00000000
00000000
00001000
00000000
00000000
00000000
00000000
00000000
00000000
00000000
00000100
00000000
00000000
00000000
00000000
00000000
00000000
00000000
00000010
00000000
00000000
00000000
00000000
00000000
00000000
00000000
00000001
00000000
00000000
00000000
00000000
00000000
00000000
00000000
00000000
00000000
00000000
00000000
00000000
00000000
00000000
00000000
00000000
00000000
00000000
00000000
00000000
00000000
00000000
00000000
00000000
00000000
00000000
00000000
00000000
00000000
00000000
00000000
00000000
00000000
00000000
00000000
00000000
00000000
00000000
00000000
00000000
00000000
00000000
00000000
00000000
00000000
00000000
00000000
00000010
00000000
00000000
00000000
00000000
00000000
00000000
00000000
00000000
00000000
00000000
00000000
00000000
00000000
00000000
00000000
00000000
00000000
00000000
00000000
00000000
00000000
00000000
00000000
00000000
00000000
00000000
00000000
00000000
00000000
00000000
00000000
00000000
00000000
00000000
00000000
00001000
00000000
00000000
00000000
00000000
00000000
00010000
00000000
00000000
00000000
00000000
00000000
,  // measure 43
00002000
00000000
00000000
00000000
00000000
00000000
00000000
00000000
00000000
00003000
00000000
00000000
00100000
00000000
00000000
00000000
00000000
00000000
00010000
00000000
00100000
00000000
01000000
00000000
10000000
00000000
00000000
00000000
00000000
00000000
00000000
00000000
00000000
00000000
00000000
00000000
00100000
00000000
00000000
00000000
00000000
00000000
01000000
00000000
00000000
00000000
00000000
00000000
,  // measure 44
00021000
00000000
00000000
00000000
00000000
00000000
00030100
00000000
00000000
00001000
00000100
00010000
00000010
00001000
00000000
00000000
00000000
00000000
00000001
00000000
00000000
00000010
00000000
00000000
,  // measure 45
00002000
00000000
00000000
00000000
00000000
00000000
00000001
00000000
00000000
00000000
00000000
00000000
00000000
00000000
00000000
00000000
00000000
00000000
00000000
00000000
00000000
00000000
00000000
00000000
00000000
00000000
00000000
00000000
00000000
00000000
00000000
00000000
00000000
00000000
00000000
00000000
00000000
00000000
00000000
00000000
00000000
00000000
00000000
00000000
00000000
00000000
00000000
00000000
00003010
00000000
00000000
00000000
00000000
00000000
00000000
00000000
00000000
00000000
00000000
00000000
00000000
00000000
00000000
00000000
00000000
00000000
00000000
00000000
00000000
00000000
00000000
00000000
00000100
00000000
00000000
00000000
00000000
00000000
00000000
00000000
00000001
00000000
00000000
00000000
00000000
00000000
00000000
00000000
00000010
00000000
00000000
00000000
00000000
00000000
00000000
00000000
00000001
00000000
00000000
00000000
00000000
00000000
00000000
00000000
00000000
00000000
00000000
00000000
00000000
00000000
00000000
00000000
00000000
00000000
00000000
00000000
00000000
00000000
00000000
00000000
00000000
00000000
00000000
00000000
00000000
00000000
00000000
00000000
00000000
00000000
00000000
00000000
00000000
00000000
00000000
00000000
00000000
00000000
00000000
00000000
00000000
00000000
00000000
00000000
00000010
00000000
00000000
00000000
00000000
00000000
00000000
00000000
00000000
00000000
00000000
00000000
00000000
00000000
00000000
00000000
00000000
00000000
00000000
00000000
00000000
00000000
00000000
00000000
00001000
00000000
00000000
00000000
00000000
00000000
00000000
00000000
00000000
00000000
00000000
00000000
00000000
00000000
00000000
00000000
00000000
00000000
00000000
00000000
00000000
00000000
00000000
00000000
,  // measure 46
00010000
00000000
00000000
00001000
00000000
00000000
00000100
00000000
00000000
00000010
00001000
00000010
00010000
00000000
00000000
00001000
00000000
00000000
00001000
00000000
00000000
00010000
00000000
00000000
,  // measure 47
01000000
00100000
00000000
00000000
00000000
00000000
00010000
00000000
00000000
10000000
00010000
00100000
00001000
00000000
00000000
00001000
00000000
00000000
00010000
00000000
00000000
00100000
00000000
00000000
,  // measure 48
00010000
00000000
00000000
00000000
00000000
00000000
00000100
00000010
00000000
00000010
00000001
00000100
00000020
00001000
00000000
00000000
00000000
00000000
00000100
00000000
00000000
00000030
00000000
00000000
,  // measure 49
00012000
00100000
00010000
00003010
,  // measure 50
00000001
00000000
00001000
00000100
00001000
00000100
00000010
00000100
00001000
00000001
00001000
00000001
00000100
00000010
00001000
00000010
,  // measure 51
00010000
00001000
00100000
00001000
00100000
00001000
01000000
00010000
00100000
00010000
00100000
00010000
10000000
01000000
00100000
01000000
,  // measure 52
10000000
00010000
01000000
00010000
01000000
00010000
00100000
00001000
00010000
00001000
00010000
00000010
00001000
00000010
00000100
00000010
,  // measure 53
00001000
00000001
00000010
00000001
00000010
00000001
00000100
00000010
00001000
00000010
00001000
00000001
00000010
00000100
00001000
00000100
,  // measure 54
00010000
00001000
00010000
00000010
00001000
00000010
00010000
00000000
00001000
01000000
00010000
01000000
00100000
00000000
01000000
00010000
,  // measure 55
10000000
00100000
10000000
00010000
01000000
00010000
00100000
00000000
01000000
10000000
01000000
00100000
00010000
00000000
00100000
00001000
,  // measure 56
00010000
00000100
00010000
00000010
00001000
00000010
00000100
00000000
00000001
00000100
00000001
00001000
00000010
00000000
00010000
00000100
,  // measure 57
00001000
00000000
00000000
00000000
00000010
00000000
00000000
00000000
00001000
00000000
00000000
00000000
00000001
00000000
00000000
00000000
00000100
00000000
00000000
00000000
00000001
00000000
00000000
00000000
00000010
00000000
00000000
00000001
00000000
00000000
00000010
00000000
00000000
00000100
00000000
00000000
00001000
00000000
00000000
00000000
00000100
00000000
00000000
00000000
00010000
00000000
00000000
00000000
00001000
00000000
00000000
00010000
00000000
00000000
00001000
00000000
00000000
00100000
00000000
00000000
00010000
00000000
00000000
00000000
,  // measure 58
00100000
00001000
00011000
00000010
00001000
00000100
00011000
01000000
,  // measure 59
00100000
00000000
10000000
00100000
01000000
00001000
00010000
00000000
00001000
00000000
00000100
00000000
00001000
00000000
00000000
00000000
,  // measure 60
00100000
00000000
01000000
00100000
00010000
00100000
00001000
00000000
00010000
00000000
01000000
00010000
00001000
00010000
00000100
00000000
,  // measure 61
00010000
00000000
00001000
00010000
00001000
00000100
00000010
00000000
00000100
00000000
00000001
00000000
00000010
00000000
00001000
00000000
,  // measure 62
00000010
00000100
00011000
00010000
00001000
01000000
00011000
00001000
,  // measure 63
00100000
00000000
01000000
00100000
00010000
01000000
00100000
00000000
10000000
00000000
00100000
00000000
00010000
00000000
00000000
00000000
,  // measure 64
00001000
00000000
00010000
00000010
00001000
00000010
00000100
00000000
00000001
00000000
00000100
00000010
00000001
00000010
00000100
00000000
,  // measure 65
00000001
00000000
00001000
00000100
00000010
00000100
00000001
00000000
00000100
00000000
00000000
00000000
00011000
00000000
00000000
00000000
;

//---------------dance-double - Blank----------------
#NOTES:
     dance-double:
     Blank:
     Hard:
     9:
     0.522,0.478,0.052,0.037,0.314,483.000,7.000,5.000,0.000,0.000,0.000,0.522,0.478,0.052,0.037,0.314,483.000,7.000,5.000,0.000,0.000,0.000: // measure 1
00001000
00000000
00000000
00100000
00000000
00000000
00011000
00000000
00000000
00000000
01000000
00000000
00001000
00000000
00010000
00000000
,  // measure 2
00000100
00000000
00000000
00000010
00000000
00000000
00011000
00000000
00000000
00000000
00000100
00000000
00001000
00000000
00000010
00000000
,  // measure 3
00010000
00000000
00000000
00001000
00000000
00000000
01100000
00000000
00000000
00000000
00010000
00000000
00100000
00000000
01000000
00000000
,  // measure 4
00100000
00000000
00000000
00001000
00000000
00000000
01000000
00000000
00001000
00000000
00010000
00000000
00000010
00000000
00000100
00000000
,  // measure 5
00000010
00000000
00000000
00001000
00000000
00000000
00000001
00000000
00000010
00000100
00000000
00000000
00000010
00000000
00000001
00000000
,  // measure 6
00001000
00000000
00000000
00000010
00000000
00000000
00010000
00000000
00001000
00010000
00000000
00000000
01000000
00000000
00100000
00000000
,  // measure 7
00010000
00000000
00000000
10000000
00000000
00000000
00100000
00000000
01000000
00010000
00000000
00000000
01000000
00000000
00100000
00000000
,  // measure 8
00010000
00000000
00000000
00001000
00000000
00000000
00010000
00000000
00000010
00000000
00000000
00000000
00000100
00000000
00000001
00000000
,  // measure 9
00001000
00000000
00000000
00000001
00000010
00000000
00000001
00001000
00000000
00000100
00001000
00000000
00000100
00000000
00010000
00000000
,  // measure 10
00001000
00000000
00000000
00010000
00001000
00000000
00100000
00001000
00000000
00100000
00010000
00000000
00100000
00000000
01000000
00000000
,  // measure 11
10000000
00000000
00000000
00000000
00010000
00000000
10000000
00010000
01000000
00000000
00000000
00000000
00001000
00000000
00001000
00010000
,  // measure 12
00000010
00000000
00000000
00001000
00000010
00000000
00000100
00000010
00000000
00001000
00000010
00000000
00001000
00000000
00000100
00000000
,  // measure 13
00000010
00000000
00000000
00000001
00000010
00000000
00000100
00000010
00000000
00000100
00001000
00000000
00000100
00000000
00010000
00000000
,  // measure 14
00001000
00000000
00000000
00010000
00001000
00000000
00100000
00001000
00000000
00100000
00010000
00000000
01000000
00000000
00010000
00000000
,  // measure 15
10000000
00000000
00000000
00100000
10000000
00000000
00000000
10000000
01000000
00000000
00000000
01000000
00100000
00000000
00001000
00000000
,  // measure 16
00010000
00000000
00000000
00001000
00010000
00000000
00000010
00010000
00000000
00000010
00001000
00000000
00000010
00000000
00000100
00000000
,  // measure 17
00000001
00000000
00001000
00000001
00001000
00000000
00000100
00000000
00000010
00000100
00000010
00000000
00000100
00000000
00001000
00000000
,  // measure 18
00000010
00000000
00000000
00000010
00010000
00000000
00000000
00010000
00001000
00000000
00000000
00001000
01000000
00000000
00010000
00000000
,  // measure 19
00100000
00000000
00000000
00000000
01000000
00000000
10000000
01000000
10000000
00000000
00000000
00000000
00010000
00000000
01000000
00001000
,  // measure 20
01000000
00000000
00000000
00001000
00010000
00000000
00010000
00000100
00000000
00000100
00001000
00000000
00001000
00000000
00000001
00000000
,  // measure 21
00000010
00000000
00000000
00000100
00000010
00000000
00000100
00000000
00000000
00001000
00000100
00000000
00001000
00000000
00000010
00000000
,  // measure 22
00010000
00000000
00000000
00001000
00100000
00000000
00001000
00000000
00000000
01000000
00010000
00000000
01000000
00000000
00100000
00000000
,  // measure 23
10000000
00000000
00000000
00010000
01000000
00010000
01000000
00000000
00001000
00000000
00000000
00010000
00000100
00010000
00000100
00000000
,  // measure 24
00001000
00000001
00000010
00000010
00000100
00000100
00010000
00010000
,  // measure 25
00001000
00000000
00000000
00000010
00000100
00000000
00000010
00000000
00000000
00000001
00000100
00000000
00000001
00000000
00001000
00000000
,  // measure 26
00000100
00000000
00000000
00010000
00001000
00000000
00010000
00000000
00000000
01000000
00100000
00000000
00010000
00000000
10000000
00000000
,  // measure 27
00100000
00000000
00000000
01000000
00010000
00000000
00100000
00000000
00000000
00001000
00010000
00000000
00001000
00000000
00010000
00000000
,  // measure 28
00000010
00000000
00000000
00000100
00000001
00000000
00001000
00000000
00000100
00000000
00000010
00000000
00000001
00000000
00000100
00000000
,  // measure 29
00000010
00000000
00000000
00010000
00001000
00000000
00100000
00000000
00000000
01000000
00100000
00000000
00010000
00000000
10000000
00000000
,  // measure 30
00100000
00000000
00000000
01000000
00001000
00000000
00010000
00000000
00000000
00000000
00001000
00000000
00000100
00000000
00000010
00000000
,  // measure 31
00001000
00000000
00000000
00000001
00000010
00000000
00000100
00000000
00000000
00000010
00000001
00000000
00000100
00000000
00000001
00000000
,  // measure 32
00001000
00000000
00000000
00000010
00010000
00000000
00001000
00000000
00100000
00000000
00000000
00000000
00022000
00000000
00000000
00000000
,  // measure 33
00000000
00000000
00000000
00000000
00000000
00033000
00010000
00000100
,  // measure 34
00000010
00000000
00001000
00000000
00000010
00000000
00001000
00100000
,  // measure 35
00010000
10000000
00000000
00100000
01000000
00000000
00001000
00100000
,  // measure 36
00010000
00000000
00000000
00000000
00000000
00000000
00100000
01000000
10000000
00000000
00000000
00000000
00010000
00000000
00000000
00000000
00000000
00000000
01000000
00000000
00000000
00100000
00000000
00000000
,  // measure 37
00010000
00000000
00001000
00010000
00000100
00000000
00000010
00000001
,  // measure 38
00001000
00000000
00000010
00000001
00000010
00000000
00000100
00001000
,  // measure 39
01000000
00010000
00000000
00100000
01000000
00000000
10000000
01000000
,  // measure 40
00010000
00000000
00001000
00000000
00000000
00000000
00000000
00000000
00200000
00000000
00000000
00300000
00001000
00000000
00010000
00000000
,  // measure 41
00000020
00000000
00000000
00000000
00000000
00000030
00001000
00000010
,  // measure 42
00000001
00000000
00000010
00001000
00000100
00000000
00010000
00000000
,  // measure 43
00001000
00010000
00100000
10000000
01000000
00000000
10000000
00100000
,  // measure 44
01100000
00000000
00001000
00000000
00100000
01000000
00100000
00001000
,  // measure 45
00010000
00001000
00000100
00000010
00001000
00000100
00000010
00000000
,  // measure 46
00000001
00000100
00001000
00000000
00000100
00000001
00000010
00001000
,  // measure 47
00010000
00000010
00000100
00000000
00000010
00010000
00100000
01000000
,  // measure 48
00010000
00000000
00000000
00000000
00000000
00000000
10000000
01000000
00000000
00000000
00000000
00000000
00100000
00010000
00000000
00000000
00000000
00000000
00100000
00000000
00000000
00000000
00000000
00000000
,  // measure 49
00021000
00000000
00000000
00000000
00000100
00000000
00000000
00000000
00000010
00000000
00000000
00030000
00000001
00000000
00000000
00000000
,  // measure 50
00000001
00000000
00001000
00000010
00001000
00000000
00000010
00000000
00000100
00000001
00000100
00000000
00000010
00000000
00001000
00000000
,  // measure 51
00000100
00000000
00010000
00000100
00010000
00000000
00001000
00000000
00100000
00001000
00100000
00000000
00010000
00000000
10000000
00000000
,  // measure 52
00010000
00000000
01000000
00010000
01000000
00000000
00100000
00000000
10000000
00100000
10000000
00000000
00100000
00000000
01000000
00000000
,  // measure 53
00010000
00000000
10000000
01000000
10000000
00000000
01000000
00000000
00100000
00010000
00100000
00000000
01000000
00000000
00100000
00000000
,  // measure 54
00001000
00000000
00000000
00010000
00000100
00000000
00001000
00000000
00000010
00001000
00000001
00000000
00000100
00000000
00000001
00000000
,  // measure 55
00001000
00000000
00000000
00000100
00000010
00000000
00000001
00000000
00000010
00000001
00001000
00000000
00000100
00000000
00010000
00000000
,  // measure 56
00001000
00000000
00000000
01000000
00010000
00000000
01000000
00000000
00010000
10000000
00100000
00000000
10000000
00000000
00010000
00000000
,  // measure 57
00100000
00000000
00000000
01000000
10000000
00000000
00010000
00000000
00100000
00010000
10000000
00000000
00010000
00000000
01000000
00000000
,  // measure 58
00001000
00100000
01000000
00100000
00010000
00100000
10000000
00100000
,  // measure 59
01000000
00010000
00001000
00010000
01000000
00100000
00001000
00000000
,  // measure 60
00010000
00001000
00000100
00001000
00010000
00000010
00000100
00000010
,  // measure 61
00001000
00000010
00000001
00000010
00000100
00000001
00000010
00000100
,  // measure 62
00010000
00001000
00000010
00001000
00010000
01000000
00100000
01000000
,  // measure 63
10000000
00100000
00010000
00100000
10000000
00010000
01000000
00000000
,  // measure 64
00001000
00100000
01000000
00100000
00010000
01000000
00100000
01000000
,  // measure 65
00001000
00010000
00001000
00000010
00000001
00000000
00000110
00000000
;

//---------------dance-double - Medium----------------
#NOTES:
     dance-double:
     Medium:
     Medium:
     6:
     0.364,0.335,0.059,0.081,0.162,326.000,8.000,11.000,0.000,0.000,0.000,0.364,0.335,0.059,0.081,0.162,326.000,8.000,11.000,0.000,0.000,0.000: // measure 1
00001000
00000000
00000000
01000000
00000000
00000000
00010000
00000000
00000000
00000000
00100000
00000000
01000000
00000000
00000000
00000000
,  // measure 2
00100000
00000000
00000000
00001000
00000000
00000000
00010000
00000000
00000000
00000000
00000010
00000000
00000100
00000000
00000000
00000000
,  // measure 3
00001000
00000000
00000000
00010000
00000000
00000000
00001000
00000000
00000000
00000000
01000000
00000000
00010000
00000000
00000000
00000000
,  // measure 4
00100000
00000000
00000000
00001000
00000000
00000000
00010000
00000000
00001000
00000000
00000000
00000000
00001100
00000000
00000000
00000000
,  // measure 5
00000010
00000000
00000000
00000001
00000000
00000000
00001000
00000000
00000001
00000000
00000000
00000000
00000100
00000000
00000000
00000000
,  // measure 6
00001000
00000000
00000000
00010000
00000000
00000000
00001000
00000000
01000000
00000000
00000000
00000000
00010000
00000000
00000000
00000000
,  // measure 7
00100000
00000000
00000000
01000000
00000000
00000000
10000000
00000000
01000000
00000000
00000000
00000000
10000000
00000000
00000000
00000000
,  // measure 8
00100000
00000000
00000000
01000000
00000000
00000000
00001000
00000000
00010000
00000000
00000000
00000000
00011000
00000000
00000000
00000000
,  // measure 9
00000010
00000000
00000000
00001000
00000000
00000000
00000100
00000000
00000000
00000010
00000000
00000000
00000001
00000000
00001000
00000000
,  // measure 10
00000010
00000000
00000000
00000100
00000000
00000000
00000010
00000000
00000000
00010000
00000000
00000000
00001000
00000000
01000000
00000000
,  // measure 11
00010000
00100000
01000000
00100000
,  // measure 12
00010000
00000000
00000000
10000000
00000000
00000000
01000000
00000000
00000000
00100000
00000000
00000000
00010000
00000000
00100000
00000000
,  // measure 13
00001000
00000000
00000000
00010000
00000000
00000000
00000010
00000000
00000000
00010000
00000000
00000000
00000100
00000000
00000010
00000000
,  // measure 14
00000001
00000000
00000000
00000100
00000000
00000000
00000010
00000000
00000000
00001000
00000000
00000000
00000100
00000000
00010000
00000000
,  // measure 15
00001000
01000000
00100000
01000000
,  // measure 16
00010000
00000000
00000000
00100000
00000000
00000000
01000000
00000000
00000000
10000000
00000000
00000000
01000000
00000000
00100000
00000000
,  // measure 17
00010000
00000000
00000000
10000000
00000000
00000000
00100000
00000000
00000000
01000000
00000000
00000000
00001000
00000000
00010000
00000000
,  // measure 18
00001000
00000000
00000010
00000000
00000001
00000000
00000100
00000001
,  // measure 19
00001000
00000000
00000100
00000000
00010000
00000000
01000000
00100000
,  // measure 20
00010000
00000000
00000000
10000000
00000000
00000000
01000000
00000000
00000000
10000000
00000000
00000000
00010000
00000000
01000000
00000000
,  // measure 21
00001000
00000000
00000000
00100000
00000000
00000000
00001000
00000000
00000000
00010000
00000000
00000000
00000010
00000000
00001000
00000000
,  // measure 22
00000100
00000000
00000000
00001000
00000000
00000000
00000010
00000000
00000000
00000100
00000000
00000000
00000001
00000000
00001000
00000000
,  // measure 23
00000010
00010000
00100000
10000000
,  // measure 24
00010000
10000000
00010000
00010000
00100000
00100000
01000000
01000000
,  // measure 25
10000000
00000000
01000000
10000000
00010000
00000000
00100000
00001000
,  // measure 26
00010000
00000000
00000010
00001000
00000010
00000000
00000100
00000000
,  // measure 27
00000001
00001000
00000001
00000000
00000010
00000100
00001000
00000000
,  // measure 28
00000100
00010000
00001000
00000000
00100000
00000000
00010000
00000000
,  // measure 29
10000000
00100000
01000000
00000000
00010000
01000000
00001000
00000000
,  // measure 30
00100000
00010000
00100000
00000000
01000000
00000000
10000000
00000000
,  // measure 31
00010000
01000000
00010000
00000000
00100000
00001000
00100000
00000000
,  // measure 32
00001000
00010000
00000010
00000000
00000100
00000000
00002002
00000000
,  // measure 33
00000000
00000000
00000000
00000000
00000000
00003003
00000010
00000001
,  // measure 34
00001000
00000000
00000010
00000000
00001000
00000000
00000010
00010000
,  // measure 35
00001000
00100000
00000000
02000000
00000000
03000000
00000000
10000000
,  // measure 36
00100000
01000000
00000000
00001000
,  // measure 37
00020000
00000000
00000000
00000000
00000000
00030000
00000100
00000000
,  // measure 38
00000010
00000000
00000001
00000100
00000000
00000000
00000010
00000000
,  // measure 39
00010000
00000100
00000000
00002000
00000000
00003000
00000010
00010000
,  // measure 40
00001000
00200000
00000000
00000000
00300000
00000000
01000000
10000000
,  // measure 41
00020000
00000000
00000000
00000000
00000000
00030000
10000000
00100000
,  // measure 42
00010000
00000000
00001000
00100000
00000000
00000000
01000000
00000000
,  // measure 43
00010000
00000000
00000100
00001000
00000000
00000000
00000010
00000100
,  // measure 44
00000001
00000000
00000010
00000000
00001000
00000000
00000000
00010000
,  // measure 45
00000020
00000000
00000000
00000000
00000000
00000030
00001000
00000000
,  // measure 46
00000010
00000000
00000001
00000010
00000000
00000000
00000000
00001000
,  // measure 47
00000100
00000000
00000000
00020000
00000000
00000000
00030000
01000000
,  // measure 48
10000000
00000000
00100000
00000000
02000000
00000000
00000000
03000000
,  // measure 49
00020000
00000000
00000000
00030000
,  // measure 50
00010000
00000000
00000000
10000000
00000000
00000000
01000000
00000000
00000000
00010000
00000000
00000000
01000000
00000000
10000000
00000000
,  // measure 51
00010000
00000000
00000000
01000000
00000000
00000000
00100000
00000000
00000000
00010000
00000000
00000000
00001000
00000000
00010000
00000000
,  // measure 52
00000010
00000000
00000000
00001000
00000000
00000000
00000100
00000000
00000000
00000001
00000000
00000000
00000100
00000000
00001000
00000000
,  // measure 53
00000010
00000000
00000000
00010000
00000000
00000000
00100000
00000000
00000000
00010000
00000000
00000000
00001000
00000000
01000000
00000000
,  // measure 54
00010000
00000000
00000000
00100000
00000000
00000000
01000000
00000000
00000000
00100000
00000000
00000000
10000000
00000000
00100000
00000000
,  // measure 55
00010000
00000000
00000000
01000000
00000000
00000000
00001000
00000000
00000000
00010000
00000000
00000000
00001000
00000000
00000100
00000000
,  // measure 56
00000001
00000000
00000000
00000010
00000000
00000000
00000001
00000000
00000000
00000100
00000000
00000000
00000010
00000000
00001000
00000000
,  // measure 57
00000010
00000000
00000000
00010000
00000000
00000000
00001000
00000000
00000000
00010000
00000000
00000000
01000000
00000000
00100000
00000000
,  // measure 58
01000000
10000000
10010000
00000000
00010000
01000000
01100000
00000000
,  // measure 59
10000000
00010000
01000000
00001000
00010000
00000000
00000100
00000000
,  // measure 60
00001000
00000100
00000010
00000000
00000001
00000100
00000010
00000000
,  // measure 61
00010000
00001000
00100000
00000000
00010000
00000000
00010000
00000000
,  // measure 62
00100000
00001000
00011000
00000000
00000010
00010000
00011000
00000000
,  // measure 63
00000100
00001000
00000100
00000010
00000001
00000000
00001000
00000000
,  // measure 64
00000010
00010000
00000100
00000000
00010000
00001000
00100000
00000000
,  // measure 65
00010000
10000000
00010000
00000000
01000000
00000000
01100000
00000000
;

//---------------dance-double - Easy----------------
#NOTES:
     dance-double:
     Easy:
     Easy:
     4:
     0.248,0.263,0.059,0.126,0.015,210.000,8.000,17.000,0.000,0.000,0.000,0.248,0.263,0.059,0.126,0.015,210.000,8.000,17.000,0.000,0.000,0.000: // measure 1
10000000
01000000
10000000
01000000
,  // measure 2
00100000
00001000
00010000
00010000
,  // measure 3
00000010
00001000
00000010
00001000
,  // measure 4
00000001
00000010
00000100
00000100
,  // measure 5
00010000
00000010
00001000
00001000
,  // measure 6
00000100
00010000
00001000
00001000
,  // measure 7
01000000
00100000
01000000
00010000
,  // measure 8
10000000
01000000
00100000
00010000
,  // measure 9
10000000
00000000
00000000
00010000
00000000
00000000
00100000
00000000
,  // measure 10
00001000
00000000
00000000
00010000
00000000
00000000
00000010
00000000
,  // measure 11
00000100
00000000
00001000
00000000
,  // measure 12
00010000
00000000
00000000
00000100
00000000
00000000
00001000
00000000
,  // measure 13
00000001
00000000
00000000
00000010
00000000
00000000
00000100
00000000
,  // measure 14
00001000
00000000
00000000
00000010
00000000
00000000
00010000
00000000
,  // measure 15
00001000
00000000
00100000
00000000
,  // measure 16
01000000
00000000
00000000
10000000
00000000
00000000
00100000
00000000
,  // measure 17
01000000
00000000
00000000
00001000
00000000
00000000
00100000
00000000
,  // measure 18
01000000
00000000
00010000
00000000
,  // measure 19
00001000
00000000
00000100
00000000
,  // measure 20
00000001
00000000
00000000
00000010
00000000
00000000
00000001
00000000
,  // measure 21
00000100
00000000
00000000
00000010
00000000
00000000
00010000
00000000
,  // measure 22
00001000
00000000
00000000
00100000
00000000
00000000
00001000
00000000
,  // measure 23
00010000
00000000
00100000
00000000
,  // measure 24
10000000
01000000
00100000
00010000
,  // measure 25
10010000
00010000
00100000
00010000
,  // measure 26
01000000
00001000
00010000
00001000
,  // measure 27
00010000
00000010
00001000
00000010
,  // measure 28
00001000
00000100
00000010
00000001
,  // measure 29
00001001
00001000
00000010
00010000
,  // measure 30
00000100
00010000
00001000
01000000
,  // measure 31
00010000
00100000
00010000
10000000
,  // measure 32
00100000
01000000
00010000
20020000
,  // measure 33
00000000
00000000
00000000
00000000
00000000
30030000
00000000
00000000
,  // measure 34
10000000
01000000
00100000
00010000
,  // measure 35
01000000
00100000
00010000
00001000
,  // measure 36
00100000
00010000
00001000
00000100
,  // measure 37
00010000
00001000
00000100
00000010
,  // measure 38
00000002
00000000
00000000
00000000
00000000
00000003
00000100
00000000
,  // measure 39
00002000
00000000
00000000
00000000
00000000
00003000
00100000
00000000
,  // measure 40
00020000
00000000
00000000
00030000
01000000
00000000
00100000
00000000
,  // measure 41
20000000
00000000
00000000
30000000
,  // measure 42
00200000
00000000
00000000
00300000
00020000
00000000
00000000
00030000
,  // measure 43
00000100
00000000
00001000
00000000
00000002
00000000
00000000
00000003
,  // measure 44
00000200
00000000
00000000
00000300
00000010
00000000
00000000
00010000
,  // measure 45
00002000
00000000
00000000
00000000
00000000
00003000
00100000
00000000
,  // measure 46
00020000
00000000
00000000
00030000
02000000
00000000
00000000
03000000
,  // measure 47
00200000
00000000
00000000
00000000
00000000
00300000
01000000
00010000
,  // measure 48
20000000
00000000
00000000
30000000
02000000
00000000
00000000
03000000
,  // measure 49
00200000
00000000
00000000
00300000
,  // measure 50
00001000
00000000
00000000
00010000
00000000
00000000
00100000
00000000
,  // measure 51
00010000
00000000
00000000
00001000
00000000
00000000
00000100
00000000
,  // measure 52
00000001
00000000
00000000
00000010
00000000
00000000
00001000
00000000
,  // measure 53
00010000
00000000
00000000
00001000
00000000
01000000
00000000
00000000
,  // measure 54
00010000
00000000
00000000
10000000
00000000
00000000
00010000
00000000
00000000
00000000
00000000
00000000
00100000
00000000
00000000
00000000
,  // measure 55
01000000
00000000
00000000
10000000
00000000
00000000
01000000
00000000
00000000
00000000
00000000
00000000
00100000
00000000
00000000
00000000
,  // measure 56
00001000
00000000
00000000
00010000
00000000
00000000
00001000
00000000
00000000
00000000
00000000
00000000
00010000
00000000
00000000
00000000
,  // measure 57
00000010
00000000
00000000
00000100
00000000
00000000
00000010
00000000
00000000
00000000
00000000
00000000
00001000
00000000
00000000
00000000
,  // measure 58
00000100
00011000
01000000
00011000
,  // measure 59
00000100
00001000
00000010
00000100
,  // measure 60
00000001
00000100
00001000
00010000
,  // measure 61
00001000
00010000
01000000
00100000
,  // measure 62
00001000
00101000
00010000
00010010
,  // measure 63
00001000
00100000
00010000
10000000
,  // measure 64
00100000
01000000
00001000
00010000
,  // measure 65
00000100
00000010
00000001
00001001
;
