#TITLE:Eternal Blaze;
#SUBTITLE:;
#ARTIST:水樹奈々;
#TITLETRANSLIT:;
#SUBTITLETRANSLIT:;
#ARTISTTRANSLIT:Nana Mizuki;
#GENRE:;
#CREDIT:;
#BANNER:eternalblaze-bn.png;
#BACKGROUND:eternalblaze-bg.png;
#LYRICSPATH:;
#CDTITLE:;
#MUSIC:01 - ETERNAL BLAZE.ogg;
#OFFSET:0.942;
#SAMPLESTART:68.400;
#SAMPLELENGTH:12.000;
#SELECTABLE:YES;
#DISPLAYBPM:104.000:155.000;
#BPMS:0.000=108.000,10.000=105.000,12.000=104.000,16.000=104.000,20.000=103.000,24.000=155.000,27.000=155.000,124.000=77.500,124.250=155.000,124.500=310.000,125.000=155.000,132.000=77.500,132.250=155.000,132.500=310.000,133.000=155.000,236.000=310.000,240.000=155.000;
#STOPS:24.000=1.518
,236.000=0.145
,236.750=0.146
,237.500=0.097
,238.000=0.145
,238.750=0.146
,239.500=0.097
;
#TIMESIGNATURES:0.000=4=4
;
#BGCHANGES:3.000=eternalblaze.avi=1.000=0=0=1=====,
99999=-nosongbg-=1.000=0=0=0 // don't automatically add -songbackground-
;
#KEYSOUNDS:;

//---------------dance-single - Blank----------------
#NOTES:
     dance-single:
     Blank:
     Hard:
     9:
     0.648,0.612,0.510,0.200,0.314,420.000,56.000,22.000,18.000,0.000,0.000,0.648,0.612,0.510,0.200,0.314,420.000,56.000,22.000,18.000,0.000,0.000: // measure 1
0000
0000
0000
0000
,  // measure 2
0100
0000
0010
0000
0001
0000
1000
0010
,  // measure 3
0100
0010
1000
0001
0020
0000
0030
0010
,  // measure 4
0001
0000
0100
0200
0000
0000
0000
0000
,  // measure 5
0300
1000
0100
0001
,  // measure 6
0020
0000
0000
0000
,  // measure 7
0000
0000
0030
0000
0000
0000
0000
0000
0000
0000
0000
0000
1000
0100
0010
0001
,  // measure 8
1000
0000
0100
1000
0010
0100
0000
0010
,  // measure 9
1000
0000
0001
0010
0100
1000
0001
1000
,  // measure 10
0000
0010
0100
0010
1000
0100
0000
0010
,  // measure 11
0001
0000
0000
0000
0100
0000
0001
0000
1000
0000
0000
0000
0010
0100
0010
1000
,  // measure 12
0001
0100
0001
1000
0010
1000
0100
1000
,  // measure 13
0001
0000
0010
0100
0010
0001
0100
0001
,  // measure 14
1000
0000
0000
0000
0010
0000
0100
0010
1000
0000
0010
0100
0001
0000
0001
1000
,  // measure 15
0100
0000
0000
0000
1000
0000
1010
0000
0000
0000
0010
0000
0100
0001
1000
0001
,  // measure 16
2000
0000
3001
2100
0000
3010
1000
1000
,  // measure 17
0021
0000
0130
0011
00MM
1000
0001
1000
,  // measure 18
0102
0000
0103
0012
0000
0000
0103
0010
,  // measure 19
2010
0000
0000
0000
3001
0000
1100
0000
MM00
0000
0100
0000
1000
0000
0001
1000
,  // measure 20
0002
0000
0103
0102
0000
0000
0013
0100
,  // measure 21
0021
0000
0031
1010
M0M0
1000
0001
1000
,  // measure 22
1100
0000
0000
1000
0001
0000
1000
0000
0101
0000
0000
0010
0100
0000
0001
0000
,  // measure 23
0010
0000
0001
0000
0001
0000
0010
0100
0010
0000
0100
0000
0010
0100
1000
0001
,  // measure 24
1000
0000
0000
0010
1000
0000
1000
0000
0010
0000
1000
0000
0001
0000
0000
0000
,  // measure 25
0010
0000
0000
0100
0010
0000
0100
0000
0010
0000
0001
0000
0001
0000
1000
0100
,  // measure 26
0010
0000
0000
0001
0100
0000
0010
0000
0100
0000
0100
0000
0001
0000
0000
0000
,  // measure 27
1000
0000
0000
0100
1000
0000
0100
0000
0010
0000
0010
0000
0001
0000
1000
0000
,  // measure 28
1010
0000
0010
0100
0100
0000
0001
0000
,  // measure 29
1000
0000
0010
0000
0001
0000
0010
0000
0100
0000
0010
0000
1000
0000
0100
0010
,  // measure 30
0001
0000
0010
0110
0MM0
1100
MM00
2001
,  // measure 31
0000
0000
3001
0000
2000
0000
0000
0000
3010
0000
1000
0010
1000
0100
0010
0001
,  // measure 32
0000
0000
0102
0000
0103
0010
1000
2001
,  // measure 33
0000
0000
3001
0000
0010
0000
0100
0000
0010
0000
0010
0000
0100
1000
0001
0100
,  // measure 34
0000
0000
1020
0000
1030
0100
0010
0011
,  // measure 35
0000
0000
0001
0000
0100
0000
0010
0000
1000
0000
1000
0000
0001
0100
0010
1000
,  // measure 36
0100
0000
0000
0000
1000
0000
0011
0000
0000
0000
0100
0000
1000
0000
0001
1000
,  // measure 37
0010
0000
0000
0000
0100
0000
1010
0000
0000
0000
0000
0000
1000
0010
0100
0001
,  // measure 38
0010
0000
0100
0010
0001
0010
0001
1000
,  // measure 39
0010
0100
0000
0001
0010
0100
0010
0001
,  // measure 40
1100
0000
0000
0101
0000
0000
1100
0000
0000
0000
0010
0000
0001
0000
0101
0000
,  // measure 41
0000
0000
0000
0000
1000
0100
1000
0001
0010
0100
0010
0001
0100
0010
1000
0001
,  // measure 42
0100
0000
0011
0001
1010
0000
0011
1000
,  // measure 43
1100
0000
0000
0000
1010
0000
0010
0000
1001
0000
0000
0000
1000
0001
0010
0100
,  // measure 44
1000
0000
0000
0000
0001
0000
1000
0000
0100
0000
0000
0010
0100
0000
1000
0000
,  // measure 45
0010
0000
0000
0000
0010
0000
0100
0000
0010
1000
0000
1000
0001
0010
0001
1000
,  // measure 46
0100
0000
0000
0000
1000
0000
0010
0000
0100
0000
0000
0001
0100
0000
0001
0000
,  // measure 47
0010
0000
0000
0100
1000
0000
0001
0000
0100
0000
0000
0010
1000
0000
1000
0001
,  // measure 48
0100
0000
0000
0010
0100
0000
0001
0000
0010
0000
0110
0000
0MM0
0000
1200
0000
,  // measure 49
0000
0000
1300
0000
0001
0000
0010
0000
0000
0000
0001
0000
0100
0000
0001
1000
,  // measure 50
0010
0000
0101
0001
1010
0000
1100
1000
,  // measure 51
0011
0000
0000
0000
0101
0000
0100
0000
1010
0000
0000
0000
1000
0001
0010
0100
,  // measure 52
0010
0000
0000
0000
1000
0000
0010
0000
0100
0000
0000
0100
0010
0000
1000
0000
,  // measure 53
0010
0000
0001
0000
0100
0000
0010
0100
0010
1000
0000
1000
0001
0000
0001
0000
,  // measure 54
1100
0000
0010
0110
0MM0
1001
0001
1000
,  // measure 55
0101
0000
0100
0000
0010
0000
0101
0000
0M0M
0000
1001
0000
1000
0000
0010
1000
,  // measure 56
0001
0000
0000
0000
1000
0000
0100
0000
0001
0000
0100
0000
0010
0001
0100
0001
,  // measure 57
1000
0000
0000
0000
0202
0000
0000
0000
0000
0000
0303
0000
0010
1000
0100
1000
,  // measure 58
0002
0000
0000
0010
0000
0000
0100
0000
0003
0000
0001
0000
0100
0000
0010
0000
,  // measure 59
1000
0000
0000
1000
0100
0000
0010
0000
0000
0001
0010
0000
0001
0000
0100
0010
,  // measure 60
1000
0000
0000
1100
0000
0000
1001
0000
0011
0000
0000
0110
0000
0000
1100
0000
,  // measure 61
1001
0000
0000
0000
,  // measure 62
0100
0000
0010
0000
0001
0000
1100
0000
MM00
0000
0101
0000
0100
0001
2000
0000
,  // measure 63
0000
0000
0000
0000
,  // measure 64
0000
0000
0000
0000
,  // measure 65
3000
0000
0000
0000
;

//---------------dance-single - Blank----------------
#NOTES:
     dance-single:
     Blank:
     Challenge:
     11:
     0.878,0.845,0.455,0.036,0.915,621.000,50.000,4.000,8.000,0.000,0.000,0.878,0.845,0.455,0.036,0.915,621.000,50.000,4.000,8.000,0.000,0.000:
0000
0000
0000
0000
,
0001
0100
0010
0100
0001
1000
0100
1000
,
0001
0010
1000
0010
0001
0100
1000
0100
,
0010
1000
0010
0100
0001
0010
0001
1000
,
0100
0000
0000
0010
0000
0000
0100
0000
0000
0000
0000
0000
1000
0000
0000
0000
0000
0000
0000
0000
0000
0001
0010
0001
,
1000
0100
0001
0100
1000
0010
0001
0010
,
2000
0000
0000
0000
0000
0000
0000
0000
3000
0000
0000
0000
1000
0100
0010
0001
,
1000
0000
1000
0000
0010
0000
1000
0000
0001
0100
0010
0100
0001
0000
0010
0001
,
1000
0100
0010
0100
1000
0000
0001
0010
0001
1000
0010
0100
0001
0010
0001
1000
,
0100
0000
1000
0001
0010
0000
0001
0000
0100
0010
0100
0010
1000
0000
0001
0100
,
0001
1000
0010
1000
0100
0010
0100
1000
0001
0100
0010
1000
0001
0010
0001
1000
,
0010
0000
0100
0000
0110
0000
0010
0000
1000
0010
1000
0001
0100
0000
0001
1000
,
0100
0010
0001
0010
0100
0000
0010
0001
1000
0001
0100
0010
0100
0000
0010
1000
,
0010
0000
0000
0000
0000
0000
0010
0000
0000
1000
0000
0000
0001
0000
0000
0000
0000
0000
0001
0000
0010
0000
0100
0000
1000
0000
0000
0000
0000
0000
0100
0000
0010
0000
0100
0000
1000
0000
0000
0000
0000
0000
0001
0000
0100
0000
0010
0000
,
0100
0000
0000
0000
0000
0000
0010
0000
1000
0000
0001
0000
0100
0000
0000
0000
0000
0000
0001
0000
0000
0000
0000
0000
0100
0000
0000
0010
0000
0000
0100
0000
0000
0000
0000
0000
0001
0000
0000
1000
0000
0000
0001
0000
0000
1000
0000
0000
,
0100
0000
0000
0100
1000
0000
0001
0000
0100
0010
0100
0001
1000
0000
0001
0000
,
0010
0100
0010
0001
1000
0000
0001
1000
0010
0100
0001
0100
0010
1000
0001
0000
,
1000
0100
0010
0100
1000
0000
0001
0000
0010
0100
0010
0001
0010
0000
0001
1000
,
0100
1000
0010
0100
0001
0000
0100
0010
1000
0100
1000
0100
0010
0001
0010
0001
,
0100
0010
1000
0010
0100
0000
0010
1000
0001
0010
0001
1000
0100
0000
1000
0000
,
0010
1000
0001
1000
0100
0000
0100
1000
0001
1000
0100
0010
0001
0100
0001
0000
,
1000
0000
0100
1000
0010
0000
1000
0000
0001
0000
0100
0001
0010
0000
0001
1000
,
0010
0100
0010
0100
0001
0000
1000
0001
0010
0100
0010
0001
0100
0010
0100
0001
,
1000
0000
0000
0010
0100
0000
0010
0000
1000
0000
0100
0000
0010
0000
0100
1000
,
0010
0100
0010
1000
0001
0000
0010
0000
0100
1000
0001
0100
0001
0010
0001
1000
,
0010
1000
0100
1000
0001
0000
1000
0000
0010
0100
0010
1000
0001
0000
0100
0001
,
1000
0100
0010
0100
1000
0000
0001
0100
0010
1000
0001
0100
0001
0000
1000
0000
,
0110
0000
0100
0000
0001
0000
0010
0000
0100
0010
0001
0100
0010
0000
0000
0000
,
1010
0000
0100
0000
0010
0000
0101
0000
0001
1000
0010
0100
0010
0000
0100
0001
,
0101
0000
0001
1010
1000
0110
0MM0
1100
,
0000
0000
0101
0000
1001
0000
0000
0000
0001
0000
0010
0001
1000
0010
1000
0100
,
0000
0000
0101
0000
0010
1000
0010
1100
,
0000
0000
0001
0000
0010
0000
0001
0000
0100
0001
0010
0001
1000
0010
0100
0001
,
0000
0000
1010
0000
0001
0010
0100
1001
,
0000
0000
0001
0000
0010
0000
0000
0000
0001
0000
0100
0000
0010
0100
0001
1000
,
0100
0000
0000
0000
1000
0000
1100
0000
0001
0010
0100
0010
0001
0000
0100
0010
,
1000
0000
0000
0000
0001
0000
0101
0000
0000
0000
0000
0000
0010
1000
0001
0100
,
0010
0000
1000
0100
1000
0000
0001
0000
0010
0000
0001
0000
0100
0000
0010
0000
,
1000
0000
0001
1000
0001
0000
0100
0000
0010
0100
0001
1000
0100
0010
0001
1000
,
0010
0000
0000
1100
0000
0000
0101
0000
0010
0000
1000
0000
0100
0000
0011
0000
,
0000
0000
0000
0000
1000
0100
0010
0001
0100
0010
0100
0001
1000
0010
1000
0100
,
0010
0000
0000
0000
0011
0000
0100
1000
0001
0000
0000
0000
0101
0000
1000
0010
,
0100
0000
0000
0000
1010
0000
0001
1000
0100
0010
0000
0100
0010
0100
1000
0001
,
0100
0000
0010
1000
0001
0000
1000
0000
0100
0010
0000
0010
0001
0000
0010
0100
,
1000
0010
1000
0001
0100
0010
0100
0001
0010
0001
1000
0100
1000
0001
0100
0001
,
1000
0000
0000
0000
0101
0000
0010
0000
1000
0000
0000
0000
1100
0000
0001
1000
,
0001
0100
0000
0100
0010
0000
1000
0000
0001
0010
0000
0000
1100
0000
0010
0001
,
0100
0000
0010
0100
0001
0000
0010
0000
0001
0000
0011
0000
1000
0000
1100
0000
,
0000
0000
0010
0000
0001
0000
0010
0100
1000
0010
1000
0001
0010
0001
0100
0001
,
1000
0000
0000
0000
0101
0000
0010
1000
0100
0000
0000
0000
0110
0000
0001
1000
,
0010
0000
0000
0000
1100
0000
0010
0100
1000
0010
0000
0010
0100
0001
0010
0100
,
1000
0000
0100
0010
0001
0000
1000
0001
0010
0000
0100
0010
0001
0000
0100
0010
,
1000
0100
0000
0000
1100
0000
0100
0010
0001
0100
0010
0000
1010
0000
0110
0000
,
1001
0001
0010
1100
MM00
0110
0100
0000
,
1001
0000
0001
1000
0010
0000
0101
0000
0M0M
0000
1010
0000
0001
0000
0001
1000
,
0100
0000
0000
0000
1010
0000
0001
0000
1000
0010
0100
0000
0001
0010
0001
1000
,
0100
0000
0000
0000
2002
0000
0000
0000
0000
0000
0000
3003
0001
0010
0100
1000
,
0001
0000
1000
0000
0010
0000
0100
0000
0010
1000
0001
0000
0001
0100
0001
1000
,
0100
0000
0000
0010
0100
0000
1000
0001
0010
0001
0010
0000
0001
0100
0010
1000
,
0100
0000
0000
0110
0000
0000
0011
0000
1010
0000
0000
1001
0000
0000
0101
0000
,
1100
0000
0000
0000
,
0110
0000
0010
0000
0001
0000
1010
0000
M0M0
0000
0101
0000
0010
1000
0002
0000
,
0000
0000
0000
0000
,
0000
0000
0000
0000
,
0003
0000
0000
0000
;

//---------------dance-single - Blank----------------
#NOTES:
     dance-single:
     Blank:
     Medium:
     7:
     0.459,0.437,0.200,0.082,0.141,322.000,22.000,9.000,0.000,0.000,0.000,0.459,0.437,0.200,0.082,0.141,322.000,22.000,9.000,0.000,0.000,0.000:
0000
0000
0000
0000
,
0100
0000
0010
0000
0001
0000
1000
0010
,
0100
0010
1000
0001
0020
0000
0030
0010
,
0001
0000
0100
0200
0000
0000
0000
0000
,
0300
1000
0100
0001
,
0020
0000
0000
0000
,
0000
0030
0000
0000
0000
0000
0000
0000
,
1000
0000
0010
0100
0000
0100
0001
1000
,
0100
0000
0001
0010
0000
0010
0001
1000
,
0010
0000
0001
1000
0000
1000
0010
1000
,
0100
0000
0010
0100
0000
0000
0100
0000
,
1001
0000
0001
0000
1000
0010
0000
1000
,
0001
0000
0010
0001
0000
0010
0100
1000
,
0000
0001
0100
0000
0001
0010
0000
0001
,
1000
0000
0010
0100
0000
0100
0001
0001
,
1000
0000
0000
0100
0000
0000
0100
0000
1000
0000
0000
0000
0010
0000
0000
0000
,
0100
0000
0000
0001
0000
0000
0100
0000
0010
0000
0000
0000
0010
0000
1000
0010
,
1000
0000
0000
0100
0000
0000
0100
0000
0010
0000
0000
0000
0001
0000
0000
0000
,
1000
0000
0000
0010
0000
0000
1000
0000
0001
0000
0000
0000
0010
0000
0000
0000
,
0001
0000
1000
0000
0001
0000
0010
0001
0000
0000
0000
0000
0001
0000
0000
0000
,
1000
0000
0010
0000
1000
0000
0001
1000
0000
0000
0000
0000
1000
0000
0001
0000
,
0010
0000
0000
0000
0100
0000
1000
0000
0100
0000
0000
0010
0000
0000
0100
0000
,
0010
0001
0001
0000
0100
0000
0001
0010
,
0001
0000
0000
0100
0000
0000
0001
0000
1000
0000
1000
0000
0010
0000
0000
0000
,
0001
0000
0000
0010
0000
0000
0100
0000
0010
0000
0010
0000
0001
0000
1000
0100
,
1000
0000
0000
0001
0000
0000
0001
0000
1000
0000
1000
0000
0010
0000
0000
0000
,
0010
0000
0000
1000
0000
0000
0100
0000
1000
0000
1000
0000
0001
0000
1000
0000
,
0010
0000
0100
0001
0010
0000
1000
0000
,
0010
0000
0001
0000
0010
0000
0100
0000
0000
0000
1000
0000
0001
0000
0100
0001
,
0100
0000
0010
1000
0000
1100
0000
0011
,
0000
0001
1000
0000
0010
0100
0001
1000
,
0000
0000
1100
0000
0001
0010
0100
2000
,
0000
0010
3010
0000
0100
0001
1000
0001
,
0000
0000
1010
0000
0001
1000
0100
0010
,
0000
0001
0100
0000
0010
0010
0100
0001
,
1000
0000
0100
0001
0000
0100
1000
0000
,
0001
0000
0100
1000
0000
0100
0001
0000
,
1000
0000
0100
1000
0100
0010
0001
1000
,
0010
0000
0100
0000
0000
0000
0100
0000
0001
0000
0000
0010
0000
0000
0001
0000
,
1000
0000
0000
0100
0000
0000
0110
0000
0000
0000
0001
0000
1000
0000
0001
0000
,
0000
0000
0000
0000
,
0011
0000
0011
0000
1100
0000
0010
0001
,
0100
0010
1000
0001
0010
0000
0001
0000
,
1010
0000
0000
0000
0001
0000
0000
0000
0100
0000
0000
0010
0000
0000
1000
0000
,
0001
0010
0010
0000
0001
1000
0100
0010
,
0001
0000
0000
0000
1000
0000
0010
0000
0100
0000
0000
0010
0000
0000
1000
0000
,
0100
0000
0000
0010
0000
0000
0001
0000
0100
0000
0000
0010
0000
0000
1000
0010
,
1000
0000
0000
0100
0000
0000
0010
0000
0100
0000
0010
0000
0000
0000
1002
0000
,
0000
1003
0001
0100
0000
0100
0010
0000
,
1010
0000
1010
0000
0101
0000
0100
0010
,
1000
0100
0010
0001
0100
0000
0010
0000
,
1001
0000
0000
0000
0001
0000
0000
0000
0100
0000
0000
0010
0000
0000
0100
0000
,
0001
0010
0010
0000
0100
0000
1000
0001
,
2001
0000
3000
1010
0000
0110
0000
0000
,
1002
0000
0003
0011
0000
0110
0000
0000
,
1000
0000
0000
0100
0000
0000
0001
0000
0100
0000
0000
0010
0000
0000
0001
0000
,
0010
0000
0001
1000
0100
0010
0001
0100
,
0020
0000
0000
1000
0000
0000
1000
0000
0030
0010
0000
0000
0100
0000
0001
0000
,
1000
0000
0000
0100
1000
0000
0001
0000
0000
0100
0000
0000
0100
0000
0000
0000
,
0110
0000
0000
0001
0000
0000
1000
0000
0001
0000
0000
0100
0000
0000
1000
0000
,
0100
0000
0000
0010
1000
0000
0100
0000
,
0002
0000
0000
0000
,
0000
0000
0000
0000
,
0000
0000
0000
0000
,
0003
0000
0000
0000
;

//---------------dance-single - Blank----------------
#NOTES:
     dance-single:
     Blank:
     Easy:
     4:
     0.293,0.320,0.209,0.091,0.000,192.000,23.000,10.000,0.000,0.000,0.000,0.293,0.320,0.209,0.091,0.000,192.000,23.000,10.000,0.000,0.000,0.000:
0000
0000
0000
0000
,
0001
0001
1000
1000
,
0010
0010
0100
0100
,
0001
0001
0010
0010
,
1000
1000
0100
0000
,
0002
0000
0000
0000
,
0000
0003
0000
0000
0000
0000
0000
0000
,
1000
0010
0000
0100
,
0000
0001
0000
0010
,
0001
0100
0000
0010
,
0000
1000
0001
0000
,
1000
1000
0001
0001
,
0010
0010
0100
0100
,
1000
1000
0001
0001
,
0100
0000
0000
0110
0000
0000
0001
0000
,
1000
0000
0001
1000
0000
0000
0001
0000
,
0100
0000
0010
0100
0000
0000
0100
0000
,
0010
0000
1000
0010
0000
0000
1000
0000
,
0100
0000
0010
0100
0000
0000
0100
0000
,
1000
0000
0001
1000
0000
0000
1000
0000
,
0001
0000
0100
0001
0000
0000
0001
0000
,
1000
0100
0010
0100
,
0010
0001
0000
0001
,
1001
0000
0000
0010
0000
0010
0000
0000
,
0100
0000
0000
0001
0000
0001
0000
0000
,
1000
0000
0000
0100
0000
0100
0000
0000
,
1000
0000
0000
0010
0000
0010
0000
0000
,
0100
0001
0010
0100
,
1000
0000
0010
0000
,
0110
0000
0000
0001
0000
1000
0000
1001
,
0000
0000
2002
0000
0000
0000
0000
3003
,
0000
0000
0011
0000
0000
1000
0000
0001
,
0000
0010
0100
0010
,
0000
0000
1100
0000
0000
1000
0000
0001
,
0000
0100
0010
1000
,
1001
0000
0000
0011
0000
0000
0001
0000
,
1001
0000
0000
1010
0000
0000
0100
0000
,
0001
0010
0000
0010
,
1000
0010
0000
0100
,
1000
0000
0000
1001
0000
0000
0000
0110
,
0000
0000
0000
0000
,
0001
0001
0010
0010
,
0100
0100
0010
0001
,
1000
1000
0010
0100
,
0001
1000
0001
0001
,
0010
0100
0010
0001
,
0100
0010
1000
0100
,
0001
0000
0100
0000
1000
0000
0000
0220
,
0000
0000
0330
0022
0000
0000
0033
0000
,
1000
1000
0010
0010
,
0001
0001
0010
0100
,
0001
0001
0010
0100
,
0010
0010
0001
1000
,
0010
0000
0000
0110
0000
0110
0000
0000
,
1000
0000
0000
1010
0000
1010
0000
0000
,
0001
0010
1000
0010
,
0001
0000
0022
0000
0000
0033
0001
0000
,
0100
0000
0000
0010
0000
0000
0000
0000
,
0100
0000
0000
0010
0000
0000
1000
0000
,
1001
0000
0101
0000
,
1100
0000
0000
0000
,
0001
0000
0000
0010
0000
0010
0000
0200
,
0000
0000
0000
0000
,
0000
0000
0000
0000
,
0300
0000
0000
0000
;

//---------------dance-single - Blank----------------
#NOTES:
     dance-single:
     Blank:
     Beginner:
     2:
     0.186,0.204,0.127,0.046,0.000,124.000,14.000,5.000,0.000,0.000,0.000,0.186,0.204,0.127,0.046,0.000,124.000,14.000,5.000,0.000,0.000,0.000:
0000
0000
0000
0000
,
0001
0000
1000
0000
,
0010
0000
0100
0000
,
0001
0000
0010
0000
,
1000
0000
0100
0000
,
0002
0000
0000
0000
0000
0000
0000
0003
,
0000
0000
0000
0000
,
0100
0100
0000
0100
,
0000
0010
0000
0010
,
0000
1000
0000
1000
,
0000
0001
0001
0000
,
1000
1000
0000
1000
,
0000
0010
0000
0010
,
0000
0100
0000
0100
,
0100
0000
0000
0000
,
0001
0000
1000
0000
,
0100
0000
0010
0000
,
0100
0000
1000
0000
,
0001
0000
1000
0000
,
0010
0000
0010
0000
,
0001
0000
0001
0000
,
1000
0000
0100
0000
,
0001
0000
0000
0001
,
0001
0000
0100
0000
,
1000
0000
0100
0000
,
0001
0000
1000
0000
,
0100
0000
0010
0000
,
0110
0000
0001
0000
,
1000
0000
0010
0000
,
1001
0000
0000
0001
0000
0001
0000
0001
,
0000
0000
2000
0000
0000
0000
0000
3000
,
0000
0000
0110
0000
0000
0000
0000
1001
,
0000
1000
0000
0001
,
0000
0000
0110
0000
0000
0000
0000
1001
,
0000
1000
1000
0000
,
0010
0000
0000
0010
0000
0000
0000
0000
,
0010
0000
0000
0010
0000
0000
0000
0000
,
1000
1000
0000
0100
,
0000
0001
0000
0001
,
0001
0000
0000
0000
0000
0000
0000
0110
,
0000
0000
0000
0000
,
1000
1000
1000
0000
,
0100
0100
0100
0000
,
1000
0000
0010
0000
,
0100
0100
0100
0000
,
0110
0000
0001
0000
,
1000
0000
0100
0000
,
1000
0000
1000
0000
1000
0000
0000
1001
,
0000
0000
0000
0110
0000
0000
0000
0000
,
0001
0001
0001
0000
,
0010
0010
0010
0000
,
1000
0000
0010
0000
,
0001
0001
0000
1000
,
1000
0000
0000
0110
0000
0000
0000
0000
,
0001
0000
0000
0110
0000
0000
0000
0000
,
1000
1000
1000
1000
,
0000
0000
0220
0000
0000
0000
0000
0330
,
0001
0000
0000
0000
,
1000
0000
0000
0000
,
1001
0000
1000
0000
,
0010
0000
0000
0000
,
0002
0000
0000
0000
,
0000
0000
0000
0000
,
0000
0000
0000
0000
,
0003
0000
0000
0000
;

//---------------dance-double - Blank----------------
#NOTES:
     dance-double:
     Blank:
     Challenge:
     11:
     0.849,0.816,0.328,0.036,0.892,613.000,36.000,4.000,0.000,0.000,0.000,0.849,0.816,0.328,0.036,0.892,613.000,36.000,4.000,0.000,0.000,0.000:
00000000
00000000
00000000
00000000
,
00000010
00010000
00000100
00010000
01000000
00100000
00010000
01000000
,
00001000
00100000
00001000
01000000
00100000
00010000
00100000
10000000
,
01000000
00010000
00001000
00010000
00100000
00010000
00001000
00010000
,
00000100
00000000
00000000
00000010
00000000
00000000
00000100
00000000
00000000
00000000
00000000
00000000
00010000
00000000
00000000
00000000
00000000
00000000
00000000
00000000
00000000
00000010
00010000
00001000
,
00100000
01000000
00100000
00001000
00000010
00000100
00010000
00100000
,
20000000
00000000
00000000
00000000
00000000
00000000
00000000
00000000
30000000
00000000
00000000
00000000
01000000
00100000
00010000
00100000
,
00001000
00000000
00001000
00000000
00010000
00000000
00001000
00000000
00100000
00010000
01000000
00010000
00100000
00000000
00001000
00010000
,
00000010
00001000
00000100
00001000
00000010
00000000
00000100
00000001
00001000
00000100
00000010
00000001
00001000
00000100
00010000
00001000
,
01000000
00000000
00001000
00100000
00010000
00000000
00100000
00000000
01000000
10000000
01000000
00100000
00010000
00000000
01000000
00010000
,
10000000
00100000
01000000
00010000
01000000
00001000
00010000
00000010
00001000
00000100
00001000
00000001
00000010
00000100
00001000
00000010
,
00010000
00000000
00001000
00000000
00011000
00000000
00001000
00000000
00100000
01000000
00100000
00001000
00010000
00000000
00000010
00001000
,
00000010
00000100
00000010
00010000
00001000
00000000
00010000
00000100
00001000
00000001
00000100
00000001
00001000
00000000
00000010
00010000
,
00001000
00000000
00001000
00010000
00001000
00000000
00100000
00000000
00010000
01000000
00100000
10000000
01000000
00000000
10000000
01000000
,
00100000
00001000
01000000
00001000
00010000
00000000
00000010
00000000
00010000
00000100
00001000
00000000
00000100
00000010
00000001
00000010
,
00000001
00000000
00000000
00000001
00000100
00000000
00000010
00000000
00001000
00000001
00001000
00000010
00010000
00000000
00001000
00000000
,
00100000
00001000
00100000
00010000
10000000
00000000
00010000
10000000
00010000
01000000
00001000
00010000
00000100
00000010
00000100
00000000
,
00001000
00000010
00010000
00000100
00001000
00000000
00000100
00000000
00000010
00000001
00000100
00000010
00000100
00000000
00000001
00000100
,
00000010
00010000
00001000
00010000
00000010
00000000
00001000
00000100
00010000
00001000
00100000
01000000
00100000
00010000
01000000
00010000
,
10000000
01000000
10000000
00010000
00100000
00000000
00010000
10000000
00100000
01000000
00001000
00010000
00001000
00000000
00100000
00000000
,
00010000
01000000
00001000
00010000
00000010
00000000
00010000
00000100
00010000
00000010
00000100
00000010
00001000
00000001
00000010
00000000
,
00000001
00000000
00000010
00000100
00001000
00000000
00000100
00000000
00010000
00000000
00000010
00010000
00001000
00000000
01000000
00001000
,
00100000
00010000
00100000
01000000
00100000
00000000
00001000
01000000
00010000
10000000
00100000
01000000
00010000
00100000
01000000
10000000
,
00010000
00000000
00000000
00100000
01000000
00000000
00100000
00000000
00001000
00000000
00001000
00000000
01000000
00000000
00001000
00010000
,
00000010
00001000
00000010
00010000
00000100
00000000
00000010
00000000
00000001
00000010
00000100
00001000
00000010
00000100
00000001
00000010
,
00000001
00001000
00000100
00000010
00000001
00000000
00000010
00000000
00000001
00001000
00000010
00010000
00001000
00000000
01000000
00010000
,
10000000
01000000
00100000
00010000
00100000
00000000
01000000
10000000
00010000
01000000
00001000
00100000
00001000
00000000
00010000
00000000
,
00001000
00000000
00000010
00000000
00000100
00000000
00001000
00000000
00000100
00010000
00001000
00000010
00000100
00000000
00000000
00000000
,
00001000
00000000
00000010
00000000
00000001
00000000
00000010
00001000
00000001
00000100
00000001
00001000
00000010
00000000
00010000
00001000
,
00011000
00000000
00000000
00000000
00100000
00000000
00011000
00000000
00000010
00010000
00001000
00000000
00000000
00000000
01100000
00000000
,
00000000
00000000
10010000
00000000
01010000
00000000
00000000
00000000
00001000
00000000
00010000
00001000
01000000
00010000
10000000
01000000
,
00000000
00000000
00011000
00000000
00000010
00001000
00000100
00000110
,
00000000
00000000
00010000
00000000
00001000
00000000
00010000
00000000
00001000
01000000
00010000
10000000
01000000
00100000
00001000
00010000
,
00000000
00000000
00000101
00000000
00000010
00001000
00000100
00011000
,
00000000
00000000
00000010
00000000
00010000
00000000
00000000
00000000
01000000
00000000
10000000
00000000
00010000
00100000
01000000
10000000
,
01000000
00000000
00000000
00000000
00010000
00000000
00001000
00000000
00010000
00000100
00001000
00000100
00010000
00000000
00000010
00001000
,
00000001
00000000
00000000
00000000
00000010
00000000
00001000
00000000
00000000
00000000
00000000
00000000
00100000
00001000
01000000
00100000
,
01000000
00000000
00010000
01000000
00010000
00000000
00100000
00000000
10000000
00000000
00100000
00000000
00010000
00000000
00100000
00000000
,
00001000
00000000
00010000
00000100
00010000
00000000
00001000
00000000
00010000
00000010
00001000
00000100
00000010
00000001
00000100
00000001
,
00001000
00000000
00000000
00000010
00000000
00000000
00000110
00000000
00000001
00000000
00001000
00000000
00000100
00000000
00011000
00000000
,
00000000
00000000
00000000
00000000
10000000
01000000
00100000
00010000
01000000
00100000
00010000
00001000
00010000
00000010
00001000
00000001
,
00000010
00001010
01010000
11000000
,
00110000
00000000
00000000
00000000
00001100
00000000
00000100
00010000
00000010
00001000
00000000
00001000
00000001
00000100
00000010
00000100
,
00001000
00000000
00010000
00001000
01000000
00000000
00010000
00000000
00100000
01000000
00000000
01000000
10000000
00000000
01000000
00010000
,
00001000
00010000
00000100
00001000
00000001
00000010
00000001
00001000
00000010
00000100
00000010
00010000
00001000
01000000
00001000
00010000
,
00001000
00000000
00000000
00000000
00010000
00000000
01000000
00000000
10000000
00000000
00000000
00000000
00100000
00000000
10000000
00010000
,
01000000
00100000
00000000
00100000
00010000
00000000
00001000
00000000
00010000
00000100
00000000
00000000
00000010
00000000
00000100
00001000
,
00000100
00000000
00000001
00000100
00000010
00000000
00000001
00000000
00000010
00000000
00000100
00000000
00010000
00000000
00001010
00000000
,
00000000
00000000
00010000
00000000
00000100
00000000
00000010
00000100
00001000
00000010
00010000
00001000
00100000
00001000
01000000
00010000
,
10000000
01010000
00001100
00000101
,
00001010
00000000
00000000
00000000
01010000
00000000
00001000
01000000
00100000
00010000
00000000
00010000
00100000
01000000
00100000
10000000
,
00010000
00000000
10000000
01000000
00100000
00000000
10000000
00100000
01000000
00000000
00100000
00001000
00010000
00000000
00001000
00010000
,
00000010
00001000
00000000
00000000
00000001
00000000
00000100
00000010
00001000
00000100
00001000
00000000
00000100
00000000
00000010
00000000
,
00001001
00000001
00000100
00001010
00000000
00010100
00010000
00001000
,
01001000
00000000
01000000
00010000
00100000
00000000
11000000
00000000
00000000
00000000
00110000
00000000
00001000
00000000
00001000
00010000
,
00000100
00000000
00000000
00000000
00010000
00000000
00001000
00000000
00000100
00000001
00000010
00000000
00000100
00001000
00000100
00010000
,
00001000
00000000
00000000
00000000
00022000
00000000
00000000
00000000
00000000
00000000
00033000
00000000
00001000
00010000
00100000
10000000
,
00010000
00000000
01000000
00000000
00100000
00000000
10000000
00000000
00010000
00100000
01000000
00000000
10000000
00010000
00100000
00001000
,
00010000
00000000
00000000
01000000
00010000
00000000
00001000
00010000
00000010
00010000
00000010
00000000
00000100
00000001
00000100
00000010
,
00001000
00000000
00000000
00001100
00000000
00000000
00000110
00000000
00001001
00000000
00000000
00010100
00000000
00000000
00011000
00000000
,
01001000
00000000
00000000
00000000
,
10000000
00000000
01000000
00000000
00100000
00000000
00010000
00000000
00000000
00000000
00000010
00000000
00000100
00010000
00002000
00000000
,
00000000
00000000
00000000
00000000
,
00000000
00000000
00000000
00000000
,
00003000
00000000
00000000
00000000
;

//---------------dance-double - Hard----------------
#NOTES:
     dance-double:
     Hard:
     Hard:
     9:
     0.627,0.583,0.437,0.200,0.310,412.000,48.000,22.000,10.000,0.000,0.000,0.627,0.583,0.437,0.200,0.310,412.000,48.000,22.000,10.000,0.000,0.000:
00000000
00000000
00000000
00000000
,
10000000
00000000
00100000
00000000
00010000
00000000
00001000
00000100
,
00000010
00000100
00001000
00010000
00200000
00000000
00300000
00100000
,
00010000
00000000
00000001
00000002
00000000
00000000
00000000
00000000
,
00000003
00000010
00001000
00100000
,
00020000
00000000
00000000
00000000
,
00000000
00000000
00030000
00000000
00000000
00000000
00000000
00000000
00000000
00000000
00000000
00000000
00100000
00001000
00010000
00000100
,
00000010
00000000
00000100
00010000
00001000
00000010
00000000
00000100
,
00000001
00000000
00000100
00000010
00000001
00000100
00000010
00010000
,
00000000
00100000
00010000
00001000
00100000
00010000
00000000
00100000
,
01000000
00000000
00000000
00000000
10000000
00000000
00010000
00000000
01000000
00000000
00000000
00000000
00100000
01000000
00010000
10000000
,
00010000
01000000
10000000
01000000
00100000
10000000
01000000
00100000
,
00001000
00000000
01000000
00010000
00100000
00001000
00010000
00001000
,
00000100
00000000
00000000
00000000
00000001
00000000
00000010
00000001
00001000
00000000
00000010
00010000
00001000
00000000
01000000
00001000
,
00010000
00000000
00000000
00000000
00100000
00000000
10000000
00000000
00000000
00000000
01000000
00000000
10000000
00010000
00100000
00010000
,
00200000
00000000
00310000
10200000
00000000
00300000
00010000
00001000
,
00012000
00000000
00003010
00001010
00000000
00000001
00000010
00000100
,
00010200
00000000
00001300
00000201
00000000
00000000
00000310
00010000
,
00021000
00000000
00000000
00000000
00130000
00000000
10100000
00000000
00000000
00000000
10000000
00000000
00010000
00000000
10000000
00010000
,
00200000
00000000
00000000
00000000
00310000
00000000
10200000
00000000
00000000
00000000
00000000
00300000
01000000
00000000
00010000
00000000
,
10020000
00000000
00130000
00011000
00000000
00000010
00000100
00000010
,
00001001
00000000
00000000
00001000
00000001
00000000
00000100
00000000
00000110
00000000
00000000
00000010
00000100
00000000
00000010
00000000
,
00010000
00000000
00001000
00000000
00010000
00000000
00001000
01000000
00001000
00000000
00100000
00000000
00001000
00100000
00010000
10000000
,
00010000
00000000
00000000
01000000
00100000
00000000
10000000
00000000
00100000
00000000
01000000
00000000
00001000
00000000
00000000
00000000
,
00100000
00000000
00000000
01000000
00100000
00000000
00001000
00000000
00010000
00000000
00000010
00000000
00000100
00000000
00000010
00001000
,
00000001
00000000
00000000
00000010
00000001
00000000
00000010
00000000
00000100
00000000
00010000
00000000
00001000
00000000
00000000
00000000
,
01000000
00000000
00000000
00100000
10000000
00000000
00100000
00000000
01000000
00000000
00010000
00000000
00100000
00000000
01000000
00000000
,
01100000
00000000
00001000
00010000
00100000
00000000
00010000
00000000
,
00000100
00000000
00000010
00000000
00000100
00000000
00001000
00000000
00000001
00000000
00000100
00000000
00000001
00000000
00001000
00000010
,
00000100
00000000
00000010
00001010
0000M0M0
00011000
000MM000
00020100
,
00000000
00000000
00031000
00000000
00020000
00000000
00000000
00000000
00130000
00000000
01000000
00100000
10000000
01000000
00100000
00010000
,
00000000
00000000
00001020
00000000
00000130
00000001
00000010
00002001
,
00000000
00000000
00013000
00000000
00100000
00000000
01000000
00000000
00100000
00000000
00100000
00000000
01000000
10000000
00010000
01000000
,
00000000
00000000
00001200
00000000
00010300
00100000
01000000
01010000
,
00000000
00000000
00001000
00000000
00010000
00000000
00000010
00000000
00000100
00000000
00000100
00000000
00000010
00001000
00000010
00010000
,
00001000
00000000
00000000
00000000
00000010
00000000
00000001
00000000
00000000
00000000
00000010
00000000
00000100
00000000
00000010
00000100
,
00001000
00000000
00000000
00000000
00000010
00000000
00000001
00000000
00000000
00000000
00000000
00000000
00000010
00000100
00000001
00001000
,
00000100
00000000
00010000
00001000
01000000
00010000
01000000
00100000
,
10000000
01000000
00000000
00100000
01000000
10000000
00100000
01000000
,
00001000
00000000
00000000
01001000
00000000
00000000
00010100
00000000
00000000
00000000
00000010
00000000
00000001
00000000
00000101
00000000
,
00000000
00000000
00000000
00000000
00000001
00000100
00000001
00000100
00000010
00001000
00000010
00001000
00000100
00010000
00000100
00010000
,
00001000
00110000
10100000
01010000
,
00011000
00000000
00000000
00000000
00001100
00000000
00000000
00000000
00000011
00000000
00000000
00000000
00000010
00000100
00001000
00000001
,
00000100
00000000
00000000
00000000
00001000
00000000
00010000
00000000
00001000
00000000
00000000
00100000
01000000
00000000
00100000
00000000
,
00010000
00000000
00000000
00000000
10000000
00000000
00100000
00000000
01000000
00010000
00000000
00010000
00100000
00010000
00100000
00001000
,
00010000
00000000
00000000
00000000
00001000
00000000
00000010
00000000
00000100
00000000
00000000
00001000
00000100
00000000
00001000
00000000
,
00000010
00000000
00000000
00000100
00000010
00000000
00000001
00000000
00000010
00000000
00000000
00010000
00001000
00000000
00010000
00001000
,
00100000
00000000
00000000
00010000
01000000
00000000
00010000
00000000
10000000
00000000
01000000
00000000
MM000000
00000000
00210000
00000000
,
00000000
00000000
00301000
00000000
00010000
00000000
00000010
00000000
00000000
00000000
00000100
00000000
00000010
00000000
00000100
00000001
,
00001000
00000011
00001010
00011000
,
00110000
00000000
00000000
00000000
10100000
00000000
00000000
00000000
11000000
00000000
00000000
00000000
00010000
00100000
01000000
10000000
,
00010000
00000000
00000000
00000000
10000000
00000000
00100000
00000000
01000000
00000000
00000000
00001000
00010000
00000000
00001000
00000000
,
00010000
00000000
00000010
00000000
00000100
00000000
00000010
00000100
00000010
00001000
00000000
00001000
00000100
00000000
00000010
00000000
,
00000001
00000000
00000010
00000110
00000MM0
00001100
00010000
00001000
,
01010000
00000000
00010000
00000000
00100000
00000000
00110000
00000000
00MM0000
00000000
11000000
00000000
10000000
00000000
00010000
01000000
,
00010000
00000000
00000000
00000000
10000000
00000000
00100000
00000000
01000000
00000000
00010000
00000000
01000000
00001000
00010000
00000010
,
00001000
00000000
00000000
00000000
00000202
00000000
00000000
00000000
00000000
00000000
00000303
00000000
00000001
00001000
00000010
00010000
,
00002000
00000000
00000000
00100000
00000000
00000000
01000000
00000000
00003000
00000000
00010000
00000000
00100000
00000000
01000000
00000000
,
10000000
00000000
00000000
00000000
00010000
00000000
00100000
00000000
00000000
00100000
00001000
00000000
00010000
00000000
00000010
00001000
,
00000010
00000000
00000000
00001100
00000000
00000000
00011000
00000000
00010010
00000000
00000000
00001001
00000000
00000000
00000101
00000000
,
00000011
00000000
00000000
00000000
,
10000000
00000000
01000000
00000000
00100000
00000000
00010000
00000000
00000000
00000000
00000010
00000000
00000100
00010000
00002000
00000000
,
00000000
00000000
00000000
00000000
,
00000000
00000000
00000000
00000000
,
00003000
00000000
00000000
00000000
;

//---------------dance-double - Medium----------------
#NOTES:
     dance-double:
     Medium:
     Medium:
     7:
     0.437,0.437,0.209,0.064,0.123,306.000,23.000,7.000,0.000,0.000,0.000,0.437,0.437,0.209,0.064,0.123,306.000,23.000,7.000,0.000,0.000,0.000:
00000000
00000000
00000000
00000000
,
10000000
00000000
00100000
00000000
00010000
00000000
00001000
00000100
,
00000010
00000100
00001000
00010000
00200000
00000000
00300000
00100000
,
00010000
00000000
00000001
00000002
00000000
00000000
00000000
00000000
,
00000003
00000010
00001000
00100000
,
00020000
00000000
00000000
00000000
,
00000000
00030000
00000000
00000000
00000000
00000000
00000000
00000000
,
10000000
00000000
00100000
01000000
00000000
01000000
00010000
10000000
,
01000000
00000000
00100000
00001000
00000000
00001000
00010000
00000010
,
00001000
00000000
00000100
00000010
00000000
00000010
00000001
00001000
,
00000010
00000000
00000100
00000010
00000000
00000000
00010000
00000000
,
00011000
00000000
00000010
00000000
00000100
00000001
00000000
00000100
,
00000010
00000000
00000100
00001000
00000000
00010000
00001000
01000000
,
00000000
00001000
00100000
00000000
00010000
00100000
00000000
01000000
,
00100000
00000000
10000000
00100000
00000000
01000000
10000000
00010000
,
01000000
00000000
00000000
00100000
00000000
00000000
01000000
00000000
00001000
00000000
00000000
00000000
00100000
00000000
00000000
00000000
,
01000000
00000000
00000000
00100000
00000000
00000000
00001000
00000000
00010000
00000000
00000000
00000000
00000010
00000000
00001000
00000010
,
00001000
00000000
00000000
00000100
00000000
00000000
00001000
00000000
00000001
00000000
00000000
00000000
00000010
00000000
00000000
00000000
,
00000001
00000000
00000000
00000100
00000000
00000000
00000010
00000000
00010000
00000000
00000000
00000000
00001000
00000000
00000000
00000000
,
00100000
00000000
01000000
00000000
00100000
00000000
00010000
00100000
00000000
00000000
00000000
00000000
00010000
00000000
00000000
00000000
,
10000000
00000000
00100000
00000000
01000000
00000000
00100000
10000000
00000000
00000000
00000000
00000000
00010000
00000000
10000000
00000000
,
01000000
00000000
00000000
00000000
00100000
00000000
00010000
00000000
01000000
00000000
00000000
00100000
01000000
00000000
00001000
00000000
,
00010000
00001000
00001000
00000000
00000010
00000000
00000100
00001000
,
00000001
00000000
00000000
00000100
00000000
00000000
00000001
00000000
00001000
00000000
00001000
00000000
00000100
00000000
00000000
00000000
,
00010000
00000000
00000000
00001000
00000000
00000000
01000000
00000000
00010000
00000000
00100000
00000000
00010000
00000000
10000000
01000000
,
10000000
00000000
00000000
00010000
00000000
00000000
01000000
00000000
00100000
00000000
10000000
00000000
00010000
00000000
00000000
00000000
,
10000000
00000000
00000000
01000000
00000000
00000000
00100000
00000000
00010000
00000000
00100000
00000000
00001000
00000000
00010000
00000000
,
00001000
00000000
00000100
00000010
00000100
00000000
00000001
00000000
,
00001000
00000000
00000100
00000000
00000010
00000000
00000100
00000000
00000000
00000000
00010000
00000000
00001000
00000000
01000000
00001000
,
01000000
00000000
00100000
10000000
00000000
01000000
00000000
00110000
,
00000000
00010000
10000000
00000000
00010000
01000000
00001000
00010000
,
00000000
00000000
00001010
00000000
00000100
00000001
00000010
00000200
,
00000000
00010000
00010300
00000000
00001000
00100000
00001000
00010000
,
00000000
00000000
00001100
00000000
00000000
00000001
00000100
00000010
,
00000000
00010000
00001000
00000000
01000000
00100000
01000000
00010000
,
10000000
00000000
01000000
00010000
00000000
00001000
00010000
00000000
,
00000010
00000000
00000100
00001000
00000000
00010000
00001000
00000000
,
01000000
00000000
00010000
01000000
00010000
10000000
01000000
00100000
,
00001000
00000000
00010000
00000000
00000000
00000000
00010000
00000000
00000100
00000000
00000000
00001000
00000000
00000000
00000010
00000000
,
00000100
00000000
00000000
00000001
00000000
00000000
00000100
00000000
00000000
00000000
00000010
00000000
00010000
00000000
00001000
00000000
,
00000000
00000000
00000000
00000000
,
00101000
00101000
00010010
00010010
,
00010100
00010100
01001000
00010000
,
10000000
00000000
00000000
00000000
01000000
00000000
00000000
00000000
00100000
00000000
00000000
00010000
00000000
00000000
10000000
00000000
,
00100000
01000000
01000000
00000000
00010000
01000000
00001000
00100000
,
00001000
00000000
00000000
00000000
00010000
00000000
00000010
00000000
00000100
00000000
00000000
00000010
00000000
00000000
00001000
00000000
,
00000100
00000000
00000000
00010000
00000000
00000000
00000010
00000000
00000100
00000000
00000000
00000001
00000000
00000000
00000100
00000010
,
00000100
00000000
00000000
00000010
00000000
00000000
00010000
00000000
00001000
00000000
00010000
00000000
00000000
00000000
00210000
00000000
,
00000000
00310000
10000000
00100000
00000000
01000000
00100000
00000000
,
01010000
01010000
00011000
00011000
,
00001100
00001100
00001010
00010000
,
00001000
00000000
00000000
00000000
00000010
00000000
00000000
00000000
00000100
00000000
00000000
00000010
00000000
00000000
00000001
00000000
,
00000100
00000010
00000010
00000000
00000100
00000000
00000001
00001000
,
00000010
00000000
00000010
00000110
00000000
00001001
00000000
00000000
,
00000010
00010000
00000000
00011000
00000000
00101000
00000000
00000000
,
00010000
00000000
00000000
01000000
00000000
00000000
00100000
00000000
10000000
00000000
00000000
01000000
00000000
00000000
00100000
00000000
,
01000000
00000000
01000000
10000000
01000000
00100000
00001000
00020000
,
00000000
00000000
00000000
00000000
,
00000000
00000000
00000000
00030000
,
00001000
00000000
00000000
00000010
00000000
00000000
00000001
00000000
00001000
00000000
00000000
00000100
00000000
00000000
00000001
00000000
,
00000100
00000000
00000000
00010000
00001000
00000000
00000100
00000000
,
00000002
00000000
00000000
00000000
,
00000000
00000000
00000000
00000000
,
00000000
00000000
00000000
00000000
,
00000003
00000000
00000000
00000000
;

//---------------dance-double - Easy----------------
#NOTES:
     dance-double:
     Easy:
     Easy:
     4:
     0.284,0.320,0.155,0.082,0.000,192.000,17.000,9.000,0.000,0.000,0.000,0.284,0.320,0.155,0.082,0.000,192.000,17.000,9.000,0.000,0.000,0.000:
00000000
00000000
00000000
00000000
,
10000000
01000000
00100000
00001000
,
00010000
00100000
01000000
01000000
,
00001000
00000010
00000100
00000010
,
00000001
00000100
00000010
00000000
,
00020000
00000000
00000000
00000000
,
00000000
00030000
00000000
00000000
00000000
00000000
00000000
00000000
,
00001000
00010000
00000000
00100000
,
00000000
10000000
00000000
01000000
,
10000000
00100000
00000000
00010000
,
00000000
00001000
00010000
00000000
,
00000100
00000010
00000001
00001000
,
00000010
00010000
00001000
01000000
,
00010000
00100000
01000000
00100000
,
00010000
00000000
00000000
00010000
00000000
00000000
01000000
00000000
,
00001000
00000000
00010000
00001000
00000000
00000000
00010000
00000000
,
00000010
00000000
00001000
00000010
00000000
00000000
00001000
00000000
,
00000100
00000000
00010000
00000100
00000000
00000000
00010000
00000000
,
00001000
00000000
01000000
00001000
00000000
00000000
01000000
00000000
,
00010000
00000000
00100000
00010000
00000000
00000000
00100000
00000000
,
01000000
00000000
10000000
01000000
00000000
00000000
10000000
00000000
,
00100000
01000000
00010000
00100000
,
00001000
00010000
00000000
00010000
,
00000010
00000100
00000000
00000100
,
00000001
00000010
00000000
00000100
,
00010000
00001000
00000000
00001000
,
01000000
00100000
00000000
01000000
,
00010000
10000000
01000000
00100000
,
00001000
00000000
00010000
00000000
,
00011000
00000000
00000000
00000010
00000000
00000010
00000000
00001000
,
00000000
00000000
00000200
00000000
00000000
00000000
00000000
00000300
,
00000000
00000000
00000011
00000000
00000000
00000001
00000000
00001000
,
00000000
00000010
00000100
00001000
,
00000000
00000000
00011000
00000000
00000000
00010000
00000000
00001000
,
00000000
01000000
00010000
00100000
,
00010000
00000000
00000000
00110000
00000000
00000000
10000000
00000000
,
00100000
00000000
00000000
01100000
00000000
00000000
10000000
00000000
,
00010000
00100000
00000000
00100000
,
01000000
00010000
00000000
00001000
,
00010000
00000000
00000000
00110000
00000000
00000000
00000000
00011000
,
00000000
00000000
00000000
00000000
,
00000001
00000100
00000010
00010000
,
00000100
00000010
00001000
00010000
,
00001000
01000000
00100000
10000000
,
01000000
00100000
00001000
00001000
,
00010000
01000000
00010000
00001000
,
00010000
00000010
00000100
00000001
,
00000010
00000000
00000100
00000000
00000010
00000000
00000000
00002200
,
00000000
00000000
00003300
00022000
00000000
00000000
00033000
00000000
,
01000000
00001000
00010000
00100000
,
10000000
01000000
00100000
00010000
,
10000000
00100000
01000000
00001000
,
00010000
00001000
00000100
00000001
,
00000010
00000000
00000000
00000011
00000000
00001001
00000000
00000000
,
00001000
00000000
00000000
00001010
00000000
00010010
00000000
00000000
,
00010000
00001000
00010000
00100000
,
01000000
00000000
02200000
00000000
00000000
03300000
00010000
00000000
,
00100000
00000000
00000000
00001000
00000000
00000000
00000000
00000000
,
00000010
00000000
00000000
00001000
00000000
00000000
00010000
00000000
,
00011000
00000000
00001010
00000000
,
00000011
00000000
00000000
00000000
,
00001000
00000000
00000000
00000010
00000000
00000010
00000000
00000200
,
00000000
00000000
00000000
00000000
,
00000000
00000000
00000000
00000000
,
00000300
00000000
00000000
00000000
;
