#TITLE:Cruel Angel's Thesis;
#SUBTITLE:(OP-1);
#ARTIST:鷺巣詩郎;
#TITLETRANSLIT:;
#SUBTITLETRANSLIT:;
#ARTISTTRANSLIT:Shiro Sagisu;
#GENRE:;
#CREDIT:;
#BANNER:cruelangelthesis-bn.png;
#BACKGROUND:cruelangelthesis-bg.png;
#LYRICSPATH:;
#CDTITLE:;
#MUSIC:OP-1 (Zankoku na Tenshi no TEIZE (Cruel Angel's Thesis)).ogg;
#OFFSET:-0.150;
#SAMPLESTART:29.180;
#SAMPLELENGTH:12.000;
#SELECTABLE:YES;
#BPMS:0.000=132.160;
#STOPS:;
#TIMESIGNATURES:0.000=4=4
;
#BGCHANGES:0.000=cat.avi=1.000=0=0=1=====,
99999=-nosongbg-=1.000=0=0=0 // don't automatically add -songbackground-
;
#KEYSOUNDS:;

//---------------dance-single - Dark Luke----------------
#NOTES:
     dance-single:
     Dark Luke:
     Challenge:
     10:
     0.959,0.863,0.271,0.688,1.000,510.000,24.000,61.000,40.000,0.000,0.000,0.959,0.863,0.271,0.688,1.000,510.000,24.000,61.000,40.000,0.000,0.000: // measure 1
0100
0010
0100
1000
0100
0010
0100
1000
0100
0010
0100
1000
0100
0010
0100
1000
,  // measure 2
0001
0100
0010
0100
0001
0100
0010
0100
0001
0100
0010
0100
0001
0100
0010
0100
,  // measure 3
0001
0010
0001
1000
0001
0010
0001
1000
0100
0010
0100
1000
0100
0010
0100
1000
,  // measure 4
0001
0010
0100
0010
0001
0010
0100
0010
0001
1000
0010
1000
0001
1000
0010
1000
,  // measure 5
0001
0100
0010
0100
0001
1000
0010
1000
0100
0010
0100
1000
0001
0010
0100
0010
,  // measure 6
0001
1000
0001
0100
0010
1000
0010
0100
0001
1000
0100
1000
0001
0010
0100
0010
,  // measure 7
0001
1000
0010
1000
0100
0010
0100
1000
0001
1000
0100
0010
0001
1000
0010
0100
,  // measure 8
0001
0000
0M01
0000
100M
0000
M001
0000
0202
0000
0303
0011
0000
00MM
0000
0000
,  // measure 9
1000
0000
0100
0000
0110
0000
0001
0000
0100
0000
0010
0100
0001
0000
0010
0000
,  // measure 10
0100
0000
0100
0000
0011
0000
0010
0000
0100
1000
0000
0100
0010
0000
0001
0000
,  // measure 11
0100
0000
0010
0000
0110
0000
1000
0000
0100
0000
1000
0010
0100
0000
0001
0000
,  // measure 12
0010
0000
001M
0000
01M0
0000
0M10
0000
0220
0000
0330
0002
0010
0003
0001
0100
,  // measure 13
0010
0000
1000
0000
0101
0000
0010
0000
1000
0000
0100
0010
0001
0000
0010
0000
,  // measure 14
0001
0000
1000
0000
0110
0000
0001
0000
0100
0010
0000
1000
0100
0000
1000
0000
,  // measure 15
0001
0000
0100
0000
0011
0000
0001
0000
1000
0000
0010
1000
0100
0000
0010
0000
,  // measure 16
0100
0000
01M0
0000
1M00
0000
M100
0000
2200
0000
3300
0002
0010
0103
0010
0001
,  // measure 17
0200
0010
0000
0301
0M02
0000
0003
MM01
,  // measure 18
2000
0010
0000
3100
M200
0000
0300
M100
,  // measure 19
0020
0000
0000
0032
0100
0003
0020
0000
0230
0000
0000
2300
0100
0000
3200
0000
,  // measure 20
0320
0000
0000
0032
0010
0000
0023
0000
2030
0000
0000
0000
0100
3000
1000
0100
,  // measure 21
0020
0000
0030
0020
1000
0030
0100
0000
0200
0000
0000
0000
0001
0000
0310
0001
,  // measure 22
2000
0000
0000
3002
0100
0003
0020
0000
0230
0000
0000
0000
0300
0000
0M01
0000
,  // measure 23
0002
0000
0000
0000
0000
0000
0000
0000
0003
0200
0000
0000
0010
0000
0000
0300
0000
0000
2000
0000
0000
0000
0000
0000
3200
0000
0000
0000
0000
0000
0010
0000
0000
0300
0000
0000
0002
0000
0000
0000
0000
0000
0100
0000
0000
0003
0000
0000
,  // measure 24
0002
0000
0000
0000
0000
0000
0010
0000
0000
0000
0000
0000
0100
0000
0000
0000
0000
0000
0000
0000
0000
0003
0000
0000
2000
0000
0000
0000
0000
0000
0000
0000
0000
3100
0000
0000
0010
0000
0001
0000
1000
0000
0100
0000
0010
0000
0001
0000
,  // measure 25
2000
0000
0000
0000
0000
0000
0001
0000
0000
3000
0000
0000
0001
0000
1000
0000
0100
0000
1000
0000
0001
0000
0010
0000
0001
0000
0000
0000
0000
0000
0000
0000
0000
0000
0000
0000
0010
0000
0000
0000
0000
0000
0001
0000
0000
0000
0000
0000
,  // measure 26
0200
0000
0000
0000
0000
0000
0010
0000
0000
0300
0000
0000
0010
0000
1000
0000
0001
0000
0100
0000
0010
0000
1000
0000
0001
0000
0000
0000
0000
0000
0000
0000
0000
0000
0000
0000
0100
0000
0000
0000
0000
0000
0010
0000
0000
0000
0000
0000
,  // measure 27
1000
0000
0000
0100
0000
0000
0100
1000
0100
0010
0001
0010
0100
0000
0000
0000
0000
0000
0100
0000
0000
1000
0000
0000
,  // measure 28
0001
0000
0000
0000
0000
0000
0001
0000
0000
0000
0000
0000
0100
0000
0010
0000
0100
0000
0001
0000
1000
0000
0001
0000
0100
0000
0000
0000
0000
0000
0000
0000
0000
0100
0000
0000
0010
0000
0000
0000
0000
0000
1000
0000
0000
0000
0000
0000
,  // measure 29
0100
0000
0020
0000
0000
0030
0M10
0000
0001
0000
0100
0010
1000
0000
0001
0100
,  // measure 30
0020
0000
1000
0000
0000
0000
1030
0000
0100
0000
1000
0010
0100
0000
0001
0010
,  // measure 31
0200
0010
0000
0310
0001
0000
0100
0001
,  // measure 32
1001
0001
1000
0000
000M
0000
1100
0000
0001
0100
0010
1000
0100
0010
0001
0100
,  // measure 33
0020
0000
0000
0030
0201
0000
0000
030M
1000
0000
0100
0010
0000
0001
0010
0000
,  // measure 34
0001
0000
00M1
0000
1010
0000
01M0
0000
0010
1000
0000
M200
0010
0300
0100
0000
,  // measure 35
02M0
0000
0000
0300
0012
0000
0000
00M3
1000
0000
0010
0100
0000
0001
0010
0000
,  // measure 36
0100
0000
01M0
0000
1001
0000
M001
0000
0100
0010
0M00
0220
0000
0300
0130
0010
,  // measure 37
2000
0000
0000
3000
0201
0000
0000
030M
0010
0000
0100
0001
0000
1000
0100
0000
,  // measure 38
1000
0M00
1000
0000
0110
0000
00M1
0000
1000
0010
0000
20M0
0100
3000
1000
0000
,  // measure 39
2M00
0000
0000
3000
0012
0000
0000
00M3
0100
0000
0001
0010
0000
0100
0010
0000
,  // measure 40
0001
0000
00M1
0000
010M
0000
0M01
0000
2020
0000
3030
0202
0000
0303
0000
0000
,  // measure 41
0010
0100
0010
1000
0010
0100
0010
1000
0010
0100
0010
1000
0010
0100
0010
1000
,  // measure 42
0001
0010
0100
0010
0001
0010
0100
0010
0001
0010
0100
0010
0001
0010
0100
0010
,  // measure 43
0001
0100
0001
0010
0001
0100
0001
0010
0001
0100
0001
0010
0001
0100
0001
0010
,  // measure 44
0100
1000
0010
1000
0100
1000
0010
1000
0100
1000
0010
1000
0100
1000
0010
0100
,  // measure 45
0001
1000
0100
1000
0010
0100
0001
0100
0010
1000
0100
1000
0001
0010
0100
0010
,  // measure 46
0001
0100
0001
1000
0010
0100
0010
1000
0100
0010
0100
1000
0001
0010
0001
0100
,  // measure 47
0010
1000
0001
1000
0100
0010
0100
1000
0001
0100
0010
1000
0100
0010
0001
0100
,  // measure 48
0010
0000
0M10
0000
01M0
0000
0M10
0000
2020
0000
3030
0022
0000
0033
0000
0000
;

//---------------dance-single - Dark Luke----------------
#NOTES:
     dance-single:
     Dark Luke:
     Hard:
     8:
     0.682,0.701,0.293,1.000,0.423,293.000,26.000,104.000,50.000,0.000,0.000,0.682,0.701,0.293,1.000,0.423,293.000,26.000,104.000,50.000,0.000,0.000: // measure 1
2100
0000
0000
0000
0000
0000
0000
3000
,  // measure 2
0201
0000
0000
0000
0000
0000
0000
0300
,  // measure 3
0021
0000
0000
0000
0000
0000
0000
0030
,  // measure 4
1002
0000
0000
0000
0000
0000
0000
0003
,  // measure 5
1000
1000
0100
0100
0010
0010
0001
0001
,  // measure 6
1000
1000
0010
0010
0100
0100
0001
0001
,  // measure 7
1000
0000
0100
0000
0010
0000
0001
0000
1000
0100
0010
0001
1000
0100
0010
0001
,  // measure 8
0010
0000
001M
0000
0100
0000
0010
0000
0220
0000
0330
0011
0000
00MM
0000
0000
,  // measure 9
2000
0000
0000
3000
0020
M000
0000
0030
0200
00M0
0000
0302
0000
0000
0103
0000
,  // measure 10
0M10
0000
0010
0000
1000
0000
0001
0000
0010
0100
0000
0M20
0000
0030
0000
0000
,  // measure 11
0020
0000
0000
0030
0002
00M0
0000
0003
2000
000M
0000
3020
0000
0000
0130
0000
,  // measure 12
0M01
0000
0001
0000
0100
0000
0001
0000
0202
0000
0303
2020
0000
3030
0000
00M0
,  // measure 13
2000
0000
0000
3000
0200
M000
0000
0300
0020
0M00
0000
0230
0000
0000
0310
0000
,  // measure 14
00M1
0000
0001
0000
1000
0000
0010
0000
0100
0001
0000
020M
0000
0300
0000
0000
,  // measure 15
0200
0000
0000
0300
0020
0M00
0000
0030
2000
00M0
0000
3200
0000
0000
1300
0000
,  // measure 16
M010
0000
0010
0000
0100
0000
0010
0000
2020
0000
3030
0202
0000
0303
0000
000M
,  // measure 17
0M20
0000
0000
1030
20M0
0000
3000
10M0
,  // measure 18
0002
0000
0000
0013
002M
0000
0030
001M
,  // measure 19
0200
0000
0000
0320
0000
0000
0230
0000
2300
0000
0M00
3002
0000
0000
2003
0000
,  // measure 20
3020
0000
M000
0230
0000
0000
0320
0000
2030
0000
00M0
0000
3000
0000
1000
0100
,  // measure 21
0020
0000
0030
0M20
0000
0000
0130
0000
02M0
0000
0000
0000
0000
0300
0010
0001
,  // measure 22
2000
000M
0000
3002
0000
0000
0203
0000
0320
0000
0M00
0000
0000
0030
1000
0000
,  // measure 23
20M0
0000
0000
3200
0000
0000
0320
0000
0032
0000
00M0
0000
0203
0000
0000
0300
,  // measure 24
020M
0000
0000
0000
0001
0000
0000
0300
0020
0M00
0000
0130
0001
0000
0001
0000
,  // measure 25
2000
0100
3100
0010
0M20
0000
0031
100M
,  // measure 26
0020
0100
0130
0001
0M02
0000
1003
M001
,  // measure 27
0020
0000
0000
0230
0010
0000
0320
0000
0230
0000
0000
2300
0100
0000
3200
0000
,  // measure 28
2300
0000
0000
3002
1000
0000
2003
0000
3020
0000
0000
0000
0130
0000
0010
1000
,  // measure 29
0002
0000
0003
0002
0100
0003
0020
0000
1030
0000
0010
0100
0001
0000
0100
0010
,  // measure 30
2000
0000
0000
3002
0010
0003
0200
0000
1300
0000
0001
1000
0100
0000
0010
0001
,  // measure 31
0020
0000
0000
0230
1000
0300
0002
0000
2003
0000
0000
3020
0100
0030
0001
0000
,  // measure 32
1000
0001
1000
0000
000M
0000
1100
0000
0001
0010
0100
1000
0100
0010
0001
1000
,  // measure 33
0002
0000
0000
0003
0110
0000
0000
0000
10M0
0000
0001
0100
0000
0010
1000
0000
,  // measure 34
0100
0000
0100
0000
0011
0000
1000
0000
0010
0100
0000
0020
1000
0030
0010
0000
,  // measure 35
0M20
0000
0000
0030
1001
0000
0000
0000
M001
0000
0010
0100
0000
0010
0100
0000
,  // measure 36
1000
0000
1M00
0000
0001
0000
1000
0000
0001
0100
0000
0120
0000
0M00
0030
0000
,  // measure 37
2000
0000
0000
3000
0011
0000
0000
0000
100M
0000
0100
1000
0000
0100
0010
0000
,  // measure 38
0100
0000
0100
0000
1001
0000
0001
0000
0100
0010
0000
0200
0001
0300
0100
0000
,  // measure 39
020M
0000
0000
0300
1010
0000
0000
0000
M001
0000
0010
0100
0000
1000
0100
0000
,  // measure 40
0010
0000
0M10
0000
0100
0000
0010
0000
0220
0000
0330
0022
0000
0033
0000
0000
,  // measure 41
0102
0000
0000
0000
0000
0000
0000
0003
,  // measure 42
1020
0000
0000
0000
0000
0000
0000
0030
,  // measure 43
1200
0000
0000
0000
0000
0000
0000
0300
,  // measure 44
2010
0000
0000
0000
0000
0000
0000
3000
,  // measure 45
0001
0001
0010
0010
0100
0100
1000
1000
,  // measure 46
0001
0001
0100
0100
0010
0010
1000
1000
,  // measure 47
0001
0000
0010
0000
0100
0000
1000
0000
0001
0010
0100
1000
0001
0010
0100
1000
,  // measure 48
0001
0000
M001
0000
0100
0000
0001
0000
0202
0000
0303
0022
0000
0033
0000
0000
;

//---------------dance-single - Dark Luke----------------
#NOTES:
     dance-single:
     Dark Luke:
     Easy:
     4:
     0.293,0.296,0.102,0.226,0.034,153.000,9.000,20.000,0.000,0.000,0.000,0.293,0.296,0.102,0.226,0.034,153.000,9.000,20.000,0.000,0.000,0.000: // measure 1
2000
0000
0000
0000
0000
0000
0000
3000
,  // measure 2
0200
0000
0000
0000
0000
0000
0000
0300
,  // measure 3
0020
0000
0000
0000
0000
0000
0000
0030
,  // measure 4
0002
0000
0000
0000
0000
0000
0000
0003
,  // measure 5
1000
1000
0100
0100
,  // measure 6
0010
0010
0001
0001
,  // measure 7
1000
0010
0100
0001
,  // measure 8
0100
0000
0100
0000
0010
0000
0100
0000
0100
0000
0000
0001
0000
0000
0000
0000
,  // measure 9
2000
0000
3002
0000
,  // measure 10
0203
0000
0320
0000
,  // measure 11
2030
0000
3200
0000
,  // measure 12
1300
0000
1000
0000
0001
0000
1000
0000
1000
0000
0000
0100
0000
0000
0000
0000
,  // measure 13
0020
0000
0032
0000
,  // measure 14
0203
0000
0320
0000
,  // measure 15
2030
0000
3200
0000
,  // measure 16
0310
0000
0010
0000
0100
0000
0010
0000
0010
0000
0000
0001
0000
0000
0000
0000
,  // measure 17
1000
0010
1000
0000
,  // measure 18
0100
0010
0100
0000
,  // measure 19
0010
0001
0010
0100
,  // measure 20
1000
0010
1000
0000
,  // measure 21
0001
0100
0010
0000
,  // measure 22
1000
0001
0010
0000
,  // measure 23
0001
0100
0010
0010
,  // measure 24
1000
0000
0001
0000
,  // measure 25
0010
0001
0100
0000
,  // measure 26
0010
1000
0100
0000
,  // measure 27
1000
0100
0010
0001
,  // measure 28
1000
0010
0100
0000
,  // measure 29
0010
1000
0100
0000
,  // measure 30
0010
0001
0100
0000
,  // measure 31
0010
0010
0100
0001
,  // measure 32
0110
0000
0000
0100
0010
0000
0000
0000
,  // measure 33
1000
1001
0100
0100
,  // measure 34
0001
0110
0010
0010
,  // measure 35
1000
1010
0001
0010
,  // measure 36
0100
0000
0000
0000
0110
0000
0000
0000
1000
0000
0000
1001
0000
0000
0000
0000
,  // measure 37
0001
0011
1000
1000
,  // measure 38
0010
1010
0100
0100
,  // measure 39
0001
1001
0010
0100
,  // measure 40
0001
0000
0001
0000
0100
0000
0001
0000
0001
0000
0000
0010
0000
0000
0000
0000
,  // measure 41
0002
0000
0000
0000
0000
0000
0000
0003
,  // measure 42
0200
0000
0000
0000
0000
0000
0000
0300
,  // measure 43
0020
0000
0000
0000
0000
0000
0000
0030
,  // measure 44
2000
0000
0000
0000
0000
0000
0000
3000
,  // measure 45
0001
0001
0100
0100
,  // measure 46
0010
0010
1000
1000
,  // measure 47
0001
0010
0100
1000
,  // measure 48
0100
0000
0100
0000
1000
0000
0100
0000
0100
0000
0000
0010
0000
0000
0000
0000
;

//---------------dance-single - Dark Luke----------------
#NOTES:
     dance-single:
     Dark Luke:
     Medium:
     6:
     0.498,0.565,0.417,0.541,0.141,224.000,37.000,48.000,0.000,0.000,0.000,0.498,0.565,0.417,0.541,0.141,224.000,37.000,48.000,0.000,0.000,0.000: // measure 1
2100
0000
0000
0000
0000
0000
0000
3000
,  // measure 2
0210
0000
0000
0000
0000
0000
0000
0300
,  // measure 3
0021
0000
0000
0000
0000
0000
0000
0030
,  // measure 4
0102
0000
0000
0000
0000
0000
0000
0003
,  // measure 5
1000
0100
0010
0001
,  // measure 6
1000
0010
0100
0001
,  // measure 7
1000
0000
0100
0000
1000
0100
0010
0001
,  // measure 8
0010
0000
0010
0000
0100
0000
0010
0000
0220
0000
0330
0011
0000
0000
0000
0000
,  // measure 9
2100
0000
0010
3000
0102
0000
0010
0003
,  // measure 10
1200
0000
0010
0300
1002
0000
0100
0003
,  // measure 11
0021
0000
0100
0030
2001
0000
0010
3000
,  // measure 12
0001
0000
0001
0000
0100
0000
0001
0000
0202
0000
0303
0220
0000
0330
0000
0000
,  // measure 13
1002
0000
0100
0003
2010
0000
0001
3000
,  // measure 14
1200
0000
0010
0300
2001
0000
0010
3000
,  // measure 15
0202
0003
0010
0300
0102
0000
1000
0003
,  // measure 16
0100
0000
0100
0000
1000
0000
0100
0000
0220
0000
0330
0022
0000
0033
0000
0000
,  // measure 17
1000
0010
0000
0010
1000
0000
0001
1000
,  // measure 18
0100
0010
0000
0010
0001
0000
0010
0001
,  // measure 19
0100
0010
0000
0010
1000
0000
0001
0010
,  // measure 20
0100
1000
0000
1000
0010
0000
0100
0001
,  // measure 21
1000
0100
0000
0100
0001
0000
0100
0000
,  // measure 22
0010
1000
0000
1000
0010
0000
0010
0001
,  // measure 23
0100
0010
0000
0100
0010
1000
0100
1000
,  // measure 24
0001
0010
0100
0000
0010
0000
0001
1000
,  // measure 25
0020
0000
0000
1030
2000
0000
3000
1000
,  // measure 26
0002
0000
0000
1003
2000
0000
3000
1000
,  // measure 27
0100
0000
0000
0010
0000
0000
0100
0000
1000
0000
0000
0001
0000
0000
0100
0000
,  // measure 28
1000
0000
0000
0100
0000
0000
0010
0000
2000
0000
0000
0000
3000
0000
1000
0100
,  // measure 29
0010
0000
0000
0010
0000
0000
0100
0000
0200
0000
0000
0000
0300
0000
0010
0001
,  // measure 30
1000
0000
0000
0001
0000
0000
0100
0000
0020
0000
0000
0000
0030
0000
1000
0000
,  // measure 31
1000
0000
0000
0001
0000
0000
0010
0000
0001
0000
0000
1000
0000
0000
0010
0000
,  // measure 32
0100
0010
0100
0000
0000
0000
1010
0000
0101
0000
0000
0000
0010
0000
0000
0000
,  // measure 33
2000
0000
0000
3000
0011
0000
0000
0000
0100
0000
0000
1000
0000
0000
0100
0000
,  // measure 34
1000
0000
1000
0000
0001
0000
0010
0000
0100
1000
0000
0100
0000
0000
0100
0000
,  // measure 35
2000
0000
0000
3000
0110
0000
0000
0000
0001
0000
0000
0100
0000
0000
0010
0000
,  // measure 36
1000
0000
1000
0000
0001
0000
1000
0000
0100
0010
0000
0220
0000
0000
0330
0000
,  // measure 37
0002
0000
0000
0003
1010
0000
0000
0000
0100
0000
0000
0010
0000
0000
0100
0000
,  // measure 38
0001
0000
0001
0000
1000
0000
0010
0000
0100
0001
0000
0100
0000
0000
0100
0000
,  // measure 39
0020
0000
0000
0030
0101
0000
0000
0000
1000
0000
0000
0100
0000
0000
0010
0000
,  // measure 40
0001
0000
0001
0000
0100
0000
0001
0000
0202
0000
0303
2020
0000
3030
0000
0000
,  // measure 41
0102
0000
0000
0000
0000
0000
0000
0003
,  // measure 42
1020
0000
0000
0000
0000
0000
0000
0030
,  // measure 43
0210
0000
0000
0000
0000
0000
0000
0300
,  // measure 44
2001
0000
0000
0000
0000
0000
0000
3000
,  // measure 45
0001
0100
0010
1000
,  // measure 46
0001
0010
0100
1000
,  // measure 47
0001
0000
0100
0000
0001
0100
0010
1000
,  // measure 48
0100
0000
0100
0000
1000
0000
0100
0000
0110
0000
0000
0011
0000
0000
0000
0000
;

//---------------dance-single - Dark Luke----------------
#NOTES:
     dance-single:
     Dark Luke:
     Beginner:
     2:
     0.160,0.161,0.135,0.000,0.000,87.000,12.000,0.000,0.000,0.000,0.000,0.160,0.161,0.135,0.000,0.000,87.000,12.000,0.000,0.000,0.000,0.000: // measure 1
1000
0000
0000
0000
,  // measure 2
0100
0000
0000
0000
,  // measure 3
0010
0000
0000
0000
,  // measure 4
0001
0000
0000
0000
,  // measure 5
1000
0000
1000
0000
,  // measure 6
0010
0000
0010
0000
,  // measure 7
0100
0000
0100
0000
,  // measure 8
1001
0000
1001
0000
,  // measure 9
1000
0000
0001
0000
,  // measure 10
0100
0000
0001
0000
,  // measure 11
1000
0000
0100
0000
,  // measure 12
0110
0000
0110
0000
,  // measure 13
0001
0000
1000
0000
,  // measure 14
0010
0000
1000
0000
,  // measure 15
0001
0000
0100
0000
,  // measure 16
1001
0000
0110
0000
,  // measure 17
0001
0000
0000
1000
,  // measure 18
1000
0000
0000
0100
,  // measure 19
0100
0000
0000
0001
,  // measure 20
0001
0000
0000
0100
,  // measure 21
0100
0000
0010
0000
,  // measure 22
0001
0000
1000
0000
,  // measure 23
0010
0000
0000
0000
,  // measure 24
1000
0000
0001
0000
,  // measure 25
1000
0000
0000
0100
,  // measure 26
0100
0000
0000
0001
,  // measure 27
0001
0000
0000
0100
,  // measure 28
0100
0000
0000
1000
,  // measure 29
1000
0000
0100
0000
,  // measure 30
0010
0000
0001
0000
,  // measure 31
0100
0000
0100
0000
,  // measure 32
0110
0000
0110
0000
,  // measure 33
1000
0000
0001
0000
,  // measure 34
0100
0000
0010
0000
,  // measure 35
1000
0000
0001
0000
,  // measure 36
0010
0000
0001
0000
,  // measure 37
1000
0000
0010
0000
,  // measure 38
1000
0000
0001
0000
,  // measure 39
0010
0000
0001
0000
,  // measure 40
1001
0000
0110
0000
,  // measure 41
0001
0000
0000
0000
,  // measure 42
0100
0000
0000
0000
,  // measure 43
0010
0000
0000
0000
,  // measure 44
1000
0000
0000
0000
,  // measure 45
0001
0000
0001
0000
,  // measure 46
0010
0000
0010
0000
,  // measure 47
0100
0000
0100
0000
,  // measure 48
0110
0000
0110
0000
;

//---------------dance-double - Dark Luke----------------
#NOTES:
     dance-double:
     Dark Luke:
     Challenge:
     11:
     0.943,0.863,0.192,0.632,1.000,512.000,17.000,56.000,22.000,0.000,0.000,0.943,0.863,0.192,0.632,1.000,512.000,17.000,56.000,22.000,0.000,0.000:
00100000
00010000
00100000
01000000
00100000
00010000
00100000
01000000
00100000
00010000
00100000
01000000
00100000
00010000
00100000
01000000
,
00010000
00001000
00010000
01000000
00010000
00001000
00010000
01000000
00010000
00001000
00010000
01000000
00010000
00001000
00010000
01000000
,
00100000
00001000
00010000
00001000
00100000
00001000
00010000
00001000
00100000
00001000
00010000
00001000
00100000
00001000
00010000
00001000
,
00010000
00000010
00000100
00000010
00010000
00000010
00000100
00000010
00010000
00000010
00000100
00000010
00010000
00000010
00000100
00000010
,
00000100
00000001
00000100
00001000
00000100
00000001
00000100
00001000
00000100
00000001
00000100
00001000
00000100
00000001
00000100
00001000
,
00010000
00001000
00010000
01000000
00010000
00001000
00010000
01000000
00010000
00001000
00010000
01000000
00010000
00001000
00010000
01000000
,
00010000
00001000
01000000
00001000
00010000
00001000
01000000
00001000
01000000
00100000
00010000
00001000
00000100
00000010
00001000
00000100
,
00000010
00000000
00000M10
00000000
00001000
00000000
0000M010
00000000
00000220
00000000
00000330
00000011
00000000
000000MM
00000000
00000000
,
00010000
00000000
00001000
00000000
00000100
00000000
00001000
00000000
01000000
00000000
00100000
01000000
00010000
00000000
00100000
00000000
,
10000000
00000000
00100000
00000000
00001000
00000000
00010000
00000000
01000000
00100000
00000000
00001000
00010000
00000000
00000010
00000000
,
00000100
00000000
00001000
00000000
00010000
00000000
00000010
00000000
00000001
00000000
00000010
00000100
00000001
00000000
00000010
00000000
,
00000001
00000000
000000M1
00000000
0000010M
00000000
00000M01
00000000
00002002
00000000
00003003
00000200
00001000
00000300
00000100
00010000
,
00001000
00000000
00000010
00000000
00000001
00000000
00000010
00000000
00000100
00000000
00010000
00000010
00000100
00000000
00000010
00000000
,
00010000
00000000
00100000
00000000
00010000
00000000
00001000
00000000
00100000
01000000
00000000
10000000
01000000
00000000
00100000
00000000
,
00001000
00000000
00000100
00000000
00000010
00000000
00000100
00000000
00000001
00000000
00000010
00001000
00010000
00000000
00001000
00000000
,
00010000
00000000
0001M000
00000000
00100000
00000000
00M10000
00000000
00022000
00000000
00033000
00000020
00001000
00000130
00010000
00001000
,
00000020
00000001
00000000
00001030
000020M0
00000000
00103000
00001000
,
02000000
10000000
00000000
03100000
0M200000
00000000
00301000
00100000
,
00020000
00000000
00000000
00032000
00100000
00003000
00020000
00000000
00230000
00000000
00300000
02000000
10000000
03000000
00200000
00000000
,
00320000
00000000
00000000
00032000
00100000
00003000
00020000
00000000
00030020
00000000
00000000
00000000
00001030
00000000
00000010
00000001
,
00002000
00000000
00003000
00002000
00000010
00003000
00010000
00000000
000200M0
00000000
00000000
00000000
00100000
00000000
00031000
00000100
,
00000002
00000000
00000000
00000023
00000001
00000030
00000200
00000000
00002300
00000000
00000000
00000000
00103000
00000000
0100M000
00000000
,
02000000
00000000
00000000
23000000
00100000
30000000
00020000
00000000
00230000
00000000
01000000
00300000
00002000
00000000
00010000
00003000
,
00002000
00000000
00000000
00000000
00000000
00000000
00000000
00000000
00000000
00000000
00000000
00000000
00000010
00000000
00000000
00000000
00000000
00000000
00000000
00000000
00000000
00003000
00000000
00000000
00000200
00000000
00000000
00000000
00000000
00000000
00000000
00000000
00000000
00000310
00000000
00000000
00000001
00000000
00001000
00000000
00000100
00000000
00000010
00000000
00000001
00000000
00001000
00000000
,
00000200
00000000
00000000
00000000
00000000
00000000
00010000
00000000
00000000
00000300
00000000
00000000
00001000
00000000
00100000
00000000
00010000
00000000
00100000
00000000
00001000
00000000
00010000
00000000
00001000
00000000
00000000
00000000
00000000
00000000
00000000
00000000
00000000
00000000
00000000
00000000
00010000
00000000
00000000
00000000
00000000
00000000
00100000
00000000
00000000
00000000
00000000
00000000
,
20000000
00000000
00000000
30010000
00000000
00000000
01000000
00100000
10000000
00010000
01000000
00100000
01000000
00000000
00000000
00000000
00000000
00000000
01000000
00000000
00000000
00100000
00000000
00000000
,
00010000
00000000
00000000
00001000
00000000
00000000
00001000
00010000
00000010
00001000
00000010
00000100
00000001
00000000
00000000
00000000
00000000
00000000
00000001
00000000
00000000
00000010
00000000
00000000
,
00000100
00000000
00000000
00000000
00000000
00000000
00010000
00000000
00000000
00000000
00000000
00000000
00001000
00000000
00100000
00000000
00010000
00000000
00100000
00000000
01000000
00000000
10000000
00000000
01000000
00000000
00000000
00000000
00000000
00000000
00000000
00000000
00000000
01000000
00000000
00000000
10000000
00000000
00000000
00000000
00000000
00000000
00100000
00000000
00000000
00000000
00000000
00000000
,
01000000
00000000
00020000
00000000
00000000
00030000
0M010000
00000000
00001000
00000000
00010000
00001000
00000100
00000000
00000010
00001000
,
00000001
00000000
00000020
00000000
00000000
00000030
0000001M
00000000
00010000
00000000
00001000
00010000
00100000
00000000
01000000
00010000
,
00200000
00010000
00000000
00301000
00010000
00000000
01000000
00010000
,
00001000
00010000
00001000
00000000
00000000
00000000
00000110
00000000
00001000
00000100
00000010
00000001
00000100
00000010
00001000
00000100
,
00000020
00000000
00000000
00000030
00011000
00000000
00000000
00000000
01000000
00000000
00100000
10000000
00000000
01000000
00100000
00000000
,
01000000
00000000
01000000
00000000
00011000
00000000
00100000
00000000
00001000
00010000
00000000
00002000
00000100
00003000
00001000
00000000
,
00002000
00000000
00000000
00003000
01010000
00000000
00000000
00000000
10000000
00000000
01000000
00100000
00000000
00001000
00010000
00000000
,
00000010
00000000
00000010
00000000
00000101
00000000
00000010
00000000
00010000
00001000
000M0000
00022000
00000000
00033000
00010000
00100000
,
20000000
00000000
00000000
30000000
00011000
00000000
00000000
00000000
00000100
00000000
00000010
00000001
00000000
00000100
00000010
00000000
,
00000100
00000000
00000100
00000000
00011000
00000000
00000010
00000000
00010000
00001000
00000000
00020000
01000000
00030000
00010000
00000000
,
00020000
00000000
00000000
00030000
00001100
00000000
00000000
00000000
00000001
00000000
00000100
00001000
00000000
01000000
00010000
00000000
,
00100000
00000000
001M0000
00000000
01M00000
00000000
0M100000
00000000
00220000
00000000
00330000
00022000
00000000
00033000
00000000
00000000
,
00000010
00000100
00000010
00001000
00000010
00000100
00000010
00001000
00000010
00000100
00000010
00001000
00000010
00000100
00000010
00001000
,
00000100
00000010
00000100
00010000
00000100
00000010
00000100
00010000
00000100
00000010
00000100
00010000
00000100
00000010
00000100
00010000
,
00001000
00000100
00000010
00000100
00001000
00000100
00000010
00000100
00001000
00000100
00000010
00000100
00001000
00000100
00000010
00000100
,
00001000
01000000
00010000
01000000
00001000
01000000
00010000
01000000
00001000
01000000
00010000
01000000
00001000
01000000
00010000
01000000
,
00100000
00010000
00100000
10000000
00100000
00010000
00100000
10000000
00100000
00010000
00100000
10000000
00100000
00010000
00100000
10000000
,
01000000
00100000
01000000
10000000
01000000
00100000
01000000
10000000
01000000
00100000
01000000
10000000
01000000
00100000
01000000
10000000
,
00010000
01000000
00100000
01000000
00010000
01000000
00100000
01000000
00010000
10000000
01000000
00100000
00010000
00001000
00000100
00000010
,
00000001
00000000
000000M1
00000000
0000010M
00000000
00000M01
00000000
00000201
00000000
00000300
00002200
00000000
00003300
00000000
00000000
;

//---------------dance-double - Dark Luke----------------
#NOTES:
     dance-double:
     Dark Luke:
     Hard:
     8:
     0.654,0.701,0.282,1.000,0.333,275.000,25.000,106.000,39.000,0.000,0.000,0.654,0.701,0.282,1.000,0.333,275.000,25.000,106.000,39.000,0.000,0.000:
02001000
00000000
00000000
00000000
00000000
00000000
00000000
03000000
,
10020000
00000000
00000000
00000000
00000000
00000000
00000000
00030000
,
00012000
00000000
00000000
00000000
00000000
00000000
00000000
00003000
,
00000201
00000000
00000000
00000000
00000000
00000000
00000000
00000300
,
00000001
00000001
00000100
00000100
00000010
00000010
00010000
00010000
,
00001000
00001000
01000000
01000000
00010000
00010000
10000000
10000000
,
01000000
01000000
00100000
00100000
00001000
00010000
00000100
00000010
,
00000001
00000000
00000001
00000000
00000100
00000000
00000001
00000000
00000202
00000000
00000303
00001010
00000000
0000M0M0
00000000
00000000
,
00020000
00000000
00000000
00030000
00000200
000M0000
00000000
00000300
00000020
00000M00
00000000
00000230
00000000
00000000
00000310
00000000
,
000000M1
00000000
00000001
00000000
00000100
00000000
00001000
00000000
00010000
00100000
00000000
00M20000
00000000
00030000
00000000
00000000
,
00020000
00000000
00000000
00030000
00002000
000M0000
00000000
00003000
00200000
0000M000
00000000
02300000
00000000
00000000
13000000
00000000
,
M0010000
00000000
00010000
00000000
01000000
00000000
00010000
00000000
02020000
00000000
03030000
00202000
00000000
00303000
00000000
00M00000
,
00002000
00000000
00000000
00003000
00000020
0000M000
00000000
00000030
00000002
000000M0
00000000
00000023
00000000
00000000
00000031
00000000
,
0000100M
00000000
00001000
00000000
00000100
00000000
00010000
00000000
00100000
01000000
00000000
0M200000
00000000
00300000
00000000
00000000
,
00200000
00000000
00000000
00300000
00020000
00M00000
00000000
00030000
00002000
000M0000
00000000
00203000
00000000
00000000
01300000
00000000
,
1M000000
00000000
10000000
00000000
00010000
00000000
10000000
00000000
20200000
00000000
30300000
02020000
00000000
03030000
00000000
000M0000
,
0M200000
00000000
00000000
10300000
20M00000
00000000
30000000
10M00000
,
00020000
00000000
00000000
00130000
002M0000
00000000
00300000
001M0000
,
00002000
00000000
00000000
00003020
00000000
00000000
00002030
00000000
00023000
00000000
00000000
00230000
00000000
00000000
00320000
00000000
,
00032000
00000000
00000000
00003020
00000000
00000000
00002030
00000000
00203000
00000000
00000000
00000000
0030M000
00000000
00100000
00001000
,
00020000
00000000
00030000
0002M000
00000000
00000000
00030100
00000000
000M0200
00000000
00000000
00000000
00000000
00000300
00000010
00000001
,
00002000
00000000
00000000
00003002
00000000
00000000
00000203
00000000
00000320
00000000
00000M00
00000000
00000030
00000000
000100M0
00000000
,
00020000
00000000
00000000
00032000
00000000
00000000
02003000
00000000
03002000
00000000
0M000000
00000000
00203000
00000000
00000000
00000000
,
02300000
00000000
00M00000
00000000
10000000
00000000
00000000
00000000
03200000
00000000
0M000000
00301000
00010000
00000000
00010000
00000000
,
00000020
00000100
00000000
00010030
000200M0
00000000
00031000
00010000
,
02000000
00100000
00000000
03010000
0M020000
00000000
00031000
00010000
,
00000020
00000000
00000000
00000230
00000001
00000300
00000020
00000000
00000230
00000000
00000000
00020300
00001000
00030000
00002000
00000000
,
00003200
00000000
00000000
00000320
00010000
00000030
00002000
00000000
00203000
00000000
00000000
00000000
01300000
00000000
01000000
10000000
,
00020000
00000000
00030000
00020000
01000000
00030000
00200000
00000000
10300000
00000000
00100000
01000000
00010000
00000000
01000000
00001000
,
00020000
00000000
00000000
00032000
00100000
00003000
00020000
00000000
10030000
00000000
01000000
00100000
00010000
00000000
00100000
00001000
,
00020000
00000000
00000000
00030200
00010000
00000300
00002000
00000000
00023000
00000000
00000000
00032000
00010000
00003000
00000100
00000000
,
00001000
00000001
00001000
00000000
0000000M
00000000
00001100
00000000
00000011
00000000
00000000
00000000
00000100
00000000
00000000
00000000
,
00000002
00000000
00000000
00000003
00001010
00000000
00000000
00000000
000100M0
00000000
00001000
00100000
00000000
00001000
00010000
00000000
,
00001000
00000000
00001000
00000000
00000010
00000000
00000100
00000000
00010000
00001000
00000000
00020000
00000010
00030000
000100M0
00000000
,
00002000
00000000
00000000
00003000
10100000
00000000
00000000
00000000
M0010000
00000000
01000000
00010000
00000000
10000000
00100000
00000000
,
01000000
00000000
01000000
00000000
10000000
00000000
01000000
00000000
00010000
00100000
00000000
00210000
00000000
00000000
00300000
00000000
,
02000000
00000000
00000000
03000000
00011000
00000000
00000000
00000000
000M0010
00000000
00000100
00000001
00000000
00000010
00000100
00000000
,
00001000
00000000
00001000
00000000
00000001
00000000
00000010
00000000
00000100
00001000
00000000
00000200
00010000
00000300
00000100
00000000
,
00000020
00000000
00000000
00000030
00011000
00000000
00000000
00000000
00000200
00000000
00000000
00020300
00000000
00000000
00130000
00000000
,
01000000
00000000
01M00000
00000000
10000000
00000000
01000000
00000000
02020000
00000000
03030000
00022000
00000000
00033000
00000000
00000000
,
12000000
00000000
00000000
00000000
00000000
00000000
00000000
03000000
,
00021000
00000000
00000000
00000000
00000000
00000000
00000000
00030000
,
00002001
00000000
00000000
00000000
00000000
00000000
00000000
00003000
,
00010200
00000000
00000000
00000000
00000000
00000000
00000000
00000300
,
00000001
00000001
00000100
00000100
00001000
00001000
00010000
00010000
,
00001000
00001000
00010000
00010000
01000000
01000000
10000000
10000000
,
01000000
01000000
00100000
00100000
00001000
00010000
00001000
00000100
,
00000001
00000000
00000001
00000000
00000100
00000000
00000001
00000000
00000202
00000000
00000303
00002020
00000000
00003030
00000000
00000000
;

//---------------dance-double - Dark Luke----------------
#NOTES:
     dance-double:
     Dark Luke:
     Medium:
     6:
     0.437,0.485,0.237,0.338,0.034,220.000,21.000,30.000,0.000,0.000,0.000,0.437,0.485,0.237,0.338,0.034,220.000,21.000,30.000,0.000,0.000,0.000:
02010000
00000000
00000000
00000000
00000000
00000000
00000000
03000000
,
00021000
00000000
00000000
00000000
00000000
00000000
00000000
00030000
,
00002100
00000000
00000000
00000000
00000000
00000000
00000000
00003000
,
00000201
00000000
00000000
00000000
00000000
00000000
00000000
00000300
,
00000001
00000010
00000100
00001000
,
00010000
00100000
01000000
10000000
,
01000000
00100000
00001000
00010000
,
00000010
00000000
00000010
00000000
00000100
00000000
00000010
00000000
00000220
00000000
00000330
00000101
00000000
00000000
00000000
00000000
,
00001000
00000100
00000000
00000100
00000010
00000001
00000000
00000001
,
00000100
00000010
00000000
00000010
00010000
00001000
00000000
00001000
,
00100000
00010000
00000000
00010000
10000000
00100000
00000000
00100000
,
01000000
00000000
01000000
00000000
00010000
00000000
01000000
00000000
02200000
00000000
03300000
20200000
00000000
30300000
00000000
00000000
,
00010000
10000000
00000000
10000000
01000000
00100000
00000000
00100000
,
00001000
00010000
00000000
00010000
00000010
00001000
00000000
00001000
,
00000100
00000010
00000000
00000010
00000001
00000100
00000000
00000100
,
00000010
00000000
00000010
00000000
00001000
00000000
00000010
00000000
00002020
00000000
00003030
00000202
00000000
00000303
00000000
00000000
,
00001000
00000100
00000000
00000100
00010000
00000000
00000000
00001000
,
01000000
00010000
00000000
00010000
00100000
00000000
00000000
00100000
,
01000000
10000000
00000000
10000000
01000000
00000000
00000000
00100000
,
00001000
00010000
00000000
00010000
00001000
00000000
00000000
01000000
,
00100000
10000000
00000000
10000000
01000000
00000000
00100000
00000000
,
00001000
00010000
00000000
00010000
00000010
00000000
00000000
00000100
,
00000010
00001000
00000000
00000100
00010000
00000000
00001000
00000000
,
01000000
00100000
10000000
00000000
01000000
00000000
00100000
01000000
,
10000000
01000000
00000000
01000000
00020000
00000000
00030000
00010000
,
00001000
00000010
00000000
00000010
00000002
00000000
00000003
00000001
,
00000100
00000010
00000000
00000010
00010000
00000000
00000000
00001000
,
00010000
01000000
00000000
01000000
00100000
00000000
00100000
01000000
,
10000000
00010000
00000000
00010000
01000000
00000000
00001000
00000000
,
00100000
00001000
00000000
00001000
00010000
00000000
00000000
00010000
,
00001000
00000010
00000000
00000010
00000100
00000000
00001000
00000001
,
00000100
00000000
00000000
00000110
00001001
00000000
00000000
00000000
,
00000001
00000001
00000000
00001000
00000010
00000010
00000000
00010000
,
00001000
00001000
00000000
00100000
01000000
01000000
00000000
10000000
,
00100000
00100000
00000000
01000000
00001000
00001000
00000000
00010000
,
00000100
00000000
00000100
00000000
00000000
00000000
00001000
00000000
00000010
00000000
00000000
00000220
00000000
00000000
00000330
00000000
,
00001000
00001000
00000000
00000100
00000010
00000010
00000000
00000001
,
00000100
00000100
00000000
00000010
00010000
00010000
00000000
00001000
,
00100000
00100000
00000000
01000000
10000000
10000000
00000000
00010000
,
01000000
00000000
01000000
00000000
00100000
00000000
01000000
00000000
02020000
00000000
03030000
00022000
00000000
00033000
00000000
00000000
,
02100000
00000000
00000000
00000000
00000000
00000000
00000000
03000000
,
01020000
00000000
00000000
00000000
00000000
00000000
00000000
00030000
,
00012000
00000000
00000000
00000000
00000000
00000000
00000000
00003000
,
00010200
00000000
00000000
00000000
00000000
00000000
00000000
00000300
,
00001000
00010000
00100000
01000000
,
00010000
00100000
01000000
10000000
,
01000000
00010000
00001000
00000100
,
00000001
00000000
00000001
00000000
00000100
00000000
00000001
00000000
00000202
00000000
00000303
00000022
00000000
00000033
00000000
00000000
;

//---------------dance-double - Dark Luke----------------
#NOTES:
     dance-double:
     Dark Luke:
     Easy:
     4:
     0.282,0.296,0.023,0.237,0.034,152.000,2.000,21.000,0.000,0.000,0.000,0.282,0.296,0.023,0.237,0.034,152.000,2.000,21.000,0.000,0.000,0.000:
20000000
00000000
00000000
00000000
00000000
00000000
00000000
30000000
,
02000000
00000000
00000000
00000000
00000000
00000000
00000000
03000000
,
00020000
00000000
00000000
00000000
00000000
00000000
00000000
00030000
,
00002000
00000000
00000000
00000000
00000000
00000000
00000000
00003000
,
00010000
00010000
00001000
00001000
,
00000100
00000100
00000001
00000001
,
00001000
00001000
00000100
00000010
,
00000001
00000000
00000001
00000000
00000100
00000000
00000001
00000000
00000001
00000000
00000000
00000010
00000000
00000000
00000000
00000000
,
00000200
00000000
00020300
00000000
,
00032000
00000000
02003000
00000000
,
03200000
00000000
20300000
00000000
,
30010000
00000000
00010000
00000000
01000000
00000000
00010000
00000000
00010000
00000000
00000000
00100000
00000000
00000000
00000000
00000000
,
02000000
00000000
03200000
00000000
,
00302000
00000000
00023000
00000000
,
00030020
00000000
00000230
00000000
,
00000310
00000000
00000010
00000000
00001000
00000000
00000010
00000000
00000010
00000000
00000000
00000100
00000000
00000000
00000000
00000000
,
00000001
00001000
00000010
00000000
,
00010000
00000100
00010000
00000000
,
00001000
01000000
00001000
00000000
,
00100000
00010000
00100000
00000000
,
01000000
01000000
00100000
00000000
,
00001000
00001000
01000000
00000000
,
00100000
01000000
00100000
10000000
,
01000000
00000000
00010000
00000000
,
00001000
00010000
00001000
00000000
,
00000010
00001000
00000010
00000000
,
00000001
00000010
00000001
00001000
,
00000010
00010000
00001000
00000000
,
01000000
01000000
00100000
00000000
,
10000000
10000000
01000000
00000000
,
00010000
00001000
00010000
00001000
,
00011000
00000000
00000000
00010000
00001000
00000000
00000000
00000000
,
00000010
00000001
00000100
00000010
,
00010000
00000100
00001000
00001000
,
00000010
00010000
00001000
00100000
,
01000000
00000000
00000000
00000000
10000000
00000000
00000000
00000000
00010000
00000000
00000000
10010000
00000000
00000000
00000000
00000000
,
10000000
00100000
01000000
00001000
,
00100000
01000000
00100000
00001000
,
00010000
00000000
00000010
00000000
00000100
00000000
00000002
00000003
,
00000010
00000000
00000010
00000000
00000100
00000000
00000010
00000000
00000010
00000000
00000000
00000001
00000000
00000000
00000000
00000000
,
00000200
00000000
00000000
00000000
00000000
00000000
00000000
00000300
,
00002000
00000000
00000000
00000000
00000000
00000000
00000000
00003000
,
00020000
00000000
00000000
00000000
00000000
00000000
00000000
00030000
,
02000000
00000000
00000000
00000000
00000000
00000000
00000000
03000000
,
10000000
10000000
01000000
01000000
,
00100000
00100000
00001000
00001000
,
00010000
00010000
00000010
00001000
,
00000100
00000000
00000100
00000000
00001000
00000000
00000100
00000000
00000100
00000000
00000000
00000010
00000000
00000000
00000000
00000000
;
