#TITLE:Clockwork;
#SUBTITLE:(Castlevania Judgement);
#ARTIST:浅田靖;
#TITLETRANSLIT:;
#SUBTITLETRANSLIT:;
#ARTISTTRANSLIT:Yasushi Asada;
#GENRE:;
#CREDIT:;
#BANNER:clockwork-bn.png;
#BACKGROUND:clockwork-bg.png;
#LYRICSPATH:;
#CDTITLE:;
#MUSIC:15-Clockwork.ogg;
#OFFSET:-0.260;
#SAMPLESTART:0.020;
#SAMPLELENGTH:12.000;
#SELECTABLE:YES;
#BPMS:0.000=131.021;
#STOPS:;
#TIMESIGNATURES:0.000=4=4
;
#BGCHANGES:;
#KEYSOUNDS:;

//---------------dance-single - Blank----------------
#NOTES:
     dance-single:
     Blank:
     Challenge:
     11:
     0.947,0.824,0.243,0.197,1.000,661.000,26.000,21.000,0.000,0.000,0.000,0.947,0.824,0.243,0.197,1.000,661.000,26.000,21.000,0.000,0.000,0.000:
0001
0100
0010
1000
0001
1000
0100
0010
0001
1000
0100
1000
0001
0100
0001
1000
,
0010
0100
0010
1000
0100
1000
0100
0010
0001
1000
0001
0100
0010
1000
0010
0100
,
0001
1000
0100
1000
0110
0001
0110
0100
,
1000
0010
1000
0100
0000
0000
0010
0001
0010
0100
1000
0100
1000
0001
0100
0010
,
1000
0001
1000
0100
0010
0100
1000
0001
0010
0001
0100
0010
1000
0100
0010
0001
,
0000
0010
0100
1000
0001
0100
0010
1000
0100
1000
0001
1000
0010
1000
0100
1000
,
0001
0100
0010
0100
0001
1000
0100
1000
0001
0010
0100
0010
0001
0100
0010
0100
,
0001
1000
0100
0010
0001
1000
0010
0100
0002
0000
0000
0000
0003
0100
0010
1000
,
0001
1000
0100
0010
0001
0010
0100
1000
0001
0100
0010
1000
0100
0010
0001
0100
,
0000
0010
0100
1000
0100
0001
0100
0010
1000
0001
0010
0001
0100
0001
1000
0001
,
0010
0100
0001
0100
1000
0001
0010
0001
1000
0100
0010
0100
1000
0010
0100
0010
,
0001
0000
0000
0000
0010
0000
0000
0000
1000
0000
0100
0010
0100
0000
0000
0000
,
1000
0100
0010
0001
0100
0000
0000
0000
0010
0000
0000
0000
0100
0001
0010
0001
,
1000
0000
0001
0000
0110
0000
0001
0100
,
0010
1000
0100
0010
0001
0000
0000
0000
1000
0000
0000
0000
0100
1000
0010
1000
,
0001
0000
0000
0000
0100
0000
0000
0000
1100
0000
0000
0000
0010
0001
0010
0100
,
1000
0010
0100
0001
0010
0000
0000
0000
0001
0000
0000
0000
0100
1000
0100
0001
,
0010
0000
1000
0000
0011
0000
0010
0100
,
1000
0100
0010
0100
0001
0000
0000
0000
0100
0000
0000
0000
0010
1000
0010
0001
,
0200
0000
0000
0000
0000
0000
0300
0000
2010
0000
0000
0000
3100
1000
0010
0100
,
0001
1000
0100
0010
0001
0100
0001
0010
0100
1000
0010
1000
0001
0100
1000
0100
,
0001
0100
1000
0001
0010
0100
0001
1000
0100
0010
0100
0010
0001
0100
0010
1000
,
0001
0100
0001
1000
0001
0010
1000
0010
0001
0010
1000
0010
0100
0001
0100
1000
,
0001
0000
1000
0010
0100
0010
0100
0001
1000
0001
0010
0100
0001
0100
1000
0100
,
0001
0100
1000
0001
0010
0100
0001
0100
1000
0001
1000
0010
0100
0001
0100
0010
,
1000
0010
0100
1000
0001
0010
1000
0010
0001
0010
1000
0010
0100
1000
0100
0001
,
1000
0001
0010
0001
0100
0001
1000
0001
0100
0001
0010
0001
1000
0100
1000
0001
,
0010
0100
1000
0100
0010
0100
0001
0100
1000
0100
0010
0000
0100
1000
0010
0100
,
0001
1000
0010
1000
0100
1000
0010
1000
0001
1000
0100
1000
0010
0100
0001
1000
,
0100
0010
1000
0010
0100
0010
0001
1000
0100
0010
1000
0010
0100
0010
0001
1000
,
0010
0000
0100
0001
0010
0001
0100
0001
1000
0001
0010
0001
0100
0001
0010
0001
,
1000
0100
1000
0010
1000
0100
1000
0001
1000
0010
1000
0100
1000
0010
0100
0001
,
0010
0100
1000
0100
0001
0100
1000
0100
0010
0100
1000
0100
0001
1000
0010
0001
,
0100
0010
0100
0001
0100
1000
0100
0001
0100
0000
0010
0000
0011
0000
0000
0000
,
1000
0100
0010
0001
0100
0010
0100
0001
1000
0010
0100
0001
0010
0100
0010
0001
,
1000
0100
1000
0001
0100
0010
0100
0001
1000
0100
0010
0100
1000
0001
0100
0001
,
1000
0100
1000
0010
1000
0001
1000
0010
0100
0001
0100
0010
0100
1000
0100
0001
,
0010
0100
0010
0001
0100
0010
1000
0001
1000
0100
0010
0100
1000
0010
0100
0001
,
1000
0000
0001
0010
0001
0100
0001
1000
0010
0100
0010
0001
0010
0100
0010
1000
,
0001
0010
0100
1000
0001
0100
0010
1000
0001
0100
1000
0100
0001
0010
0100
1000
,
0001
1000
0100
0001
0100
0010
1000
0010
0001
0100
0001
1000
0010
0100
0010
1000
,
0001
0100
0010
0001
0010
1000
0100
0001
0100
0000
0010
0000
0011
0000
0000
0000
,
2001
0000
0000
0000
0000
0000
3100
0010
0012
0000
0000
0000
0100
0000
0003
0010
,
1020
0000
0000
0000
0100
0000
0030
0000
2001
0000
0000
0000
3010
0000
0100
0001
,
0021
0000
0000
0130
2001
0000
0010
3000
,
0201
0000
0000
0000
1000
0000
0000
0300
0021
0000
0000
0000
1000
0000
0030
0000
,
2100
0000
0000
0000
0000
0000
3100
1000
0012
0000
0000
0000
0100
0000
0003
0010
,
0201
0000
0000
0000
0010
0000
0300
0000
1020
0000
0000
0000
0130
0000
0010
1000
,
0021
0000
0000
0000
0000
0000
0100
0030
1002
0000
0000
0000
0100
0003
0010
0000
,
2200
0000
0000
0000
0000
0000
0000
3300
,
0202
0000
0000
0000
0000
0000
0000
0303
,
0001
0010
0100
1000
0001
1000
0010
0100
0001
1000
0010
1000
0001
0010
0001
1000
,
0100
0010
0100
1000
0010
1000
0010
0100
0001
1000
0001
0010
0100
1000
0100
0010
,
0001
1000
0010
1000
0110
0001
0110
0010
,
1000
0100
1000
0010
0000
0000
0100
0001
0100
0010
1000
0010
1000
0001
0010
0100
,
1000
0000
0000
0000
;

//---------------dance-single - Blank----------------
#NOTES:
     dance-single:
     Blank:
     Hard:
     9:
     0.697,0.824,0.300,0.524,0.548,433.000,32.000,56.000,0.000,0.000,0.000,0.697,0.824,0.300,0.524,0.548,433.000,32.000,56.000,0.000,0.000,0.000:
0010
1000
1000
0100
0010
0001
0010
0100
,
1000
0010
0010
0100
0001
1000
1000
0100
,
0011
0001
0000
0100
0110
0000
1010
0000
,
0001
0100
0001
0010
0000
0000
0100
1000
0100
0010
0001
0010
0001
1000
0010
0100
,
0002
0000
0000
0000
0000
0000
0000
0003
0200
0000
0000
0300
0020
0000
0000
0030
,
2000
0000
0000
3000
0200
0000
0000
0300
0002
0000
0000
0003
0200
0000
0000
0300
,
2000
0000
0000
3000
0200
0000
0000
0300
0020
0000
0000
0030
0002
0000
0000
0003
,
0200
0000
0000
0000
0000
0000
0000
0300
2000
0000
0000
3000
0200
0000
0000
0300
,
2001
0000
0000
0000
0000
0000
0000
3000
0002
0000
0000
0003
0020
0000
0000
0030
,
2000
0000
0000
3000
0020
0000
0000
0030
0002
0000
0000
0003
2000
0000
0000
3000
,
0002
0000
0000
0003
0200
0000
0000
0300
0020
0000
0000
0030
0002
0000
0000
0003
,
0020
0000
0000
0000
0000
0000
0000
0030
2000
0000
0000
0000
0000
0000
0000
3000
,
0011
0000
0000
0000
0001
0000
1000
0100
0010
0001
1000
0000
0001
0000
0001
0000
,
0010
0000
0000
0000
0100
0000
0010
0000
0011
0000
1000
0100
1000
0000
0100
0010
,
0001
0000
0000
0000
0100
0000
0010
1000
0010
0100
0001
0000
1000
0000
1000
0000
,
0100
1000
0100
0010
0000
0010
0001
1000
0010
0000
0100
0000
0101
0000
0000
0000
,
1100
0000
0000
0000
0010
0000
0100
0010
0001
1000
0100
0000
1000
0000
1000
0000
,
0010
0000
0000
0000
0100
0000
0000
0000
1001
0000
0001
0100
0001
0000
0100
0010
,
1000
0000
0000
0000
0100
0000
0010
0001
1000
0010
0100
0000
0010
0000
0000
0000
,
0022
0000
0000
0000
0000
0000
0000
0033
1010
0000
0000
0000
0100
0001
0010
0100
,
2000
0010
0000
0100
3000
1000
0200
0001
,
0000
0310
1001
0100
0210
0010
0000
1000
,
0300
0001
0100
0000
2020
0000
0000
3030
,
0002
0010
0000
0100
0003
0001
0200
1000
,
0000
0310
0110
1000
1001
0000
0011
0000
,
1100
0000
1010
0000
0202
0000
0000
0303
,
1000
0000
0100
0000
0000
0000
1000
0000
0010
0000
0100
0000
0001
0000
0010
0100
,
0010
0000
1000
0000
0000
0000
1000
0000
0010
0000
0100
0000
1000
0001
1000
0001
,
0100
0000
0010
0000
0000
0000
1000
0000
0100
0000
0001
0000
0100
0000
0010
0100
,
0010
0001
0000
0001
0100
0000
0110
0000
,
1100
0100
0000
0010
1000
0100
0010
0001
,
0100
0010
0000
0010
0001
0010
1000
0100
,
0110
0001
0000
0010
0001
0100
0010
0100
,
1010
0001
1000
0100
0110
0001
1001
0000
,
1000
0001
0100
0001
1000
0001
0100
0001
1000
0001
0010
0001
1000
0001
0010
0100
,
1000
0001
0010
0100
1000
0100
0010
0001
1000
0100
0010
0001
0010
0100
0010
0001
,
1000
0100
1000
0001
1000
0100
1000
0001
1000
0010
1000
0001
0100
0010
0100
0001
,
1000
0100
1000
0100
0010
0001
0010
0001
1000
0001
0100
0001
1000
0001
0100
0010
,
0100
0000
0010
1000
0001
0100
0010
1000
0001
0100
0010
1000
0001
0100
0001
1000
,
0100
0010
0100
0010
0100
1000
0100
1000
0100
0010
0100
0010
0001
1000
0100
1000
,
0001
0100
0010
0100
0001
0100
0010
0100
0001
1000
0010
1000
0001
1000
0010
1000
,
0001
0010
0001
1000
0001
0010
0001
1000
0010
0000
0100
0000
0110
0000
0000
0000
,
2000
0000
0000
0000
0000
0000
3100
0010
0002
0000
0000
0000
0100
0000
0003
0010
,
2000
0000
0000
0000
0100
0000
3000
0000
0020
0000
0000
0000
0031
0000
0100
1000
,
0002
0000
0000
0000
0000
0003
0100
0000
2000
0000
0000
0000
0100
0000
3000
0000
,
0002
0000
0010
0003
0200
0000
0010
0300
,
1002
0000
0000
0000
0000
0000
0103
0010
2000
0000
0000
0000
0100
0000
3000
0010
,
0002
0000
0000
0000
0100
0000
0003
0000
2000
0000
0000
0000
3100
0000
0001
1000
,
0200
0000
0000
0000
0000
0000
0310
0000
2000
0000
0000
3000
0010
0000
0001
0000
,
2200
0000
0000
0000
0000
0000
0000
3300
,
0202
0000
0000
0000
0000
0000
0000
0303
,
0001
0010
0100
1000
0001
1000
0010
0100
0001
1000
0010
1000
0001
0010
0001
1000
,
0100
0010
0100
1000
0010
1000
0010
0100
0001
1000
0001
0010
0100
1000
0100
0010
,
0001
1000
0010
1000
0110
0001
0110
0010
,
1000
0100
1000
0010
0000
0000
0100
0001
0100
0010
1000
0010
1000
0001
0010
0100
,
1000
0000
0000
0000
;

//---------------dance-single - Blank----------------
#NOTES:
     dance-single:
     Blank:
     Medium:
     6:
     0.457,0.412,0.300,0.627,0.037,243.000,32.000,67.000,0.000,0.000,0.000,0.457,0.412,0.300,0.627,0.037,243.000,32.000,67.000,0.000,0.000,0.000:
0011
0000
0100
0000
0010
0001
0100
0000
,
0110
0000
0001
0000
0100
0010
1000
0000
,
1100
0001
0101
0110
,
1010
0000
0000
0000
,
0002
0000
0000
0000
0000
0000
0000
0003
0200
0000
0000
0300
0020
0000
0000
0030
,
2000
0000
0000
3000
0200
0000
0000
0300
0002
0000
0000
0003
0200
0000
0000
0300
,
2000
0000
0000
3000
0200
0000
0000
0300
0020
0000
0000
0030
0002
0000
0000
0003
,
0200
0000
0000
0000
0000
0000
0000
0300
2000
0000
0000
3000
0200
0000
0000
0300
,
2001
0000
0000
0000
0000
0000
0000
3000
0002
0000
0000
0003
0020
0000
0000
0030
,
2000
0000
0000
3000
0020
0000
0000
0030
0002
0000
0000
0003
2000
0000
0000
3000
,
0002
0000
0000
0003
0200
0000
0000
0300
0020
0000
0000
0030
0002
0000
0000
0003
,
0020
0000
0000
0000
0000
0000
0000
0030
2000
0000
0000
0000
0000
0000
0000
3000
,
1100
0000
0100
0000
0100
0000
0010
0001
,
1000
0000
1000
0000
0010
0100
0100
0001
,
0011
0000
0010
0000
0010
0000
0001
0010
,
0100
0000
1000
0000
0000
1000
0000
0000
0001
0000
0000
0000
1010
0000
0000
0000
,
0011
0000
0001
0000
0001
0000
1000
0010
,
0100
0000
0100
0000
0010
0100
0100
0001
,
1001
0000
1000
0000
1000
0000
0100
0010
,
0220
0000
0000
0330
2002
0000
0000
3003
,
2000
0100
0000
0010
0000
3001
0002
1000
,
0000
0100
0000
0013
0020
0100
0000
0001
,
0000
0130
1000
0000
2020
0000
0000
3030
,
0002
0100
0000
1000
0000
0013
2000
0100
,
0000
0001
0000
3010
0100
0000
0011
0000
,
0011
0000
1010
0000
0220
0000
0000
0330
,
2000
0000
0000
0000
0000
3000
0100
0000
0010
0000
0000
0000
1000
0000
0000
0000
,
0010
0001
0100
1000
,
0200
0000
0000
0000
0000
0300
0010
0000
1000
0000
0000
0000
0001
0000
0000
0000
,
0020
0000
0000
0000
0000
0030
0100
1000
0200
0000
0000
0000
0000
0000
0300
0000
,
0021
0000
0000
0000
0000
0030
0001
0000
0100
0000
0000
0000
0010
0000
0001
0000
,
0010
1000
0100
0010
,
2001
0000
0000
0000
0000
0000
0000
0000
3020
0000
0000
0000
1000
0000
0000
0030
,
0201
0000
0000
0300
0012
0000
1000
0003
,
0100
1000
0000
0100
0010
0000
0100
1000
,
0001
0100
0000
0010
0100
0000
0001
0100
,
0001
0010
0000
0100
1000
0000
0100
1000
,
0010
0100
0000
0001
1000
0000
0110
0000
,
1000
0010
0000
0001
0010
0000
1000
0000
,
0001
0010
0000
1000
0010
0000
0001
0000
,
0100
0001
0010
0100
0010
0000
0001
1000
,
0010
0100
0010
1000
0100
0000
0110
0000
,
2001
0000
0000
0000
0000
0000
3001
0010
0002
0000
0000
0000
0100
0000
0003
0010
,
2000
0000
0000
0000
0100
0000
3000
0000
0020
0000
0000
0000
0030
0000
0001
1000
,
0002
0000
0000
0000
0000
0003
0100
0000
0020
0000
0000
0000
1000
0000
0030
0000
,
0002
0000
0010
0003
0200
0000
0000
0300
,
1002
0000
0000
0000
0000
0000
1003
0010
2000
0000
0000
0000
0100
0000
3000
0010
,
0002
0000
0000
0000
0100
0000
0003
0000
0020
0000
0000
0000
0030
0000
1000
0100
,
2000
0000
0000
3010
0200
0000
0301
0010
,
2200
0000
0000
0000
0000
0000
0000
3300
,
0202
0000
0000
0000
0000
0000
0000
0303
,
0001
0010
0001
0100
0010
1000
0100
1000
,
0001
0100
0001
0010
0001
1000
0100
1000
,
0010
1000
0101
1100
,
0101
0000
0000
0000
,
1000
0000
0000
0000
;

//---------------dance-single - Blank----------------
#NOTES:
     dance-single:
     Blank:
     Easy:
     4:
     0.336,0.361,0.356,0.272,0.005,184.000,38.000,29.000,0.000,0.000,0.000,0.336,0.361,0.356,0.272,0.005,184.000,38.000,29.000,0.000,0.000,0.000:
0100
0100
0001
1000
,
0100
0010
0001
1000
,
0110
0001
1001
0110
,
1001
0000
0000
0000
,
0002
0000
0000
0000
0000
0000
0000
0003
0100
0000
0000
0000
0010
0000
0000
0000
,
1000
0100
0001
0100
,
1000
0100
0010
0001
,
0200
0000
0000
0000
0000
0000
0000
0300
1000
0000
0000
0000
0100
0000
0000
0000
,
2001
0000
0000
0000
0000
0000
0000
3000
0001
0000
0000
0000
0010
0000
0000
0000
,
1000
0010
0001
1000
,
0001
0100
0010
0001
,
0020
0000
0000
0000
0000
0000
0000
0030
2000
0000
0000
0000
0000
0000
0000
3000
,
0101
0001
0001
0001
,
0010
0010
0100
0010
,
1100
1000
1000
1000
,
0010
0000
0010
0000
0100
0000
0010
1000
,
0001
0001
0001
0001
,
0110
0010
1001
1000
,
0011
0010
0010
0110
,
2002
0000
0000
3003
2002
0000
0000
3003
,
1000
0100
0000
1000
0000
0100
0010
0001
,
0000
0010
0000
0001
1000
0001
0000
1000
,
0000
0001
0100
0000
0220
0000
0000
0330
,
0010
1000
0000
0010
0000
1000
0001
0010
,
0000
0001
0000
0010
0100
0000
1100
0000
,
1100
0000
1001
0000
0202
0000
0000
0303
,
1001
0000
0001
0100
,
0010
0000
0010
1000
,
0100
0000
0001
0100
,
1000
0000
0001
0110
,
1001
0000
1000
0010
,
0001
0000
0001
0010
,
0110
0000
0001
1000
,
1100
0000
0011
0110
,
1001
0000
0000
0001
0010
0000
0100
0000
,
0010
0001
0100
0010
,
1000
0000
0000
0010
0100
0000
0010
0000
,
1000
0000
0000
0000
0000
0000
0001
1000
0002
0000
0000
0000
0000
0000
0003
0000
,
1010
0000
0000
0010
0100
0000
0001
1000
,
0001
0010
0001
0100
,
1001
0000
1010
0000
,
0011
0000
0101
0101
,
2000
0000
0000
3000
0002
0000
0000
0003
,
0200
0000
0000
0300
0010
0000
1000
0000
,
0200
0000
0000
0300
2000
0000
0000
3000
,
0020
0000
0000
0030
0100
0000
0001
0000
,
0020
0000
0000
0030
0200
0000
0000
0300
,
2000
0000
0000
3000
0010
0000
0100
0000
,
2000
0000
0000
3000
0200
0000
0000
0300
,
0220
0000
0000
0000
0000
0000
0000
0330
,
2002
0000
0000
0000
0000
0000
0000
3003
,
0001
0100
0001
0010
,
0100
1000
0010
0100
,
1001
0000
0101
1100
,
1001
0000
0000
0000
,
1000
0000
0000
0000
;

//---------------dance-double - Blank----------------
#NOTES:
     dance-double:
     Blank:
     Challenge:
     12:
     0.928,0.824,0.131,0.197,1.000,659.000,14.000,21.000,0.000,0.000,0.000,0.928,0.824,0.131,0.197,1.000,659.000,14.000,21.000,0.000,0.000,0.000: // measure 1
00000001
00001000
00000010
00000100
00000010
00010000
00000100
00010000
00001000
00010000
00100000
01000000
00100000
00010000
00001000
01000000
,  // measure 2
00010000
10000000
01000000
00100000
01000000
00010000
00001000
00010000
00000010
00001000
00000010
00000100
00000001
00001000
00000100
00000010
,  // measure 3
00000001
00000100
00001000
00010000
00101000
00001000
00010010
00010000
,  // measure 4
00001000
01000000
00001000
00100000
00000000
00000000
01000000
10000000
00100000
10000000
00010000
01000000
00001000
00010000
00000010
00001000
,  // measure 5
00000010
00010000
00001000
00000100
00000010
00001000
00000100
00000010
00000001
00000010
00000100
00001000
00000100
00000001
00000100
00000010
,  // measure 6
00000000
00001000
00010000
01000000
00100000
01000000
00010000
00001000
00100000
00010000
10000000
00010000
00100000
00010000
01000000
00010000
,  // measure 7
10000000
00100000
01000000
00100000
00010000
00001000
01000000
00001000
00100000
00010000
10000000
00010000
01000000
00100000
01000000
00010000
,  // measure 8
00100000
01000000
10000000
01000000
00100000
00001000
00010000
00001000
00000020
00000000
00000000
00000000
00000030
00000001
00000100
00000010
,  // measure 9
00010000
00001000
00000100
00000010
00001000
00000100
00000010
00000001
00000100
00000010
00001000
00000001
00000010
00000100
00000001
00000100
,  // measure 10
00000000
00001000
00000010
00010000
00001000
01000000
00100000
00010000
00001000
00100000
00010000
00100000
01000000
00100000
10000000
00100000
,  // measure 11
00010000
10000000
00100000
10000000
00010000
01000000
00001000
01000000
00010000
00100000
00001000
00100000
01000000
00010000
00001000
00010000
,  // measure 12
00000010
00000000
00000000
00000000
00001000
00000000
00000000
00000000
00000100
00000000
00000010
00000001
00000010
00000000
00000000
00000000
,  // measure 13
00000100
00000010
00000001
00001000
00000010
00000000
00000000
00000000
00010000
00000000
00000000
00000000
01000000
00100000
00010000
10000000
,  // measure 14
00100000
00000000
01000000
00000000
00011000
00000000
00100000
00010000
,  // measure 15
01000000
00010000
10000000
01000000
00100000
00000000
00000000
00000000
00001000
00000000
00000000
00000000
00000100
00000001
00001000
00000100
,  // measure 16
00000010
00000000
00000000
00000000
00000100
00000000
00000000
00000000
00011000
00000000
00000000
00000000
00000010
00010000
00001000
01000000
,  // measure 17
00010000
10000000
01000000
00100000
00010000
00000000
00000000
00000000
00100000
00000000
00000000
00000000
01000000
00010000
00001000
00010000
,  // measure 18
00000100
00000000
00000010
00000000
00011000
00000000
01000000
10000000
,  // measure 19
00010000
01000000
00001000
00010000
00000010
00000000
00000000
00000000
00001000
00000000
00000000
00000000
00000100
00010000
00000010
00001000
,  // measure 20
00000002
00000000
00000000
00000000
00000000
00000000
00000003
00000000
00002010
00000000
00000000
00003000
00010000
00001000
00000010
00000001
,  // measure 21
00001000
00000100
00001000
00000100
00000010
00000100
00000010
00000001
00000100
00000001
00000100
00000010
00010000
00001000
00100000
00001000
,  // measure 22
01000000
00010000
01000000
00100000
00010000
00100000
01000000
00010000
10000000
01000000
10000000
01000000
00100000
01000000
00100000
00010000
,  // measure 23
01000000
00010000
01000000
00100000
10000000
00010000
01000000
00001000
00100000
00001000
00010000
00000100
00001000
00000010
00001000
00000001
,  // measure 24
00000010
00000100
00000010
00000001
00001000
00000010
00000100
00000001
00000010
00000100
00000010
00000001
00001000
00000010
00010000
00000010
,  // measure 25
00001000
00000100
00010000
00000100
00000010
00000100
00010000
00001000
00100000
01000000
00100000
00010000
10000000
00100000
01000000
00100000
,  // measure 26
10000000
00010000
01000000
00010000
00100000
01000000
10000000
01000000
00100000
00001000
00010000
00000010
00000100
00000001
00000100
00000010
,  // measure 27
00010000
00001000
00100000
00001000
01000000
00001000
00100000
00001000
00010000
00001000
00100000
00001000
00010000
00000100
00001000
00000001
,  // measure 28
00000100
00000010
00001000
00000010
00000001
00000010
00000100
00000010
00001000
00000010
00010000
00000000
00001000
00010000
00000100
00001000
,  // measure 29
00000010
00010000
00000100
00010000
00001000
00010000
00000010
00010000
00001000
00010000
00000100
00010000
00001000
01000000
00010000
10000000
,  // measure 30
01000000
00100000
00010000
00100000
00001000
00100000
00010000
00100000
01000000
00100000
10000000
00100000
01000000
00100000
00010000
10000000
,  // measure 31
00100000
00000000
10000000
00010000
01000000
00010000
00100000
00001000
00010000
00000100
00001000
00000100
00000010
00000100
00000001
00000100
,  // measure 32
00001000
00000001
00000010
00000001
00001000
00000010
00010000
00001000
01000000
00001000
00010000
01000000
00100000
00010000
10000000
01000000
,  // measure 33
10000000
00100000
01000000
00100000
00010000
00001000
01000000
00001000
00010000
00000010
00001000
00000010
00000100
00001000
00000100
00000001
,  // measure 34
00000010
00000100
00000010
00001000
00010000
00000100
00001000
00000100
00000010
00000000
00000100
00000000
00011000
00000000
00000000
00000000
,  // measure 35
00001000
01000000
00010000
00100000
00001000
01000000
00010000
00100000
00001000
00010000
01000000
00100000
10000000
00100000
00010000
10000000
,  // measure 36
00100000
01000000
00001000
00010000
00001000
00010000
00000010
00000100
00000001
00001000
00000100
00000010
00001000
00000010
00000001
00001000
,  // measure 37
00000100
00010000
00000010
00001000
00000100
00010000
00000010
00001000
00000001
00000100
00001000
00000100
00000010
00000001
00000010
00001000
,  // measure 38
00000100
00010000
00001000
01000000
00010000
00100000
00001000
00010000
00000010
00001000
00000010
00010000
00001000
01000000
00010000
10000000
,  // measure 39
01000000
00000000
10000000
00010000
01000000
00010000
00100000
00001000
00010000
00000010
00001000
00000001
00000100
00000001
00000010
00000100
,  // measure 40
00001000
00000010
00000100
00000010
00010000
00001000
00010000
00100000
10000000
00010000
01000000
00010000
00100000
01000000
00010000
00001000
,  // measure 41
00010000
00000100
00001000
00000100
00000010
00000001
00000100
00000001
00001000
00000010
00010000
00001000
01000000
00010000
00100000
00001000
,  // measure 42
00010000
00001000
00000100
00000001
00000100
00000010
00000001
00000010
00000100
00000000
00000010
00000000
00011000
00000000
00000000
00000000
,  // measure 43
00210000
00000000
00000000
00000000
00000000
00000000
00301000
00000100
00000020
00000000
00000000
00000000
00010030
00000000
00000000
00001000
,  // measure 44
00000020
00000000
00000000
00000000
00001030
00000000
00000000
00000000
02000000
00000000
00000000
00000000
03000000
00000000
10000000
01000000
,  // measure 45
00200000
00000000
00000000
00310000
00002000
00000000
00103000
00000000
,  // measure 46
02000000
00000000
03001000
00000000
00000002
00000000
00000000
00000003
,  // measure 47
00002010
00000000
00000000
00000000
00000000
00003000
00000100
00000010
00000002
00000000
00000000
00000000
00001000
00000000
00000003
00000100
,  // measure 48
00000020
00000000
00000000
00000000
00001030
00000000
00000000
00000000
00200000
00000000
00000000
00000000
00000000
00300000
01000000
00100000
,  // measure 49
00020000
00000000
00000000
10030000
00200000
00000000
00310000
00001000
,  // measure 50
00022000
00000000
00000000
00000000
00000000
00000000
00000000
00033000
,  // measure 51
00000022
00000000
00000000
00000000
00000000
00000000
00000000
00000033
,  // measure 52
00000001
00000010
00000100
00001000
00000010
00000100
00001000
00010000
00001000
01000000
00010000
00100000
01000000
10000000
01000000
00100000
,  // measure 53
00010000
10000000
00100000
01000000
00001000
00010000
00001000
00000100
00000010
00001000
00000100
00001000
00000001
00000010
00000100
00000010
,  // measure 54
00000001
00001000
00000010
00000100
00011000
00001000
01010000
01000000
,  // measure 55
00001000
00010000
00001000
00100000
00000000
00000000
01000000
00100000
00010000
01000000
00100000
01000000
00010000
10000000
01000000
00100000
,  // measure 56
00010000
00000000
00000000
00000000
;

//---------------dance-double - Hard----------------
#NOTES:
     dance-double:
     Hard:
     Hard:
     9:
     0.615,0.670,0.309,0.515,0.290,372.000,33.000,55.000,0.000,0.000,0.000,0.615,0.670,0.309,0.515,0.290,372.000,33.000,55.000,0.000,0.000,0.000:
00000001
00000100
00001000
00000100
00000010
00010000
01000000
00100000
,
00010000
10000000
00100000
01000000
00001000
00000010
00000001
00000100
,
00001001
00000010
00010000
00001000
00011000
00000000
01100000
00000000
,
00010000
01000000
00010000
00100000
00000000
00000000
00001000
00010000
00001000
00100000
00010000
00100000
01000000
10000000
00010000
01000000
,
00020000
00000000
00000000
00000000
00000000
00000000
00000000
00030000
02000000
00000000
00000000
03000000
00200000
00000000
00000000
00300000
,
20000000
00000000
00000000
30000000
02000000
00000000
00000000
03000000
00200000
00000000
00000000
00300000
00002000
00000000
00000000
00003000
,
02000000
00000000
00000000
03000000
00200000
00000000
00000000
00300000
00020000
00000000
00000000
00030000
00002000
00000000
00000000
00003000
,
00000020
00000000
00000000
00000000
00000000
00000000
00000000
00000030
00000200
00000000
00000000
00000300
00020000
00000000
00000000
00030000
,
00012000
00000000
00000000
00000000
00000000
00000000
00000000
00003000
00020000
00000000
00000000
00030000
02000000
00000000
00000000
03000000
,
00200000
00000000
00000000
00300000
00002000
00000000
00000000
00003000
00020000
00000000
00000000
00030000
00200000
00000000
00000000
00300000
,
20000000
00000000
00000000
30000000
00020000
00000000
00000000
00030000
00200000
00000000
00000000
00300000
00002000
00000000
00000000
00003000
,
00000002
00000000
00000000
00000000
00000000
00000000
00000000
00000003
00000200
00000000
00000000
00000000
00000000
00000000
00000000
00000300
,
00011000
00000000
00000000
00000000
00001000
00000000
01000000
00001000
00010000
00000010
00001000
00000000
00000100
00000000
00000100
00000000
,
00010000
00000000
00000000
00000000
01000000
00000000
00010000
00000000
00011000
00000000
00001000
00100000
00001000
00000000
00010000
00000010
,
00010000
00000000
00000000
00000000
00000010
00000000
00000100
00000010
00001000
00000010
00010000
00000000
00001000
00000000
00001000
00000000
,
00100000
01000000
00100000
00010000
00000000
00010000
00100000
00001000
01000000
00000000
00100000
00000000
00011000
00000000
00000000
00000000
,
11000000
00000000
00000000
00000000
00010000
00000000
00100000
00010000
10000000
01000000
00100000
00000000
01000000
00000000
00010000
00000000
,
00001000
00000000
00000000
00000000
00010000
00000000
00000000
00000000
00000110
00000000
00001000
00000001
00000100
00000000
00000010
00001000
,
00000100
00000000
00000000
00000000
00000001
00000000
00000100
00001000
00000100
00010000
00001000
00000000
01000000
00000000
00000000
00000000
,
20200000
00000000
00000000
00000000
00000000
00000000
00000000
30300000
00110000
00000000
00000000
00000000
01000000
00100000
00010000
00100000
,
00002000
00100000
00000000
00010000
00000000
00003010
00000002
00000100
,
00000000
00001003
00000110
00000010
00021000
00000010
00000000
00001000
,
00000000
00130000
01000000
00000000
20200000
00000000
00000000
30300000
,
00201000
00010000
00000000
10000000
00000000
00310000
00002000
01000000
,
00000000
00003010
00000011
00000100
00001001
00000000
00011000
00000000
,
10010000
00000000
01010000
00000000
00002200
00000000
00000000
00003300
,
00010000
00001000
00000000
00001000
00000010
00000001
00000100
00000000
,
00000010
00010000
00000000
00010000
00100000
00010000
00001000
00000000
,
00100000
01000000
00000000
01000000
10000000
01000000
00010000
00000000
,
00001000
00010000
00000000
00001000
00000100
00000000
00000101
00000000
,
00000011
00000001
00000000
00000100
00000010
00010000
00001000
00100000
,
01000000
00100000
00000000
00100000
10000000
00100000
00010000
10000000
,
11000000
00010000
00000000
00010000
01000000
00100000
00010000
00001000
,
00011000
00000010
00001000
00000100
00000110
00000001
00001000
00000000
,
00000001
00000100
00000010
00001000
00100000
01000000
10000000
01000000
,
00010000
00000000
00100000
00000000
01000000
00000000
10000000
00000000
01000000
00000000
00010000
00000000
01000000
00100000
00010000
00100000
,
00001000
00000000
00000010
00000000
00000100
00000000
00010000
00000000
00001000
00000000
00000100
00000000
00000010
00001000
00000001
00000010
,
00000100
00000000
00010000
00000000
00001000
00000000
00000010
00000100
00001000
00000000
00000010
00000000
00011000
00000000
00000000
00000000
,
10100000
00000000
00010000
00000000
01000000
00000000
10000000
00000000
01000000
00000000
00010000
00000000
00000100
00000000
00000010
00000100
,
00000001
00000000
00000010
00000000
00001000
00000000
00000010
00000000
00000100
00000000
00010000
00000000
00001000
00100000
00010000
10000000
,
00100000
01000000
00010000
00100000
10000000
00100000
00001000
00000100
,
00000001
00000010
00000100
00000001
00000100
00001000
00000010
00000000
,
00021000
00000000
00000000
00000000
00000000
00000000
00031000
00010000
00000200
00000000
00000000
00000000
00000310
00000000
00000000
00000001
,
00000200
00000000
00000000
00000000
00000310
00000000
00000000
00000000
00020000
00000000
00000000
00000000
00030000
00000000
01000000
00100000
,
00020000
00000000
00000000
00000000
00000000
00030000
10000000
00000000
02000000
00000000
00000000
00000000
03100000
00000000
00000000
00000000
,
02000000
00000000
03010000
00000000
00000020
00000000
00000000
00000030
,
00002010
00000000
00000000
00000000
00000000
00000000
00003100
00000010
00000002
00000000
00000000
00000000
00000103
00000000
00000000
00000100
,
00000020
00000000
00000000
00000000
00010030
00000000
00000000
00000000
00200000
00000000
00000000
00000000
00000000
00300000
10000000
01000000
,
00200000
00000000
00000000
00301000
00020000
00000000
00031000
00000010
,
00002000
00000000
00000000
00000000
00000000
00000000
00000000
00003000
,
00000022
00000000
00000000
00000000
00000000
00000000
00000000
00000033
,
00000001
00000010
00000001
00001000
00000100
00000010
00000100
00001000
00000100
00010000
00001000
00010000
00001000
00100000
00010000
10000000
,
00100000
01000000
00100000
10000000
00100000
01000000
00010000
01000000
00001000
00010000
00001000
00010000
00000010
00001000
00000010
00000100
,
00000001
00001000
00000010
00000100
00011000
00001000
00011000
00010000
,
00001000
00010000
00001000
00100000
00000000
00000000
01000000
00100000
00010000
10000000
00100000
10000000
00010000
01000000
00010000
10000000
,
01000000
00000000
00000000
00000000
;

//---------------dance-double - Medium----------------
#NOTES:
     dance-double:
     Medium:
     Medium:
     6:
     0.435,0.386,0.318,0.515,0.037,236.000,34.000,55.000,0.000,0.000,0.000,0.435,0.386,0.318,0.515,0.037,236.000,34.000,55.000,0.000,0.000,0.000:
00000001
00000100
00000010
00000000
00010000
00001000
00100000
00000000
,
01000000
10000000
00100000
00000000
01000000
00001000
00100000
00000000
,
00011000
00000010
00001010
00011000
,
00110000
00000000
00000000
00000000
,
00020000
00000000
00000000
00000000
00000000
00000000
00000000
00030000
02000000
00000000
00000000
03000000
00200000
00000000
00000000
00300000
,
20000000
00000000
00000000
30000000
02000000
00000000
00000000
03000000
00200000
00000000
00000000
00300000
00002000
00000000
00000000
00003000
,
02000000
00000000
00000000
03000000
00200000
00000000
00000000
00300000
00020000
00000000
00000000
00030000
00002000
00000000
00000000
00003000
,
00000020
00000000
00000000
00000000
00000000
00000000
00000000
00000030
00000200
00000000
00000000
00000300
00020000
00000000
00000000
00030000
,
00012000
00000000
00000000
00000000
00000000
00000000
00000000
00003000
00020000
00000000
00000000
00030000
02000000
00000000
00000000
03000000
,
00200000
00000000
00000000
00300000
00002000
00000000
00000000
00003000
00020000
00000000
00000000
00030000
00200000
00000000
00000000
00300000
,
20000000
00000000
00000000
30000000
00020000
00000000
00000000
00030000
00200000
00000000
00000000
00300000
00002000
00000000
00000000
00003000
,
00000020
00000000
00000000
00000000
00000000
00000000
00000000
00000030
00000200
00000000
00000000
00000000
00000000
00000000
00000000
00000300
,
00011000
00000000
00001000
00000000
00010000
00000000
00001000
00010000
,
00100000
00000000
00010000
00000000
00001000
01000000
01000000
00010000
,
00011000
00000000
00001000
00000000
00010000
00000000
00000100
00000010
,
00000100
00000000
00001000
00000000
00000000
00001000
00000000
00000000
00000010
00000000
00000000
00000000
00000110
00000000
00000000
00000000
,
00011000
00000000
00010000
00000000
00001000
00000000
00000100
00001000
,
00010000
00000000
00001000
00000000
00100000
01000000
01000000
00100000
,
00110000
00000000
01000000
00000000
00001000
00000000
00010000
00000100
,
00022000
00000000
00000000
00033000
00220000
00000000
00000000
00330000
,
10000000
01000000
00000000
00010000
00000000
00001000
00000100
00001000
,
00000000
00010000
00000000
01000000
10000000
00100000
00000000
01000000
,
00000000
00001000
00100000
00000000
00020020
00000000
00000000
00030030
,
00000001
00000100
00000000
00001000
00000000
00010000
01000000
00010000
,
00000000
00001000
00000000
00000100
00000001
00000000
00000011
00000000
,
00001100
00000000
00011000
00000000
00020020
00000000
00000000
00030030
,
00200000
00000000
00000000
00301000
00010000
00000000
00001000
00000000
,
00000010
00000001
00000100
00000010
,
00020000
00000000
00000000
00031000
00000100
00000000
00001000
00000000
,
00200000
00000000
00000000
00000000
00000000
00000000
01300000
10000000
02000000
00000000
00000000
00000000
00000000
00000000
03000000
00000000
,
20010000
00000000
00000000
31000000
00100000
00000000
00001000
00010000
,
00001000
00100000
00001000
00000100
,
00000120
00000000
00000000
00000030
00002000
00000000
00000100
00003000
,
00021000
00000000
00000000
00030000
00001200
00000000
00000010
00000300
,
00000001
00000010
00000000
00000100
00001000
00000000
00000100
00010000
,
00000010
00001000
00000000
00000010
00010000
00000000
00001000
00010000
,
01000000
00100000
00000000
00010000
00100000
00000000
10000000
00100000
,
00010000
01000000
00000000
00100000
01000000
00000000
00011000
00000000
,
00000100
00001000
00000000
00000100
00000001
00000000
00000100
00000000
,
00001000
00000010
00000000
00000100
00000010
00000000
00000001
00000000
,
00000110
00001000
00001100
00010000
,
00101000
00001000
01010000
00100000
,
20010000
00000000
00000000
00000000
00000000
00000000
30010000
00100000
00010000
00000000
00000000
00000000
01000000
00000000
00000000
00100000
,
10000000
00000000
00000000
00000000
01000000
00000000
00000000
00000000
00200000
00000000
00000000
00000000
00300000
00000000
00001000
00010000
,
00002000
00000000
00000000
00013000
00000100
00000000
00000010
00000000
,
00001000
00000000
00000010
00000000
00000002
00000000
00000000
00000003
,
00002100
00000000
00000000
00000000
00000000
00000000
00003001
00000010
00000001
00000000
00000000
00000000
00000100
00000000
00000000
00000010
,
00001000
00000000
00000000
00000000
00000100
00000000
00000000
00000000
00020000
00000000
00000000
00000000
00030000
00000000
00001000
00010000
,
00002000
00000000
00000000
00103000
01000000
00000000
00100000
00001000
,
00022000
00000000
00000000
00000000
00000000
00000000
00000000
00033000
,
00000202
00000000
00000000
00000303
,
00000001
00000010
00000100
00000000
00001000
00000010
00010000
00000000
,
00001000
00010000
00100000
00000000
01000000
00010000
00100000
00000000
,
11000000
00010000
01010000
00011000
,
00001100
00000000
00000000
00000000
,
00000001
00000000
00000000
00000000
;

//---------------dance-double - Easy----------------
#NOTES:
     dance-double:
     Easy:
     Easy:
     4:
     0.328,0.335,0.328,0.262,0.005,182.000,35.000,28.000,0.000,0.000,0.000,0.328,0.335,0.328,0.262,0.005,182.000,35.000,28.000,0.000,0.000,0.000:
00000001
00000010
00000100
00010000
,
00000010
00010000
00001000
01000000
,
10010000
00000000
10010000
01100000
,
10010000
00000000
00000000
00000000
,
00020000
00000000
01030000
00100000
,
10000000
01000000
00100000
00001000
,
01000000
00100000
00010000
00001000
,
00000020
00000000
00000130
00010000
,
00011000
00000000
00010000
01000000
,
00100000
00001000
00010000
00100000
,
10000000
00010000
00100000
00001000
,
00000020
00000000
00000000
00000000
00000000
00000000
00000000
00000030
00000200
00000000
00000000
00000000
00000000
00000000
00000300
00000000
,
00011000
00010000
00010000
00001000
,
00100000
00100000
01000000
00100000
,
00011000
00001000
00001000
00010000
,
00000010
00000100
00000010
00000110
,
00011000
00100000
01000000
00100000
,
00001000
00001000
00010000
00001000
,
00001100
00000100
00000010
00000010
,
00002002
00000000
00000000
00003003
00002002
00000000
00000000
00003003
,
00000001
00000100
00000000
00000001
00000000
00001000
00000010
00010000
,
00000000
00001000
00000000
00010000
00001000
00100000
00000000
00001000
,
00000000
00100000
00010000
00000000
02200000
00000000
00000000
03300000
,
10000000
00010000
00000000
10000000
00000000
00010000
01000000
00001000
,
00000000
00010000
00000000
00001000
00100000
00000000
00011000
00000000
,
00011000
00000000
00001100
00000000
00002200
00000000
00000000
00003300
,
00011000
00000000
00001000
01000000
,
00100000
00000000
00100000
10000000
,
01000000
00000000
01000000
00010000
,
00001000
00000000
00010000
00000010
,
00000100
00000000
00001000
00000100
,
00000001
00000000
00000010
00000100
,
00001001
00000000
00000100
00010000
,
00011000
00000000
01010000
10010000
,
11000000
00000000
00000000
00100000
00010000
00000000
01000000
00000000
,
00001000
00010000
00000100
00000010
,
00000001
00000000
00000000
00000100
00000010
00000000
00010000
00000000
,
00001000
00000000
00000000
00000000
00000000
00000000
00010000
00001000
00020000
00000000
00000000
00000000
00000000
00000000
00030000
00000000
,
01001000
00000000
00000000
00100000
01000000
00000000
00010000
01000000
,
00010000
00100000
00001000
00010000
,
00011000
00000000
00000110
00000000
,
00000101
00000000
00000011
00000011
,
00002000
00000000
00000000
00003000
00000200
00000000
00000000
00000300
,
00020000
00000000
00000000
00030000
00001000
00000000
00010000
00000000
,
00200000
00000000
00000000
00300000
20000000
00000000
00000000
30000000
,
02000000
00000000
00000000
03000000
00100000
00000000
00001000
00000000
,
00000200
00000000
00000000
00000300
00000020
00000000
00000000
00000030
,
00002000
00000000
00000000
00003000
00000100
00000000
00010000
00000000
,
00002000
00000000
00000000
00003000
02000000
00000000
00000000
03000000
,
00220000
00000000
00000000
00000000
00000000
00000000
00000000
00330000
,
00002020
00000000
00000000
00000000
00000000
00000000
00000000
00003030
,
00000001
00000010
00000100
00001000
,
00000010
00000100
00001000
00010000
,
00011000
00000000
00001010
00011000
,
00110000
00000000
00000000
00000000
,
10000000
00000000
00000000
00000000
;

//---------------dance-single - Blank----------------
#NOTES:
     dance-single:
     Blank:
     Beginner:
     1:
     0.186,0.232,0.197,0.000,0.000,118.000,21.000,0.000,0.000,0.000,0.000,0.186,0.232,0.197,0.000,0.000,118.000,21.000,0.000,0.000,0.000,0.000:
1001
0000
0000
0000
,
1001
0000
0000
0000
,
1001
0000
1001
1001
,
1001
0000
0000
0000
,
1000
0000
0100
0000
,
1000
0000
0100
0000
,
0010
0000
0001
0000
,
0100
0000
0001
0000
,
1001
0000
0100
0000
,
1000
0000
0100
0000
,
1000
0000
0010
0000
,
0100
0000
0010
0000
,
0001
0001
0001
0000
,
0100
0100
0100
0000
,
0010
0010
0010
0000
,
0100
0100
0100
0000
,
1000
1000
1000
0000
,
0100
0100
0100
0000
,
0001
0001
0001
0000
,
1001
0000
1001
0000
,
1000
0000
0000
0100
,
0000
0000
0001
0000
,
0000
0100
0100
0000
,
1000
0000
0000
0010
,
0000
0000
0001
0000
,
0000
0010
0010
0000
,
1000
0000
0001
0000
,
0010
0000
0001
0000
,
0100
0000
0001
0000
,
1000
0000
0100
0000
,
1000
0000
0010
0000
,
0100
0000
0001
0000
,
0110
0000
0100
0000
,
0110
0000
0110
0110
,
0110
0000
0001
0000
,
1000
0000
0100
0000
,
1000
0000
0010
0000
,
0001
0000
0100
0000
,
0010
0000
1000
0000
,
0100
0000
0010
0000
,
0110
0000
0010
0000
,
1001
0000
1001
1001
,
1001
0000
0100
0000
,
0010
0000
1000
1000
,
1000
0000
0001
0000
,
0010
0000
0001
0001
,
0001
0000
1000
0000
,
0010
0000
1000
1000
,
1000
0000
0100
0000
,
1001
0000
0000
0000
,
0110
0000
0000
0000
,
0001
0001
0000
1000
,
1000
0000
0010
0000
,
0100
0100
0000
0001
,
0001
0000
0000
0000
,
1000
0000
0000
0000
;
