#TITLE:Burning Pipers Hut;
#SUBTITLE:;
#ARTIST:Beltaine;
#TITLETRANSLIT:;
#SUBTITLETRANSLIT:;
#ARTISTTRANSLIT:;
#GENRE:;
#CREDIT:;
#BANNER:burningpipershut-bn.png;
#BACKGROUND:burningpipershut-bg.png;
#LYRICSPATH:;
#CDTITLE:;
#MUSIC:02.-.Burning.Pipers.Hut-Beltaine-Rockhill.2004(cut).ogg;
#OFFSET:-0.215;
#SAMPLESTART:0.160;
#SAMPLELENGTH:12.000;
#SELECTABLE:YES;
#BPMS:0.000=105.000,64.000=106.000,65.000=107.000,66.000=108.000,67.000=109.000,68.000=110.500,69.000=111.500,70.000=112.500,71.000=113.500,72.000=114.500,73.000=115.500,74.000=117.000,75.000=118.500,76.000=120.000,77.000=121.000,78.000=122.000,80.000=123.000,82.000=124.000,84.000=125.000,86.000=125.500,88.000=126.000,90.000=126.500,92.000=127.000,94.000=128.000,96.000=129.000,98.000=130.000,100.000=131.000,102.000=132.000,104.000=133.000,106.000=133.500,108.000=134.000,112.000=135.000,120.000=136.000,124.000=136.500,128.000=137.000,132.000=137.500,136.000=138.000,140.000=138.500,144.000=139.000;
#STOPS:;
#TIMESIGNATURES:0.000=4=4
;
#BGCHANGES:;
#KEYSOUNDS:;

//---------------dance-single - Blank----------------
#NOTES:
     dance-single:
     Blank:
     Challenge:
     11:
     0.951,0.794,0.143,0.136,1.000,845.000,19.000,18.000,7.000,0.000,0.000,0.951,0.794,0.143,0.136,1.000,845.000,19.000,18.000,7.000,0.000,0.000:
0001
0000
0000
0000
0101
0000
0000
1000
0000
0100
0010
0001
0100
0010
0001
0010
,
1000
0000
0000
0000
0010
0000
0000
0100
0001
0010
0001
0000
0010
0100
1000
0001
,
0100
0000
0000
0000
1010
0000
0000
0100
0000
0001
0010
0000
0001
1000
0010
1000
,
0100
0000
0000
0000
1100
0000
0100
0010
1000
0010
0001
0000
0100
1000
0100
0001
,
1000
0100
0010
0001
0200
0000
0300
0100
0010
1000
0100
0010
0100
0000
1000
0001
,
0100
0000
0000
0000
0010
0000
1000
0000
00M0
0000
0100
0000
0000
0000
0010
0000
0000
0000
0100
0000
0001
0000
0100
0000
0010
0001
0010
0000
0100
0000
1000
0000
,
0001
0100
1000
0100
0020
0000
0030
0010
1000
0100
0010
1000
0010
0000
0001
1000
,
0010
0000
0100
0001
0000
0010
0000
0001
1000
0000
0010
0000
0010
0000
0100
0000
,
0010
0000
0000
0001
0010
0000
10M0
0000
0001
0100
0010
0000
0100
0001
0010
0100
,
1000
0000
0000
0100
0000
0M00
0020
0000
0000
1000
0000
0030
0001
0010
1000
0010
,
0001
0000
0000
0100
0010
0000
10M0
0000
0010
0100
1000
0000
0100
0001
0010
0001
,
1000
0000
0010
0100
0001
0010
0100
0001
0100
0010
0001
1000
0010
0100
1000
0100
,
0010
0100
0001
0010
0100
0000
0M10
0000
0001
0000
0100
0000
0010
0000
0010
1000
,
0001
0000
0000
0000
0010
0000
0000
0000
0100
0000
0000
0000
0M10
0000
0000
0000
1000
0000
0010
0000
0001
0000
0100
0000
0010
0100
0010
0000
1000
0000
0001
0000
,
1000
0100
0010
0001
0100
0000
0M10
0000
0001
0000
0010
0000
1000
0000
0100
1000
,
0010
0000
0000
0000
0100
0000
0000
0000
0001
0010
0000
0000
0010
0000
0100
0000
0001
0000
0000
0000
0100
0000
0000
0000
0100
0000
0000
0000
1000
0000
0000
0000
,
1000
0000
0100
1000
0001
1000
0100
1000
0010
0100
0001
1000
0100
1000
0001
0100
,
0010
0000
1000
0001
0010
0001
1000
0001
0100
1000
0100
0010
0001
0000
1000
0000
,
0001
0000
0010
1000
0100
1000
0010
1000
0001
0010
0100
1000
0001
1000
0100
0001
,
0100
0000
0010
0001
0100
0001
0010
0001
1000
0010
0100
0001
0010
0000
0010
0000
,
1001
0000
1000
0100
1000
0000
0001
0000
0010
0100
0010
0000
0010
0100
1000
0000
,
1001
0000
0001
0010
0001
0000
0100
0000
0010
1000
0010
0000
0100
0000
0001
0000
,
0110
0000
0001
1000
0001
0000
0100
0000
1000
0100
1000
0000
0100
0001
1000
0000
,
0110
0000
1000
0001
1000
0000
0100
0000
0001
0100
0001
0000
0100
0000
1000
0000
,
0120
0000
0031
2100
0000
3010
0110
0100
,
1002
0000
0013
0201
0000
0310
1001
0100
,
0120
0000
1030
0120
0000
0031
0110
0010
,
2001
0000
3100
0120
0000
1030
1010
0010
,
1000
0000
0100
0010
0100
0000
1000
0000
0001
0010
0001
0010
0100
1000
0001
0000
,
1000
0000
0010
0100
0010
0000
0100
0001
1000
0001
0010
0000
0100
0010
0100
0000
,
1000
0000
0001
0100
0001
0000
0010
0000
0100
1000
0100
0000
0010
0001
0100
0001
,
1000
0000
0010
0100
0010
0000
1000
0000
0100
1000
0010
0000
1000
0001
1000
0001
,
0010
0100
1000
0000
0100
0000
0100
0000
1000
0001
0010
0000
0100
0000
0100
0000
,
1000
0010
0100
0000
0010
0000
0100
0001
0100
0000
0010
0000
1000
0001
1000
0000
,
0001
1000
0100
0000
0010
0000
0010
0000
0100
0010
0001
0000
1000
0000
1000
0000
,
0010
0100
0000
0001
0010
0000
0001
1000
0000
0010
1000
0000
0100
0010
0100
0000
,
0010
0001
0001
0100
0001
1000
0010
0100
0010
1000
0100
0010
0001
0000
0001
0000
,
0100
0010
0010
1000
0010
0100
0001
0010
0100
1000
0001
0010
0100
0000
1000
0100
,
0010
0001
0001
0100
0010
1000
0001
0100
0001
1000
0100
0010
0001
0000
0001
0100
,
0010
1000
0001
0100
0010
1000
0100
1000
0100
0010
0001
1000
0010
0000
0100
0000
,
0010
1000
1000
0100
1000
0001
0010
0100
0010
0001
0100
0010
1000
0000
1000
0000
,
0100
0010
0010
0001
0010
0100
1000
0010
0100
0001
1000
0010
0100
0000
0001
0100
,
0010
1000
1000
0100
0010
0001
1000
0100
1000
0001
0100
0010
1000
0000
1000
0100
,
0010
0001
1000
0100
0010
0001
0100
0001
0100
0010
1000
0001
0010
0000
0100
0000
,
1000
0100
0100
0000
1000
0100
0010
0001
1000
0010
0100
0000
0010
0000
0100
0001
,
0010
0001
0001
0000
1000
0100
1000
0010
0100
0001
1000
0010
0100
0000
0010
1000
,
0001
0010
0010
0000
0100
1000
0100
0010
0001
1000
0001
0000
0100
0000
0010
0100
,
0001
1000
1000
0000
0100
1000
0010
1000
0001
0100
0010
1000
0001
0000
0010
0001
,
0100
0010
0010
0000
1000
0010
0100
0010
1000
0100
1000
0000
0001
0000
0010
0100
,
0010
0001
0001
0000
0100
0001
1000
0010
1000
0100
0010
0001
0010
0000
0001
1000
,
0010
0100
0100
0000
0010
1000
0001
0010
0001
0100
0001
1000
0100
0000
0010
0100
,
1000
0001
0001
0000
0100
0001
0010
0001
1000
0100
1000
0010
0100
0000
0010
0000
,
1000
0000
0000
0000
0000
0000
0100
0000
0010
0000
0001
0000
0010
0000
0000
0000
0000
0000
0100
0000
0000
1000
0000
0000
0001
0000
0000
0100
0000
0000
0010
0000
0000
1000
0000
0000
0001
0000
0000
1000
0000
0000
0100
0000
0000
0010
0000
0000
,
0001
0000
0000
0000
0000
0000
0010
0000
0100
0000
0010
0000
0001
0000
0000
0000
0000
0000
1000
0000
0000
0100
0000
0000
0010
0000
0000
0001
0000
0000
1000
0000
0000
0001
0000
0000
0100
0000
0000
0010
0000
0000
0100
0000
0000
0001
0000
0000
,
1000
0000
0000
0000
0000
0000
0010
0000
1000
0000
0010
0000
0100
0000
0000
0000
0000
0000
0010
0000
0000
1000
0000
0000
0001
0000
0000
0010
0000
0000
0100
0000
0000
0010
0000
0000
0100
0000
0000
1000
0000
0000
0001
0000
0000
0010
0000
0000
,
0001
0100
0010
1000
0001
1000
0010
0100
0010
1000
0100
0010
0001
0010
0001
0000
,
1000
0000
0000
0000
0000
0000
0100
0000
0010
0000
0001
0000
1000
0000
0000
0000
0000
0000
0001
0000
0000
1000
0000
0000
0010
0000
0000
0100
0000
0000
0010
0000
0000
1000
0000
0000
0001
0000
0000
0010
0000
0000
0100
0000
0000
1000
0000
0000
,
0200
0000
0000
0000
0000
0000
1300
0000
0100
0000
0010
0000
0001
0000
0000
0000
0000
0000
0100
0000
0000
0001
0000
0000
1000
0000
0000
0100
0000
0000
0010
0000
0000
0100
0000
0000
1000
0000
0000
0001
0000
0000
0100
0000
0000
0010
0000
0000
,
2000
0000
0000
0000
0000
0000
3010
0000
0100
0000
0001
0000
1000
0000
0000
0000
0000
0000
0100
0000
0000
1000
0000
0000
0001
0000
0000
0100
0000
0000
0010
0000
0000
0100
0000
0000
0001
0000
0000
1000
0000
0000
0010
0000
0000
0100
0000
0000
,
0001
1000
0100
0010
0001
1000
0100
0010
0100
1000
0001
0100
0010
0100
0001
0000
,
0001
0100
1000
0001
0010
1000
0001
0100
1000
0001
0010
1000
0020
0000
0030
0010
,
0001
0010
1000
0001
0100
1000
0001
0010
1000
0001
0100
1000
0200
0000
0300
0001
,
1000
0010
0001
1000
0100
0001
1000
0010
0001
1000
0100
0001
0100
0000
0010
1000
,
0002
0000
0003
0010
0100
1000
0001
0010
0100
0010
0001
0010
0100
0000
0010
0000
,
0001
0010
1000
0001
0100
1000
0001
0010
1000
0001
0100
1000
0200
0000
0300
0100
,
0001
0100
1000
0001
0010
1000
0001
0100
1000
0001
0010
1000
0010
0000
0000
0001
,
1000
0100
0001
1000
0010
0001
1000
0100
0001
1000
0010
0001
0010
0000
0100
1000
,
0002
0000
0003
0100
0010
0100
0001
1000
0100
0010
0100
1000
0001
0100
0001
0000
;

//---------------dance-single - Blank----------------
#NOTES:
     dance-single:
     Blank:
     Easy:
     5:
     0.361,0.512,0.385,0.030,0.249,280.000,51.000,4.000,0.000,0.000,0.000,0.361,0.512,0.385,0.030,0.249,280.000,51.000,4.000,0.000,0.000,0.000:
1000
0000
0001
0000
0000
0010
0001
0000
,
0010
0000
0100
0000
0000
1000
0100
0000
,
1000
0000
0010
0000
0000
0010
0100
0000
,
0001
0001
0010
0010
,
0001
0000
1000
0000
0000
0100
1000
0000
,
0010
0000
0100
0000
0000
1000
0100
0000
,
0001
0000
0010
0000
0000
0010
0001
0000
,
1000
0000
0010
0000
0000
0100
0001
0000
,
1000
0000
0000
1000
0000
0000
1000
0000
0000
0100
0000
0000
1000
0000
0000
0000
,
0001
0000
0000
0001
0000
0000
0010
0000
0000
0000
0000
0000
0001
0000
0000
0000
,
0100
0000
0000
0100
0000
0000
0100
0000
0000
0010
0000
0000
0100
0000
0000
0000
,
0001
0010
0001
1000
,
0010
0000
0000
0010
0000
0000
0010
0000
0000
1000
0000
0000
0010
0000
0000
0000
,
0100
0000
0000
0100
0000
0000
0001
0000
0000
0000
0000
0000
0001
0000
0000
0000
,
1000
0000
0000
1000
0000
0000
1000
0000
0000
0100
0000
0000
1000
0000
0000
0000
,
0010
0010
0100
0001
,
1000
0000
0000
0010
0000
0000
0100
0000
,
0001
0000
0000
0010
0000
0000
0001
0000
,
1000
0000
0000
0010
0000
0000
1000
0000
,
0100
0000
0000
0010
0000
0000
0001
0000
,
1001
0000
0000
0100
0000
0000
1000
0000
,
0110
0000
0000
0001
0000
0000
1000
0000
,
1100
0000
0000
0010
0000
0000
0001
0000
,
0011
0000
0000
1000
0000
0000
0001
0000
,
0200
0000
0000
0000
0000
0000
0000
0300
,
0020
0000
0000
0000
0000
0030
0100
0002
,
0000
0000
0003
0020
0000
0000
0000
0000
,
0000
0000
0000
0000
0000
0030
0100
0000
,
1001
0000
0000
0001
0000
0000
1000
0000
,
1010
0000
0000
0010
0000
1000
0000
0001
,
0010
0000
0001
1000
,
1000
0000
0000
0010
0000
0000
1000
0000
,
0001
0010
0001
0100
,
0001
1000
0100
1000
,
0010
0100
0001
0100
,
0010
0010
0100
0001
,
1000
0000
0000
0100
0000
0000
0100
0000
0000
0010
0000
0000
0001
0000
0000
0000
,
0001
0000
0000
0100
0000
0000
0100
0000
0000
0010
0000
0000
1000
0000
0000
0000
,
0100
0000
0000
1000
0000
0000
1000
0000
0000
0010
0000
0000
0100
0000
0000
0000
,
0001
0000
0000
0010
0000
0000
0010
0000
0000
0001
0000
0000
0100
0000
0000
0000
,
0001
0000
0000
1000
0000
0000
1000
0000
0000
0100
0000
0000
0010
0000
0000
0000
,
0001
0000
0000
0100
0000
0000
0100
0000
0000
0010
0000
0000
0100
0000
0000
0000
,
0001
0000
0000
0010
0000
0000
0010
0000
0000
0100
0000
0000
0010
0000
0000
0000
,
0001
0000
0000
1000
0000
0000
1000
0000
0000
0010
0000
0000
0100
0000
0000
0000
,
0001
0000
0000
0010
0000
0000
0100
0000
0000
0000
0000
0000
1001
0000
0000
0000
,
1000
0000
0000
0001
0000
0000
0010
0000
0000
0000
0000
0000
1001
0000
0000
0000
,
1000
0000
0000
0010
0000
0000
0001
0000
0000
0000
0000
0000
0110
0000
0000
0000
,
0001
0000
0000
0010
0000
0000
1000
0000
0000
0000
0000
0000
0110
0000
0000
0000
,
0001
0000
0000
0100
0000
0000
0001
0000
0000
0000
0000
0000
1001
0000
0000
0000
,
1000
0000
0000
0010
0000
0000
0100
0000
0000
0000
0000
0000
1001
0000
0000
0000
,
0001
0000
0000
0100
0000
0000
1000
0000
0000
0000
0000
0000
0110
0000
0000
0000
,
1000
0000
0000
0100
0000
0000
0001
0000
0000
0000
0000
0000
0110
0000
0000
0000
,
0001
0000
0000
0010
0000
0000
0011
0000
0000
1000
0000
0000
0001
0000
0000
0000
,
0100
0000
0000
0010
0000
0000
0110
0000
0000
0001
0000
0000
1000
0000
0000
0000
,
0100
0000
0000
1000
0000
0000
1100
0000
0000
0001
0000
0000
0010
0000
0000
0000
,
0001
0000
0000
0100
0000
0000
0110
0000
0000
0010
0000
0000
0100
0000
0000
0000
,
0001
0000
0000
1000
0000
0000
1010
0000
0000
0001
0000
0000
1000
0000
0000
0000
,
0001
0000
0000
0010
0000
0000
1001
0000
0000
0100
0000
0000
1000
0000
0000
0000
,
0001
0000
0000
0100
0000
0000
0101
0000
0000
0001
0000
0000
0010
0000
0000
0000
,
0001
0000
0000
1000
0000
0000
0011
0000
0000
0001
0000
0000
1000
0000
0000
0000
,
0110
0000
0000
0010
0000
0000
0110
0000
0000
0100
0000
0000
0110
0000
0000
0000
,
1001
0000
0000
0001
0000
0000
1001
0000
0000
1000
0000
0000
1001
0000
0000
0000
,
0110
0000
0000
0010
0000
0000
1001
0000
0000
1000
0000
0000
0110
0000
0000
0000
,
1001
0000
0000
0010
0000
0000
0110
0000
0000
1000
0000
0000
1001
0000
0000
0000
,
1001
0000
0000
1001
0000
0000
1001
0000
0000
1001
0000
0000
1001
0000
0000
0000
,
0110
0000
0000
0110
0000
0000
0110
0000
0000
0110
0000
0000
0110
0000
0000
0000
,
1001
0000
0000
0010
0000
0000
1001
0000
0000
0100
0000
0000
1001
0000
0000
0000
,
0110
0000
0000
0001
0000
0000
0110
0000
0000
1000
0000
0000
0110
0000
0110
0000
;

//---------------dance-single - Blank----------------
#NOTES:
     dance-single:
     Blank:
     Hard:
     9:
     0.760,0.717,0.196,0.083,0.883,668.000,26.000,11.000,7.000,0.000,0.000,0.760,0.717,0.196,0.083,0.883,668.000,26.000,11.000,7.000,0.000,0.000:
1000
0100
0010
0001
0200
0000
0300
0100
0010
1000
0100
0010
0100
0000
1000
0001
,
0100
0000
0010
1000
00M0
0100
0000
0010
0000
0100
0001
0100
0010
0000
0100
1000
,
0001
0100
1000
0100
0020
0000
0030
0010
1000
0100
0010
1000
0010
0000
0001
1000
,
0010
0000
0100
0001
0000
0010
0000
0001
1000
0000
0010
0000
0010
0000
0100
0000
,
0001
0000
0000
0000
0101
0000
0000
1000
0000
0100
0010
0000
0010
0001
0100
0010
,
0001
0000
0000
0000
0010
0000
1000
0010
0000
0010
0100
0000
0001
1000
0100
0000
,
0010
0000
0000
0000
0100
0000
0010
0001
0000
0001
0100
0000
0010
0100
0001
0010
,
0001
0000
0000
0000
1100
0000
0010
0100
0000
0100
0010
0000
0001
0100
0001
0000
,
1000
0100
0010
0001
1000
0000
M001
0000
0100
0000
1000
0000
0100
0000
0010
1000
,
0001
0000
0010
0000
0100
0000
0M10
0000
1000
0010
0001
0100
0010
0000
0100
0001
,
1000
0100
0010
0001
0100
0000
0M10
0000
0001
0000
0010
0000
1000
0000
0100
1000
,
0010
0000
0100
0000
0001
0000
0010
0100
0001
0000
0100
0000
0100
0000
1000
0000
,
0010
0000
0000
0001
0010
0000
10M0
0000
0001
0100
0010
0000
0100
0001
0010
0100
,
1000
0000
0000
0100
0000
0M00
0020
0000
0000
0000
0000
0030
0001
0010
1000
0010
,
0001
0000
0000
0100
0010
0000
10M0
0000
0010
0100
1000
0000
0100
0001
0010
0001
,
1000
0000
0100
0000
1000
0010
0100
0000
0001
0000
0010
0000
0100
0001
0100
0000
,
1000
0000
0100
1000
0001
1000
0100
1000
0010
0100
0001
1000
0100
1000
0001
0100
,
0010
0000
1000
0001
0010
0001
1000
0001
0100
0010
1000
0010
0100
0000
0001
0000
,
0100
0000
0010
1000
0100
1000
0010
1000
0001
0010
0100
1000
0001
1000
0100
0010
,
0100
0000
0010
0001
0100
0001
0010
0001
1000
0010
0100
0001
0010
0000
0010
0000
,
1001
0000
1000
0100
1000
0000
0001
0000
0010
0100
0010
0000
0010
0100
1000
0000
,
1001
0000
0001
0010
0001
0000
0100
0000
0010
1000
0010
0000
0100
0000
0001
0000
,
0110
0000
0001
1000
0001
0000
0100
0000
0010
1000
0010
0000
0100
0001
1000
0000
,
0110
0000
1000
0001
1000
0000
0100
0000
0010
0001
0010
0000
0100
0000
1000
0000
,
0120
0000
0031
0012
0000
0013
0100
1000
,
1002
0000
0103
0201
0000
0310
1000
0001
,
0120
0000
1030
2100
0000
3001
0010
0100
,
2001
0000
3100
0210
0000
0301
0010
0100
,
1000
0000
0100
0010
0100
0000
1000
0000
0001
0010
0001
0000
0010
0100
0010
0000
,
0001
0000
1000
0100
1000
0000
0001
0000
0100
0001
0100
0000
0010
1000
0010
0000
,
1000
0000
0001
0100
0001
0000
0010
0000
0100
1000
0100
0000
0010
0001
0010
0000
,
0001
0000
1000
0010
1000
0000
0100
0000
0010
0100
0010
0000
0001
1000
0001
0000
,
0010
0100
1000
0000
0100
0000
0100
0000
1000
0001
0010
0000
0100
0000
0100
0000
,
1000
0010
0100
0000
0010
0000
0100
0001
0100
0000
0010
0000
1000
0001
1000
0000
,
0001
1000
0100
0000
0010
0000
0010
0000
0100
0010
0001
0000
1000
0000
1000
0000
,
0010
0100
0000
0001
0010
0000
0001
1000
0000
0010
1000
0000
0001
0010
0001
0000
,
0101
0000
0000
0010
0000
0100
0001
0000
0000
0010
0000
0000
0001
0000
1000
0000
,
0010
0000
0100
0001
0000
0000
0010
0000
0100
1000
0000
1000
0010
0000
0100
0000
,
0100
0000
0010
0100
0000
0000
0001
0000
0010
0100
0000
0100
0010
0000
0001
0000
,
0100
0000
0010
0100
0000
0000
0001
0000
0001
0010
0000
0100
0010
0000
0010
0100
,
1000
0000
0000
0010
0000
0100
0001
0000
0000
0010
0000
0010
0001
0000
1000
0000
,
0010
0000
0100
0001
0000
0000
0010
0000
0000
0100
0010
0000
0001
1000
0001
1000
,
0100
0000
1000
0010
0000
0000
0100
0000
0100
0001
0000
0000
0010
0000
0001
1000
,
0001
0000
0100
0010
0000
0000
0100
0000
0001
0010
0000
0100
0010
0000
0100
1000
,
0001
0000
0000
0100
0000
0000
1010
0000
0000
0010
0100
0000
0001
0100
0001
1000
,
0100
0000
0000
0010
0000
0000
0011
0000
0000
1000
0001
0000
0100
0001
0100
0001
,
1000
0000
0000
0100
0000
0000
1010
0000
0000
0010
0100
0000
0001
1000
0010
1000
,
0001
0000
0010
0000
0000
0000
0100
0000
0010
0001
0010
0000
0001
1000
0010
0100
,
0010
0000
0000
1000
0000
0000
0110
0000
0000
0100
0001
0000
0010
0001
0010
0001
,
1000
0000
0000
0010
0000
0000
0101
0000
0000
0001
0000
0000
0100
0001
0100
0010
,
0100
0000
0000
0001
0000
0000
0011
0000
0000
0100
0000
0000
1000
0100
0010
0001
,
0010
0000
0010
0001
0000
0000
0100
0000
0100
0010
1000
0000
0001
0000
0001
0000
,
1000
0000
0000
0000
0000
0000
0100
0000
0010
0000
0001
0000
0010
0000
0000
0000
0000
0000
0001
0000
0000
0000
0000
0000
0000
0000
0000
0100
0000
0000
0010
0000
0000
0000
0000
0000
0010
0000
0000
1000
0000
0000
0000
0000
0000
0000
0000
0000
,
0100
0000
0000
0000
0000
0000
1000
0000
0100
0000
0010
0000
0100
0000
0000
0000
0000
0000
0010
0000
0000
0000
0000
0000
0000
0000
0000
0001
0000
0000
1000
0000
0000
0000
0000
0000
1000
0000
0000
0010
0000
0000
0000
0000
0000
0000
0000
0000
,
0100
0000
0000
0000
0000
0000
0001
0000
0010
0000
0001
0000
0010
0000
0000
0000
0000
0000
0100
0000
0000
0000
0000
0000
0000
0000
0000
0010
0000
0000
0001
0000
0000
0000
0000
0000
0100
0000
0000
0001
0000
0000
1000
0000
0000
0000
0000
0000
,
0010
0000
0000
0100
0000
0000
0101
0000
0000
1000
0010
0000
0110
0000
0000
0000
,
0001
0000
0000
0000
0000
0000
1000
0000
0100
0000
0010
0000
0001
0000
0000
0000
0000
0000
1000
0000
0000
0000
0000
0000
0000
0000
0000
0001
0000
0000
0000
0000
0000
0000
0000
0000
0101
0000
0000
0000
0000
0000
0000
0000
0000
0000
0000
0000
,
0010
0000
0000
0000
0000
0000
0100
0000
0001
0000
1000
0000
0010
0000
0000
0000
0000
0000
0100
0000
0000
0000
0000
0000
0000
0000
0000
0001
0000
0000
0000
0000
0000
0000
0000
0000
0010
0000
0000
0001
0000
0000
1000
0000
0000
0000
0000
0000
,
0100
0000
0000
0000
0000
0000
0010
0000
0100
0000
1000
0000
0001
0000
0000
0000
0000
0000
0010
0000
0000
0000
0000
0000
0000
0000
0000
0100
0000
0000
1000
0000
0000
0000
0000
0000
0010
0000
0000
0100
0000
0000
0000
0000
0000
0000
0000
0000
,
0001
0000
0000
0010
0000
0000
1010
0000
0000
1000
0001
0000
0001
0010
0100
0000
,
1000
0100
0000
1000
0010
0000
0100
0010
0000
0100
0001
0000
0010
0000
0010
0000
,
0001
0010
0000
0001
0100
0000
0010
0100
0000
0010
1000
0000
0100
0000
0100
0000
,
1000
0100
0000
1000
0001
0000
0100
0001
0000
0100
0010
0000
1000
0000
1000
0000
,
0010
0100
0000
0001
0010
0000
0010
0100
0000
1000
0010
0000
1000
0000
1000
0000
,
0010
0100
0000
0100
0001
0000
0001
0010
0000
0010
0100
0000
1000
0000
1000
0000
,
0001
0100
0000
0100
0010
0000
0010
1000
0000
1000
0100
0000
0010
0000
0010
0000
,
0001
1000
0000
1000
0010
0000
0010
0100
0000
0100
0001
0000
0010
0000
0010
0000
,
0001
0100
0000
0100
0010
0000
1000
0100
0000
0100
0010
0000
0001
0000
1001
0000
;

//---------------dance-single - Blank----------------
#NOTES:
     dance-single:
     Blank:
     Medium:
     7:
     0.486,0.512,0.302,0.053,0.317,404.000,40.000,7.000,18.000,0.000,0.000,0.486,0.512,0.302,0.053,0.317,404.000,40.000,7.000,18.000,0.000,0.000:
1000
0000
0000
0000
0001
0000
0000
0100
0010
0000
0010
0000
1000
0000
0000
0000
,
0001
0000
0000
0000
0010
0000
0000
0001
0000
0001
0000
0000
0100
0000
0000
0000
,
0010
0000
0000
0000
1000
0000
0000
0100
0010
0000
0010
0000
0001
0000
0000
0000
,
0100
0000
0000
0000
0010
0000
0000
0010
1000
0000
1000
0000
0001
0000
0000
0000
,
0010
0000
0000
0000
0001
0000
0000
0001
0100
0000
0010
0000
1000
0000
0000
0000
,
0100
0000
0000
0000
1000
0000
0000
1000
0010
0000
0100
0000
0010
0000
0000
0000
,
1000
0000
0000
0000
0001
0000
0000
0001
0010
0000
0100
0000
0010
0000
0000
0000
,
0001
0000
0000
0000
0100
0000
0000
0100
0010
0000
1000
0000
0100
0000
0000
0000
,
1000
0000
0000
0001
0010
0000
0001
0000
0100
0010
0000
0000
1000
0000
0000
0000
,
0001
0000
0000
0010
0000
0000
001M
0000
0000
0100
0000
0000
0010
0000
0001
0000
,
1000
0000
0000
0010
0100
0000
0010
0000
1000
0100
0000
0000
0010
0000
0000
0000
,
0001
0010
1000
0010
0001
0100
0010
1000
,
0001
0000
0000
0100
0010
0000
0100
0000
0001
0000
1000
0000
0001
0000
0000
0000
,
1000
0000
0000
0100
0000
0000
0M20
0000
0000
0000
0000
0000
0031
0000
0000
0000
,
0100
0000
0000
0010
0100
0000
0001
0000
1000
0000
0100
0000
0010
0000
0000
0000
,
0001
1000
0010
0100
1000
0100
0001
0001
,
1000
0000
0000
0100
1000
0000
0001
0000
0001
0010
0000
0000
0001
0000
0001
0000
,
0100
0000
0000
0001
0100
0000
0010
0000
0010
1000
0000
0000
0010
0000
0010
0000
,
1000
0000
0000
0001
1000
0000
0010
0000
0100
0010
0000
0000
0100
0000
0100
0000
,
0001
0000
0000
0010
0001
0000
0100
0000
0010
0100
0000
0000
0010
0000
0010
0000
,
1000
0100
1000
0001
1000
0100
0010
0001
,
1000
0010
1000
0001
0100
0010
1000
0001
,
1000
0100
0010
0100
0010
0001
0100
0001
,
1000
0010
0100
0010
0100
0001
0010
0100
,
0010
0000
0001
0010
0000
1000
0010
0000
,
0100
0000
0001
0100
0000
1000
0100
0000
,
1000
0000
0010
0001
0000
0010
1000
0000
,
0010
0000
0100
1000
0000
0100
0001
0000
,
1000
0000
0100
0010
0000
0010
0001
0100
,
0001
0000
1000
0010
0000
0010
1000
0100
,
0010
0000
0001
1000
0000
0100
1000
0001
,
0100
0000
0010
1000
0000
0010
0100
0100
,
0001
0010
0001
0000
1000
0100
1000
0000
,
0010
0100
0001
0000
0010
0001
1000
0000
,
0001
0010
1000
0000
0010
0100
0001
0000
,
0100
0000
0000
0010
0000
0000
0001
0000
0000
1000
0000
0000
0010
0000
0000
0000
,
1000
0000
0000
0001
0000
0000
M001
0000
0000
1000
0000
0000
0010
0000
0100
0000
,
0001
0000
0000
0010
0000
0000
001M
0000
0000
0001
0000
0000
1000
0000
0001
0000
,
0100
0000
0000
0010
0000
0000
0M10
0000
0000
0100
0000
0000
0100
0000
0001
0000
,
1000
0000
0000
0100
0000
0000
M100
0000
0000
1000
0000
0000
0010
0000
0100
0000
,
0001
0000
0000
1000
0000
0000
100M
0000
0000
0100
0000
0000
1000
0000
0010
0000
,
0100
0000
0000
0001
0000
0000
0M01
0000
0000
0010
0000
0000
0100
0000
0010
0000
,
0001
0000
0000
0100
0000
0000
010M
0000
0000
0010
0000
0000
0100
0000
0001
0000
,
0010
0000
0000
0100
0000
0000
01M0
0000
0000
1000
0000
0000
0100
0000
1000
0000
,
0002
0000
0000
0100
0000
0000
1000
0000
0000
0003
0100
0000
0010
0000
0000
0000
,
2000
0000
0000
0100
0000
0000
0001
0000
3000
0000
0010
0000
0100
0000
1000
0000
,
0020
0000
0000
1000
0000
0000
0100
0000
0030
0000
0001
0000
0010
0000
0000
0000
,
0001
1000
0000
1000
0100
0000
1000
0010
,
0200
0000
0000
0010
0000
0000
1000
0000
0300
0100
0000
0000
0001
0000
0000
0000
,
2000
0000
0000
0001
0000
0000
0010
0000
3000
0000
1000
0000
0001
0000
0010
0000
,
0200
0000
0000
0010
0000
0000
0001
0000
0300
0100
0000
0000
1000
0000
0000
0000
,
0001
0100
0000
0100
0010
0000
0100
0001
,
1000
0000
0000
0100
0000
0000
1M00
0000
0000
0100
0000
0000
0010
0000
0000
0000
,
0001
0000
0000
0100
0000
0000
0M01
0000
0000
0100
0000
0000
0010
0000
0000
0000
,
1000
0000
0000
0001
0000
0000
100M
0000
0000
0001
0000
0000
0010
0000
0000
0000
,
0100
0000
0000
0010
0000
0000
01M0
0000
0000
0010
0000
0000
0001
0000
0000
0000
,
1000
0000
0000
0010
0000
0000
01M0
0000
0000
0010
0000
0000
1000
0000
0000
0000
,
0001
0000
0000
0010
0000
0000
01M0
0000
0000
0010
0000
0000
0001
0000
0000
0000
,
1000
0000
0000
0001
0000
0000
010M
0000
0000
0010
0000
0000
1000
0000
0000
0000
,
0001
0000
0000
0010
0000
0000
01M0
0000
0000
1000
0000
0000
0001
0000
0000
0000
,
1100
0000
0000
0110
0000
0000
0011
0000
0000
1001
0000
0000
0110
0000
0000
0000
,
0011
0000
0000
1001
0000
0000
1100
0000
0000
0110
0000
0000
1001
0000
0000
0000
,
0101
0000
0000
0110
0000
0000
1010
0000
0000
1001
0000
0000
0110
0000
0000
0000
,
1010
0000
0000
1001
0000
0000
0101
0000
0000
0110
0000
0000
1001
0000
0000
0000
,
1100
0000
0000
1010
0000
0000
1100
0000
0000
1010
0000
0000
1001
0000
0000
0000
,
0011
0000
0000
0101
0000
0000
0011
0000
0000
0101
0000
0000
1001
0000
0000
0000
,
1010
0000
0000
0101
0000
0000
1010
0000
0000
0101
0000
0000
1001
0000
0000
0000
,
0011
0000
0000
1100
0000
0000
0011
0000
0000
1100
0000
0000
0110
0000
0000
0000
;

//---------------dance-single - Blank----------------
#NOTES:
     dance-single:
     Blank:
     Beginner:
     1:
     0.132,0.179,0.060,0.000,0.000,114.000,8.000,0.000,0.000,0.000,0.000,0.132,0.179,0.060,0.000,0.000,114.000,8.000,0.000,0.000,0.000,0.000:
0001
0000
0000
0000
,
0100
0000
0000
0000
,
0010
0000
0000
0000
,
0001
0000
0000
0000
,
1000
0000
0000
0000
,
0100
0000
0000
0000
,
0001
0000
0000
0000
,
0010
0000
0000
0000
,
0100
0000
0010
0000
,
0001
0000
0001
0000
,
1000
0000
0010
0000
,
0100
0000
0010
0000
,
1000
0000
1000
0000
,
0100
0000
0000
0000
,
1000
0000
0001
0000
,
0100
0000
0010
0000
,
1000
0000
0000
0000
,
1000
0000
0000
0000
,
1000
0000
0000
0000
,
1000
0000
0000
0000
,
0001
0000
0000
0001
,
0001
0000
0000
0001
,
0001
0000
0000
0001
,
0001
0000
0000
0010
,
0010
0000
0000
0000
,
1000
0000
0000
0010
,
0010
0000
0000
0000
,
0100
0000
0000
0001
,
0001
0000
0000
0000
,
1000
0000
0000
0100
,
0100
0000
0000
0000
,
1000
0000
0000
0000
,
0001
0000
0001
0000
,
1000
0000
0000
0000
,
0010
0000
0010
0000
,
0100
0000
0000
0001
,
0001
0000
0000
0000
,
0010
0000
0000
1000
,
1000
0000
0000
0000
,
0100
0000
0000
0001
,
0001
0000
0000
0000
,
1000
0000
0000
0010
,
0010
0000
0000
0000
,
0100
0000
0000
0001
,
0001
0000
0000
1000
,
1000
0000
0000
0100
,
0100
0000
0000
0010
,
0010
0000
0000
0001
,
0001
0000
0000
1000
,
1000
0000
0000
0010
,
0010
0000
0000
0100
,
0100
0000
0000
0001
,
0001
0000
0000
0001
0000
0000
0000
0000
,
1000
0000
0000
1000
0000
0000
0000
0000
,
0100
0000
0000
0100
0000
0000
0000
0000
,
0010
0000
0000
0010
0000
0000
0000
0000
,
1000
0000
0000
1000
0000
0000
0000
0000
,
0001
0000
0000
0001
0000
0000
0000
0000
,
0100
0000
0000
0100
0000
0000
0000
0000
,
1000
0000
0000
1000
0000
0000
0000
0000
,
1001
0000
0000
0001
0000
0000
0000
0000
,
1001
0000
0000
1000
0000
0000
0000
0000
,
0110
0000
0000
0010
0000
0000
0000
0000
,
0110
0000
0000
0100
0000
0000
0000
0000
,
1001
0000
0000
0001
0000
0000
0000
0000
,
0110
0000
0000
0010
0000
0000
0000
0000
,
1001
0000
0000
1000
0000
0000
0000
0000
,
0110
0000
0000
0010
0000
0000
0010
0000
;

//---------------dance-double - Blank----------------
#NOTES:
     dance-double:
     Blank:
     Challenge:
     13:
     0.994,0.769,0.000,0.030,1.000,918.000,0.000,4.000,8.000,0.000,0.000,0.994,0.769,0.000,0.030,1.000,918.000,0.000,4.000,8.000,0.000,0.000:
10000000
01000000
00100000
00010000
00002000
00000000
00000000
00003010
00001000
00010000
00001000
00000010
00001000
00000000
00010000
00100000
,
01000000
00000000
00000000
00000000
10000000
00000000
00010000
00000000
00000000
00000000
100M0000
00000000
00000000
00000000
01000000
00000000
00000000
00000000
00010000
00000000
00001000
00000000
00000010
00000000
00001000
00010000
00001000
00000000
00010000
00000000
00100000
00000000
,
01000000
00100000
00010000
00001000
00000200
00000000
00000000
00000310
00000100
00001000
00000100
00000001
00000100
00000000
00001000
00010000
,
01000000
00000000
10000000
00010000
00000000
01000000
00000000
00100000
10000000
00000000
01000000
00000000
01000000
00000000
10000000
00000000
,
00010000
10000000
00100000
01000000
00020000
00000000
00000000
00130000
00001000
00010000
00001000
00000010
00001000
00000000
00010000
00100000
,
01000000
00000000
00000000
00000000
00010000
00000000
00100000
00000000
000M0000
00000000
00001000
00000000
00000000
00000000
00000100
00000000
00000000
00000000
00000010
00000000
00001000
00000000
00000001
00000000
00001000
00000001
00001000
00000000
00000010
00000000
00000100
00000000
,
00001000
00000100
00000001
00001000
00000200
00000000
00000000
00010300
00001000
00010000
00001000
00000010
00001000
00000000
00010000
00100000
,
01000000
00000000
00010000
00100000
00000000
01000000
00000000
10000000
00100000
00000000
01000000
00000000
01000000
00000000
10000000
00000000
,
01000000
00100000
00010000
00001000
00100000
00000000
01M00000
00000000
00010000
00000000
01000000
00000000
00100000
00000000
00001000
00010000
,
00000100
00000000
00000000
00000000
00010000
00000000
00000000
00000000
00000010
00000000
00000000
00000000
000100M0
00000000
00000000
00000000
00000100
00000000
00000010
00000000
00000001
00000000
00001000
00000000
00000001
00001000
00000001
00000000
00000010
00000000
00000100
00000000
,
00001000
00000100
00000010
00000001
00001000
00000000
0000M010
00000000
00010000
00000000
01000000
00000000
00100000
00000000
01000000
10000000
,
00100000
00000000
01000000
00000000
00001000
00000000
00010000
00100000
01000000
00000000
00010000
00000000
00010000
00000000
10000000
00000000
,
01000000
00100000
00010000
00001000
00000100
00000000
00010M00
00000000
00000010
00000000
00010000
00000000
00000100
00000000
00010000
00100000
,
01000000
00000000
00000000
00000000
00010000
00000000
00000000
00000000
00100000
00000000
00000000
00000000
00M10000
00000000
00000000
00000000
01000000
00000000
00001000
00000000
00010000
00000000
00000010
00000000
00001000
00000010
00001000
00000000
00000100
00000000
00010000
00000000
,
00100000
00010000
00001000
00000100
00000010
00000000
000010M0
00000000
00000001
00000000
00001000
00000000
00000010
00000000
00000100
00001000
,
00010000
00000000
01000000
00000000
00100000
00000000
00001000
00010000
00000010
00000000
00000100
00000000
00000100
00000000
00001000
00000000
,
00010000
00000000
00001000
00010000
00000010
00010000
00000100
00010000
00000010
00000100
00001000
00010000
00100000
00010000
00001000
00100000
,
00001000
00000000
00001000
00010000
00000010
00010000
00000100
00010000
00000010
00000100
00001000
00100000
00010000
00000000
00010000
00000000
,
01000000
00000000
00100000
01000000
00001000
01000000
00100000
01000000
00010000
00100000
01000000
10000000
00010000
10000000
01000000
00010000
,
00001000
00000000
00010000
00001000
00000010
00001000
00010000
00001000
00000100
00000010
00010000
00000100
00001000
00000000
00000100
00000000
,
00010000
00000000
00001000
00010000
00000010
00010000
00001000
00010000
00000100
00001000
00010000
00100000
01000000
00100000
00010000
01000000
,
00100000
00000000
00100000
01000000
00001000
01000000
00100000
01000000
00010000
00100000
01000000
00010000
10000000
00000000
00100000
00000000
,
00010000
00000000
10000000
01000000
10000000
00010000
10000000
01000000
10000000
00100000
01000000
10000000
00010000
00100000
00010000
00001000
,
00100000
00000000
00001000
00010000
00000010
00010000
00001000
00010000
00000100
00000010
00001000
00100000
00010000
00000000
00100000
00000000
,
00001000
00000000
00000100
00000010
00000001
00000010
00000100
00000010
00001000
00000100
00010000
00100000
01000000
00100000
00010000
00001000
,
00100000
00000000
00010000
00100000
00001000
00100000
00010000
00100000
00001000
00010000
00100000
10000000
01000000
00000000
01000000
00000000
,
10000000
00000000
01000000
00100000
00001000
00100000
01000000
00100000
00010000
01000000
00100000
10000000
00010000
10000000
00100000
00010000
,
00001000
00000000
00010000
00001000
00000100
00001000
00010000
00001000
00000010
00000100
00010000
00000010
00001000
00000000
00000010
00000000
,
00000100
00000000
00000001
00001000
00000100
00001000
00000001
00001000
00000010
00000100
00001000
00010000
00100000
00010000
00001000
00100000
,
00010000
00000000
00100000
01000000
00010000
01000000
00100000
01000000
10000000
00100000
01000000
00010000
00100000
00000000
00010000
00000000
,
01000000
00000000
00010000
00100000
00001000
00100000
00010000
00100000
01000000
00010000
00001000
00100000
00010000
00100000
00001000
00000010
,
00000100
00000000
00001000
00000010
00000001
00000010
00001000
00000010
00000100
00001000
00010000
01000000
00100000
00000000
00100000
00000000
,
01000000
00000000
10000000
01000000
00010000
01000000
10000000
01000000
00100000
10000000
00010000
01000000
10000000
01000000
00010000
10000000
,
00100000
00000000
00001000
00010000
00000010
00010000
00000100
00010000
00000010
00000100
00001000
00100000
00010000
00000000
00100000
00000000
,
00001000
00000000
00010000
00000010
00000100
00000010
00010000
00000010
00001000
00010000
01000000
00100000
10000000
01000000
00100000
10000000
,
00100000
00000000
00010000
01000000
00001000
01000000
00010000
01000000
00100000
00010000
00001000
01000000
00010000
00000000
00100000
00000000
,
00001000
00000010
00000010
00000100
00010000
00001000
01000000
00001000
00010000
00000100
00000010
00000001
00001000
00000000
00001000
00000000
,
00000010
00000001
00000001
00000010
00001000
00000100
00010000
00000100
00001000
00010000
00000010
00001000
00010000
00000000
01000000
00010000
,
00001000
00000100
00000100
00000010
00001000
00000100
00010000
00001000
00000010
00000100
00001000
00000001
00000100
00000000
00000100
00000010
,
00001000
00000100
00010000
00001000
00100000
00001000
01000000
00100000
00010000
00001000
00010000
00100000
10000000
00000000
01000000
00000000
,
00100000
00001000
00001000
00010000
01000000
10000000
00100000
10000000
01000000
00010000
00001000
00000100
00000010
00000000
00000010
00000000
,
00001000
00000001
00000001
00000010
00001000
00010000
00100000
00010000
00001000
01000000
00100000
10000000
01000000
00000000
10000000
00010000
,
00100000
00001000
00001000
00010000
01000000
00100000
10000000
00100000
01000000
00010000
00001000
00000100
00000010
00000000
00000100
00000001
,
00000010
00000001
00001000
00000010
00001000
00000100
00010000
00100000
00010000
00001000
00010000
00100000
10000000
00000000
01000000
00000000
,
00100000
00010000
00100000
00000000
01000000
00100000
00001000
00000010
00000100
00010000
00001000
00000000
00100000
00000000
00010000
01000000
,
00100000
10000000
00100000
00000000
01000000
00010000
00100000
00001000
00010000
01000000
00100000
01000000
10000000
00000000
00100000
01000000
,
00001000
00010000
00001000
00000000
00010000
00001000
00000010
00000001
00001000
00000010
00001000
00000000
00000001
00000000
00000100
00001000
,
00010000
00001000
00100000
00000000
01000000
00100000
00001000
00010000
00000010
00001000
00000001
00000100
00001000
00000000
00100000
00001000
,
00010000
01000000
00100000
00000000
00010000
10000000
00100000
00010000
00001000
01000000
00010000
00000000
00100000
00000000
00001000
00010000
,
00001000
00000010
00001000
00000000
00010000
00001000
00000010
00000001
00000100
00000010
00000001
00000010
00000100
00000000
00000100
00000010
,
00010000
00001000
00100000
00000000
01000000
00100000
00001000
00000100
00000010
00001000
00000010
00000000
00000001
00000000
00000010
00001000
,
00000100
00010000
00001000
00000000
01000000
00010000
10000000
01000000
00010000
01000000
00100000
00001000
00010000
00000000
00001000
00000000
,
01000000
00000000
00000000
00000000
00000000
00000000
00010000
00000000
10000000
00000000
01000000
00000000
00100000
00000000
00000000
00000000
00000000
00000000
00100000
00000000
00000000
00001000
00000000
00000000
00010000
00000000
00000000
00100000
00000000
00000000
01000000
00000000
00000000
00010000
00000000
00000000
00100000
00000000
00000000
01000000
00000000
00000000
10000000
00000000
00000000
00010000
00000000
00000000
,
10000000
00000000
00000000
00000000
00000000
00000000
01000000
00000000
00100000
00000000
00010000
00000000
10000000
00000000
00000000
00000000
00000000
00000000
01000000
00000000
00000000
00010000
00000000
00000000
00001000
00000000
00000000
00000010
00000000
00000000
00000100
00000000
00000000
00001000
00000000
00000000
00000001
00000000
00000000
00000100
00000000
00000000
00000010
00000000
00000000
00001000
00000000
00000000
,
00000100
00000000
00000000
00000000
00000000
00000000
00010000
00000000
00001000
00000000
00010000
00000000
00000010
00000000
00000000
00000000
00000000
00000000
00001000
00000000
00000000
00000010
00000000
00000000
00000100
00000000
00000000
00001000
00000000
00000000
00010000
00000000
00000000
00000100
00000000
00000000
00010000
00000000
00000000
00001000
00000000
00000000
00100000
00000000
00000000
01000000
00000000
00000000
,
00100000
00001000
00010000
00000100
00000010
00001000
00100000
00001000
00010000
00100000
10000000
00100000
01000000
00010000
10000000
00000000
,
01000000
00000000
00000000
00000000
00000000
00000000
10000000
00000000
01000000
00000000
00100000
00000000
00010000
00000000
00000000
00000000
00000000
00000000
01000000
00000000
00000000
00010000
00000000
00000000
00100000
00000000
00000000
01000000
00000000
00000000
10000000
00000000
00000000
00100000
00000000
00000000
01000000
00000000
00000000
10000000
00000000
00000000
00010000
00000000
00000000
00100000
00000000
00000000
,
00010000
00000000
00000000
00000000
00000000
00000000
00001000
00000000
00010000
00000000
00000010
00000000
00001000
00000000
00000000
00000000
00000000
00000000
00000100
00000000
00000000
00000010
00000000
00000000
00000001
00000000
00000000
00000100
00000000
00000000
00001000
00000000
00000000
00000001
00000000
00000000
00000010
00000000
00000000
00000100
00000000
00000000
00001000
00000000
00000000
00010000
00000000
00000000
,
00001000
00000000
00000000
00000000
00000000
00000000
00010000
00000000
00000100
00000000
00001000
00000000
00000100
00000000
00000000
00000000
00000000
00000000
00000010
00000000
00000000
00001000
00000000
00000000
00000001
00000000
00000000
00000100
00000000
00000000
00001000
00000000
00000000
00000001
00000000
00000000
00000010
00000000
00000000
00000100
00000000
00000000
00001000
00000000
00000000
00000010
00000000
00000000
,
00010000
00001000
00000100
00001000
01000000
00100000
00010000
00001000
00100000
01000000
00010000
00001000
00100000
00010000
01000000
00000000
,
00001000
00010000
00100000
10000000
01000000
00010000
00001000
00010000
01000000
10000000
00100000
00010000
00001000
00000000
00000000
00000100
,
00000001
00000100
00001000
00010000
00001000
00000100
00000001
00000010
00001000
00010000
00001000
00000010
00000100
00000000
00000000
00010000
,
00001000
00010000
01000000
10000000
00100000
00010000
00001000
00010000
01000000
10000000
00100000
00010000
00001000
00000000
00010000
00000010
,
00000100
00000000
00000000
00000001
00000010
00000001
00001000
00000100
00000010
00000001
00000010
00000100
00001000
00000000
00000100
00000000
,
00000010
00000100
00001000
00000010
00000100
00001000
00010000
00100000
01000000
00010000
00100000
01000000
00010000
00000000
00000000
00001000
,
00100000
01000000
10000000
00010000
00100000
01000000
00001000
00010000
00100000
00000100
00001000
00010000
00001000
00000000
00000000
00000100
,
00000001
00000100
00001000
00000001
00000100
00001000
00010000
00100000
10000000
00010000
00100000
10000000
00100000
00000000
01000000
00100000
,
00001000
00000000
00000000
00100000
00010000
00100000
01000000
00010000
00001000
00100000
00001000
00010000
00100000
01000000
00100000
00000000
;

//---------------dance-double - Expert----------------
#NOTES:
     dance-double:
     Expert:
     Hard:
     11:
     0.932,0.769,0.060,0.121,1.000,840.000,8.000,16.000,8.000,0.000,0.000,0.932,0.769,0.060,0.121,1.000,840.000,8.000,16.000,8.000,0.000,0.000:
10000000
01000000
00100000
00001000
00020000
00000000
00030000
00000100
00001000
00000100
00000010
00000001
00000100
00000000
00000010
00000100
,
00001000
00000000
01000000
00010000
00000000
010M0000
00000000
00100000
00000000
10000000
01000000
00100000
01000000
00000000
00100000
00010000
,
10000000
00100000
01000000
00001000
00010000
00000000
00000000
00000100
00010000
00001000
00010000
00000010
00000100
00000000
00000001
00000010
,
00000100
00000000
00010000
00000010
00000000
00000100
00000000
00001000
00010000
00000000
00100000
00000000
00100000
00000000
01000000
00000000
,
00010000
10000000
01000000
00100000
00020000
00000000
00030000
00100000
00001000
00010000
00000010
00001000
00000010
00000000
00010000
00001000
,
01000000
00000000
00100000
10000000
00000000
M1000000
00000000
00100000
00000000
00010000
01000000
00001000
00010000
00000000
01000000
10000000
,
00010000
01000000
00001000
00010000
00000200
00000000
00000300
00000100
00010000
00001000
00010000
00000010
00001000
00000000
00000001
00000010
,
00000100
00000000
00001000
00000001
00000000
00000100
00000000
00000010
00000001
00000000
00000010
00000000
00000010
00000000
00010000
00000000
,
00001000
00000000
00000000
00010000
00100000
00000000
10M00000
00000000
00010000
01000000
00100000
00000000
10000000
01000000
00100000
00001000
,
00010000
00000000
00000000
00000100
00000000
00000000
00000M20
00000000
00000000
00001000
00000000
00000030
00000001
00000010
00000100
00001000
,
00000010
00000000
00000000
00010000
00001000
00000000
0010M000
00000000
00010000
00100000
01000000
00000000
00100000
00010000
10000000
00010000
,
01000000
00000000
00100000
01000000
00010000
10000000
01000000
10000000
00010000
00100000
00001000
00010000
00000100
00000010
00000100
00001000
,
00000002
00000000
00000000
00000103
00000010
00000000
000010M0
00000000
00000001
00000010
00000100
00000000
00001000
00000010
00010000
00001000
,
00100000
00000000
00000000
01000000
00000000
00000000
2M000000
00000000
00000000
00000000
00000000
30000000
00010000
01000000
00100000
00000000
,
10000000
00000000
00000000
01000000
00100000
00000000
00M01000
00000000
00010000
00001000
00000010
00000000
00000100
00001000
00000010
00000000
,
00000100
00000000
00000001
00000000
00000010
00000001
00000100
00000000
00000010
00000000
00000100
00000000
00001000
00010000
00001000
00000000
,
00100000
00000000
00001000
00010000
00000010
00010000
00001000
00010000
00000100
00010000
00001000
00100000
01000000
00100000
00010000
01000000
,
00100000
00000000
01000000
00010000
00100000
00010000
01000000
00010000
10000000
01000000
00100000
00010000
10000000
00000000
00100000
00000000
,
01000000
00000000
00001000
00010000
00000100
00010000
00001000
00010000
00000010
00001000
00000100
00010000
00001000
00010000
00000010
00001000
,
00000001
00000000
00000010
00000001
00001000
00000001
00000100
00000001
00001000
00000100
00000010
00000001
00001000
00000000
00000010
00000000
,
00011000
00000000
01000000
00010000
01000000
00000000
00100000
00000000
10000000
00010000
10000000
00000000
00010000
00100000
00010000
00000000
,
00011000
00000000
00000100
00001000
00000100
00000000
00000010
00000000
00000001
00001000
00000001
00000000
00000100
00000000
00000010
00000000
,
00001001
00000000
00001000
00000001
00001000
00000000
00000100
00000000
00010000
00001000
00010000
00000000
00001000
01000000
00001000
00000000
,
00011000
00000000
00000010
00010000
00000010
00000000
00010000
00000000
00001000
00100000
00001000
00000000
01000000
00000000
00100000
00000000
,
02100000
00000000
03010000
20000000
00000000
31000000
00010000
00001000
,
00021000
00000000
00030100
00000020
00000000
00001030
00000010
00000001
,
00000102
00000000
00001003
00000020
00000000
00000130
00001000
00010000
,
00012000
00000000
00103000
00020000
00000000
00130000
10000000
00100000
,
00010000
00000000
01000000
00100000
01000000
00000000
00010000
00000000
10000000
00010000
10000000
00010000
00100000
00001000
00100000
00000000
,
00001000
00000000
00010000
00000010
00010000
00000000
00000100
00001000
00000001
00000010
00000001
00000000
00000100
00000001
00000100
00000000
,
00000010
00000000
00001000
00000010
00001000
00000000
00000100
00000000
00010000
00000100
00010000
00000000
00001000
00100000
00010000
00100000
,
00010000
00000000
10000000
00100000
10000000
00000000
00010000
00000000
00100000
01000000
00100000
00000000
01000000
10000000
01000000
10000000
,
00010000
00100000
01000000
00000000
00100000
00000000
00100000
00000000
00010000
00100000
00001000
00000000
00010000
00000000
00010000
00000000
,
00000010
00001000
00000001
00000000
00000100
00000000
00000010
00000100
00000010
00000000
00001000
00000000
00000001
00000010
00000001
00000000
,
00001000
00000100
00000010
00000000
00000100
00000000
00001000
00000000
00000010
00010000
00001000
00000000
01000000
00000000
00010000
00000000
,
10000000
01000000
00000000
00100000
01000000
00000000
00100000
00010000
00000000
00100000
00001000
00000000
00010000
00001000
00010000
00000000
,
00000010
00010000
00000010
00001000
00000001
00001000
00000100
00000010
00000001
00000100
00000001
00001000
00000010
00000000
00000010
00000000
,
00010000
00001000
00100000
00010000
10000000
00100000
01000000
00100000
10000000
00010000
00100000
01000000
00100000
00000000
01000000
00100000
,
00010000
00100000
00001000
00010000
00001000
01000000
00010000
01000000
00001000
00010000
00000010
00001000
00000100
00000000
00000100
00000010
,
00000001
00000100
00000010
00001000
00000100
00001000
00000001
00000010
00000001
00001000
00000010
00010000
00001000
00000000
01000000
00000000
,
00010000
00100000
01000000
10000000
00010000
10000000
01000000
00100000
00010000
00100000
00001000
00010000
00000010
00000000
00000010
00000000
,
00000100
00000001
00000100
00000010
00001000
00000001
00001000
00000100
00010000
00001000
00010000
00000010
00001000
00000000
00000100
00010000
,
00001000
01000000
00010000
00100000
01000000
10000000
00010000
01000000
00100000
01000000
00001000
00010000
00000010
00000000
00001000
00000100
,
00000010
00000100
00001000
00000001
00000100
00000010
00010000
00001000
00010000
00000100
00001000
00000100
00010000
00000000
00001000
00000000
,
01000000
00010000
01000000
00000000
00010000
10000000
01000000
00100000
00010000
10000000
00100000
00000000
01000000
00000000
00001000
00010000
,
00001000
00100000
00010000
00000000
10000000
00010000
01000000
00010000
00100000
00001000
00010000
00000100
00010000
00000000
00000010
00001000
,
00000010
00000100
00000010
00000000
00000100
00000001
00001000
00000100
00000010
00000100
00000010
00000000
00000001
00000000
00000010
00000100
,
00001000
00000100
00010000
00000000
00001000
01000000
00010000
01000000
00100000
10000000
00010000
00100000
01000000
00000000
10000000
01000000
,
00100000
00010000
00100000
00000000
00010000
01000000
00001000
00010000
00000010
00001000
00000010
00000000
00010000
00000000
00000100
00000010
,
00000100
00001000
00000100
00000000
00001000
00000001
00000010
00000001
00000100
00000010
00000100
00000001
00001000
00000000
00000100
00010000
,
00001000
01000000
00001000
00000000
01000000
00010000
10000000
01000000
00100000
01000000
00100000
00000000
00001000
00000000
00010000
00000010
,
00001000
00000001
00001000
00000000
00000100
00010000
00001000
00010000
00000010
00001000
00000001
00000010
00000100
00000000
00010000
00000000
,
00001000
00000000
00000000
00000000
00000000
00000000
01000000
00000000
00010000
00000000
01000000
00000000
00001000
00000000
00000000
00000000
00000000
00000000
01000000
00000000
00000000
00010000
00000000
00000000
00100000
00000000
00000000
01000000
00000000
00000000
10000000
00000000
00000000
00010000
00000000
00000000
00100000
00000000
00000000
01000000
00000000
00000000
10000000
00000000
00000000
00010000
00000000
00000000
,
01000000
00000000
00000000
00000000
00000000
00000000
01000000
00000000
00001000
00000000
00010000
00000000
00001000
00000000
00000000
00000000
00000000
00000000
00010000
00000000
00000000
00000100
00000000
00000000
00000010
00000000
00000000
00000001
00000000
00000000
00000010
00000000
00000000
00000100
00000000
00000000
00001000
00000000
00000000
00000001
00000000
00000000
00000100
00000000
00000000
00000010
00000000
00000000
,
00001000
00000000
00000000
00000000
00000000
00000000
00000100
00000000
00001000
00000000
00000100
00000000
00000010
00000000
00000000
00000000
00000000
00000000
00000100
00000000
00000000
00010000
00000000
00000000
00001000
00000000
00000000
00100000
00000000
00000000
00010000
00000000
00000000
00100000
00000000
00000000
00001000
00000000
00000000
01000000
00000000
00000000
00010000
00000000
00000000
10000000
00000000
00000000
,
00100000
01000000
00010000
01000000
00100000
10000000
01000000
00100000
00010000
00100000
01000000
00100000
00010000
10000000
00100000
00000000
,
01000000
00000000
00000000
00000000
00000000
00000000
00001000
00000000
00010000
00000000
00000010
00000000
00010000
00000000
00000000
00000000
00000000
00000000
00000100
00000000
00000000
00001000
00000000
00000000
00000001
00000000
00000000
00000100
00000000
00000000
00000010
00000000
00000000
00000100
00000000
00000000
00000001
00000000
00000000
00001000
00000000
00000000
00000100
00000000
00000000
00000010
00000000
00000000
,
00000001
00000000
00000000
00000000
00000000
00000000
00000010
00000000
00000001
00000000
00001000
00000000
00000001
00000000
00000000
00000000
00000000
00000000
00001000
00000000
00000000
00000010
00000000
00000000
00000100
00000000
00000000
00000001
00000000
00000000
00000010
00000000
00000000
00000100
00000000
00000000
00001000
00000000
00000000
00000100
00000000
00000000
00010000
00000000
00000000
00001000
00000000
00000000
,
00100000
00000000
00000000
00000000
00000000
00000000
00010000
00000000
01000000
00000000
00001000
00000000
00010000
00000000
00000000
00000000
00000000
00000000
00001000
00000000
00000000
00100000
00000000
00000000
00010000
00000000
00000000
00100000
00000000
00000000
01000000
00000000
00000000
00100000
00000000
00000000
01000000
00000000
00000000
10000000
00000000
00000000
00010000
00000000
00000000
01000000
00000000
00000000
,
00010000
10000000
01000000
10000000
00010000
01000000
00100000
10000000
00010000
00100000
01000000
00100000
00010000
10000000
00100000
00000000
,
01000000
00010000
01000000
00001000
00010000
00001000
00100000
00010000
00100000
00001000
00010000
00001000
00000010
00000000
00000000
00000100
,
00001000
00000001
00001000
00000010
00000100
00000010
00010000
00001000
00010000
00000100
00001000
00000100
00010000
00000000
00000000
01000000
,
10000000
00100000
10000000
00010000
00100000
00010000
01000000
00001000
01000000
00010000
10000000
00010000
00100000
00000000
00010000
00100000
,
00002000
00000000
00003000
00000100
00000010
00000100
00000001
00001000
00000100
00000010
00000100
00001000
00000001
00000000
00001000
00000000
,
00000100
00010000
00000100
00001000
00000010
00001000
00000001
00000010
00000001
00000100
00000010
00000100
00001000
00000000
00000000
00100000
,
00001000
00010000
00001000
01000000
00100000
01000000
00010000
10000000
00010000
00100000
01000000
00100000
00001000
00000000
00000000
00010000
,
01000000
10000000
01000000
00100000
00010000
00100000
00001000
00010000
00001000
00010000
00000010
00010000
00000100
00000000
00001000
00000100
,
00000020
00000000
00000030
00000100
00000010
00000100
00001000
00000010
00000100
00000001
00000100
00000010
00010000
00001000
00010000
00000000
;

//---------------dance-double - Hard----------------
#NOTES:
     dance-double:
     Hard:
     Medium:
     9:
     0.695,0.641,0.053,0.076,0.785,627.000,7.000,10.000,1.000,0.000,0.000,0.695,0.641,0.053,0.076,0.785,627.000,7.000,10.000,1.000,0.000,0.000:
00001000
00000000
00000000
00000000
00011000
00000000
00000000
01000000
00010000
00100000
00010000
00000000
01000000
00001000
00010000
00000000
,
00000010
00000000
00000000
00000000
00000110
00000000
00000000
00000001
00000000
00000010
00000001
00000000
00001000
00000100
00001000
00000000
,
00000010
00000000
00000000
00000000
00011000
00000000
00000000
00001000
00000000
00000000
00100000
00000000
00010000
10000000
01000000
00100000
,
00010000
00000000
00000000
00000000
00011000
00000000
00100000
00001000
00010000
00000010
00010000
00000000
00000010
00001000
00000100
00000010
,
00000001
00000000
00000000
00000000
00001100
00000000
00000000
00000001
00001000
00000100
00010000
00000000
00001000
01000000
00010000
00000000
,
00100000
00000000
00000000
00000000
01000000
00000000
00100000
00010000
00000000
00010000
01000000
00000000
00100000
10000000
01000000
00000000
,
00100000
00000000
00000000
00000000
00011000
00000000
00000000
00000100
00001000
00000001
00000100
00000000
00000010
00001000
00000100
00001000
,
00000001
00000000
00000000
00000000
00000010
00000000
00000100
00010000
00000000
00010000
00001000
00000000
00001000
00100000
00010000
10000000
,
00100000
00000000
00000000
01000000
00000000
00000000
0M010000
00000000
00100000
00010000
00000000
00000000
00010000
10000000
00100000
10000000
,
00010000
00000000
00000000
00000010
00000000
00000000
00000200
00000000
00000000
00000010
00000000
00000300
00000010
00000001
00000100
00000001
,
00001000
00000000
00000000
00000010
00000100
00000000
00000010
00000000
00000000
00010000
00001000
00000000
00100000
00010000
00100000
00001000
,
00010000
00000000
00000010
00010000
00001000
00010000
00000100
00010000
00001000
01000000
00001000
00010000
00001000
00100000
00010000
10000000
,
00100000
00000000
00000000
01000000
00000000
00000000
00001000
00000000
00001000
00010000
00000010
00000000
00000010
00001000
00000010
00000100
,
00000001
00000000
00000000
00001000
00000000
00000000
00020000
00000000
00000000
00000000
00000000
00030000
00010000
01000000
00100000
10000000
,
01000000
00000000
00000000
10000000
00100000
00000000
01000000
00000000
00001000
00010000
00001000
00000000
00001000
00010000
00000010
00000000
,
00001000
00000000
00000100
00000000
00000010
00000001
00001000
00000000
00000100
00000000
00010000
00000000
00001000
01000000
00010000
00000000
,
10000000
01000000
10000000
00100000
00010000
00001000
00010000
01000000
,
00100000
00010000
00100000
00001000
00000100
00000010
00000100
00000001
,
00001000
00000100
00001000
00000001
00000100
00001000
00010000
00001000
,
00000010
00000100
00000010
00001000
00010000
00100000
00010000
00010000
,
00001000
00000000
01000000
00010000
01000000
00000000
00100000
00000000
10000000
00010000
10000000
00000000
00010000
00100000
00010000
00000000
,
00100000
00000000
00001000
00010000
00001000
00000000
00010000
00000000
00000010
00001000
00000010
00000000
00000100
00000000
00000001
00000000
,
00001000
00000000
00000001
00001000
00000001
00000000
00000100
00000000
00000010
00001000
00000010
00000000
00010000
00001000
00010000
00000000
,
00001000
00000000
01000000
00010000
01000000
00000000
00010000
00000000
10000000
01000000
10000000
00000000
00100000
00000000
00100000
00000000
,
02000000
00000000
03010000
00200000
00000000
01300000
00100000
00001000
,
00020000
00000000
00030010
00000200
00000000
00000301
00001000
00000100
,
00000020
00000000
00000130
00020000
00000000
00031000
01000000
00010000
,
00200000
00000000
00310000
02000000
00000000
03100000
10000000
01000000
,
10000000
00000000
00010000
00100000
00010000
00000000
10000000
00000000
00010000
01000000
00010000
01000000
00001000
00010000
00001000
00000000
,
00010000
00000000
00000100
00010000
00000100
00000000
00001000
00000100
00000010
00000001
00000010
00000000
00000001
00000100
00000001
00000000
,
00001000
00000000
00000010
00001000
00000010
00000000
00010000
00000000
00000100
00010000
00000100
00000000
00010000
00001000
01000000
00010000
,
01000000
00000000
00010000
00100000
00010000
00000000
10000000
00000000
01000000
00100000
01000000
00000000
10000000
00010000
10000000
00010000
,
01000000
00100000
01000000
00000000
00010000
00000000
00010000
00000000
01000000
00001000
00010000
00000000
00001000
00000000
00001000
00000000
,
00010000
00000010
00001000
00000000
00000100
00000000
00000010
00000100
00000010
00000000
00000100
00000000
00001000
00000001
00001000
00000000
,
00000001
00000100
00000010
00000000
00001000
00000000
00001000
00000000
00000010
00010000
00001000
00000000
00010000
00000000
00010000
00000000
,
00001000
00100000
00000000
00010000
00100000
00000000
00010000
10000000
00000000
01000000
10000000
00000000
01000000
00100000
01000000
00000000
,
10000000
00000000
00000000
00100000
00000000
00010000
00001000
00000000
00000000
00010000
00000000
00000000
00000100
00000000
00000010
00000000
,
00000001
00000000
00000100
00000010
00000000
00000000
00010000
00000000
00001000
00100000
00000000
00100000
00010000
00000000
10000000
00000000
,
01000000
00000000
00100000
01000000
00000000
00000000
00010000
00000000
00001000
00010000
00000000
00010000
00000100
00000000
00001000
00000000
,
00000010
00000000
00000100
00000010
00000000
00000000
00001000
00000000
00000001
00001000
00000000
00001000
00000100
00000000
00010000
00001000
,
00100000
00000000
00000000
01000000
00000000
00100000
00010000
00000000
00000000
10000000
00000000
10000000
00100000
00000000
01000000
00000000
,
00001000
00000000
00010000
00001000
00000000
00000000
00000010
00000000
00000000
00000100
00000010
00000000
00000100
00001000
00000100
00001000
,
00000001
00000000
00000100
00000010
00000000
00000000
00010000
00000000
00001000
00010000
00000000
00000000
01000000
00000000
10000000
01000000
,
10000000
00000000
00010000
00100000
00000000
00000000
00001000
00000000
00010000
00000100
00000000
00001000
00000100
00000000
00000010
00000001
,
00000010
00000000
00000000
00001000
00000000
00000000
00010000
00000000
00000000
00001000
01000000
00000000
00010000
00100000
00010000
10000000
,
01000000
00000000
00000000
00010000
00000000
00000000
00001000
00000000
00000000
00010000
00000010
00000000
00000100
00000010
00000100
00000001
,
00001000
00000000
00000000
00000100
00000000
00000000
00010000
00000000
00000000
01000000
00100000
00000000
01000000
10000000
00010000
10000000
,
00100000
00000000
01000000
00000000
00000000
00000000
00001000
00000000
00010000
00000100
00010000
00000000
00000100
00001000
00000100
00000010
,
00000001
00000000
00000000
00000100
00000000
00000000
00001000
00000000
00000000
00000100
00000010
00000000
00001000
00000010
00010000
00001000
,
00010000
00000000
00000000
01000000
00000000
00000000
00010000
00000000
00000000
00001000
00000000
00000000
00100000
00010000
10000000
00010000
,
01000000
00000000
00000000
10000000
00000000
00000000
01000000
00000000
00000000
00010000
00000000
00000000
00100000
00001000
00010000
00000010
,
00010000
00000000
00000100
00001000
00000000
00000000
00000100
00000000
00000010
00000001
00000010
00000000
00000001
00000000
00000001
00000000
,
00001000
00000000
00000000
00001000
00010000
00000000
00001000
00000000
00000000
00100000
01000000
00000000
01000000
10000000
00000000
00000000
,
00010000
00000000
00000000
00010000
00001000
00000000
00010000
00000000
00000000
00000010
00000100
00000000
00000100
00000001
00000000
00000000
,
00000010
00000000
00000000
00001000
00010000
00000000
01000000
00000000
00000000
00100000
00010000
00000000
01000000
00010000
10000000
00000000
,
00100000
00000000
00000000
00010000
00000000
00000000
00000010
00000000
00000000
00010000
00001000
00000000
00100000
00000000
00000000
00000000
,
00010000
00000000
00000000
00010000
00001000
00000000
00000010
00000000
00000000
00000001
00000000
00000000
00000100
00000010
00000000
00000000
,
00001000
00000000
00000000
00001000
00010000
00000000
00100000
00000000
00000000
10000000
00000000
00000000
01000000
00100000
00010000
00000000
,
00100000
00000000
00000000
00001000
00010000
00000000
01000000
00000000
00000000
00010000
00001000
00000000
00010000
00000010
00001000
00000000
,
00000001
00000000
00000000
00000100
00000000
00000000
00001000
00000000
00000000
00100000
00010000
00000000
00010000
10000000
01000000
00000000
,
10000000
00010000
00000000
00100000
00001000
00000000
00010000
00000100
00000000
00001000
00000001
00000000
00000010
00000000
00000010
00000000
,
00000001
00001000
00000000
00000010
00010000
00000000
00001000
01000000
00000000
00010000
10000000
00000000
01000000
00000000
01000000
00000000
,
10000000
00010000
00000000
00100000
00001000
00000000
00010000
00000010
00000000
00001000
00000001
00000000
00000010
00000000
00000010
00000000
,
00000001
00001000
00000000
00000010
00010000
00000000
00001000
00100000
00000000
00010000
10000000
00000000
01000000
00000000
01000000
00000000
,
10000000
00010000
00000000
01000000
00010000
00000000
00100000
00001000
00000000
00010000
00001000
00000000
00010000
00000000
00000010
00000000
,
00001000
00000001
00000000
00000010
00000001
00000000
00001000
00000100
00000000
00001000
00000010
00000000
00010000
00000000
00001000
00000000
,
01000000
00010000
00000000
00100000
00010000
00000000
10000000
00100000
00000000
01000000
00010000
00000000
00100000
00000000
00001000
00000000
,
00010000
00000100
00000000
00001000
00000001
00000000
00001000
00000010
00000000
00010000
00000010
00000000
00001000
00000000
00011000
00000000
;

//---------------dance-double - Medium----------------
#NOTES:
     dance-double:
     Medium:
     Easy:
     6:
     0.418,0.333,0.000,0.091,0.291,376.000,0.000,12.000,8.000,0.000,0.000,0.418,0.333,0.000,0.091,0.291,376.000,0.000,12.000,8.000,0.000,0.000:
00010000
00000000
00000000
00000000
01000000
00000000
00000000
00100000
10000000
00000000
10000000
00000000
00010000
00000000
00000000
00000000
,
00100000
00000000
00000000
00000000
00001000
00000000
00000000
00010000
00000000
00010000
00000000
00000000
00000010
00000000
00000000
00000000
,
00000100
00000000
00000000
00000000
00000001
00000000
00000000
00000010
00000100
00000000
00000100
00000000
00001000
00000000
00000000
00000000
,
00000010
00000000
00000000
00000000
00010000
00000000
00000000
00010000
00001000
00000000
00100000
00000000
00001000
00000000
00000000
00000000
,
01000000
00000000
00000000
00000000
00100000
00000000
00000000
00100000
10000000
00000000
00010000
00000000
10000000
00000000
00000000
00000000
,
01000000
00000000
00000000
00000000
00100000
00000000
00000000
00100000
00001000
00000000
00010000
00000000
00001000
00000000
00000000
00000000
,
00010000
00000000
00000000
00000000
00000010
00000000
00000000
00000010
00000100
00000000
00000001
00000000
00001000
00000000
00000000
00000000
,
00000100
00000000
00000000
00000000
00000010
00000000
00000000
00000010
00000001
00000000
00001000
00000000
00000100
00000000
00000000
00000000
,
00010000
00000000
00000000
00001000
00100000
00000000
00010000
00000000
01000000
00010000
00000000
00000000
10000000
00000000
00000000
00000000
,
00100000
00000000
00000000
00010000
00000000
00000000
00002000
00000000
00000000
00010000
00003000
00000000
00000100
00000000
00000000
00000000
,
00001000
00000000
00000000
00000010
00000100
00000000
00000001
00000000
00000001
00001000
00000000
00000000
00000100
00000000
00000000
00000000
,
00010000
00000000
00000000
00001000
00010000
00000000
00000000
00000000
00001000
00000000
01000000
00000000
00010000
00000000
00000000
00000000
,
10000000
00000000
00000000
01000000
00100000
00000000
00010000
00000000
00100000
00000000
00001000
00000000
00010000
00000000
00000000
00000000
,
00000010
00000000
00000000
00000100
00000000
00000000
00000002
00000000
00000000
00000000
00000000
00000003
00000001
00000000
00000000
00000000
,
00001000
00000000
00000000
00000100
00000000
00000000
00010000
00000000
00010000
00001000
00000000
00000000
00100000
00000000
00000000
00000000
,
00010000
10000000
00100000
00000000
01000000
00010000
00010000
00000000
,
10000000
00000000
00010000
01000000
00000000
00100000
10000000
00000000
,
01000000
00000000
00100000
00001000
00000000
00010000
00001000
00000000
,
00010000
00000000
00000010
00001000
00000000
00000100
00001000
00000000
,
00000001
00000000
00000010
00000100
00000000
00000010
00000001
00000000
,
00001000
00000010
00000100
00000010
00000000
00000010
00001000
00000000
,
00000001
00000010
00000001
00001000
00000000
00001000
00000100
00000000
,
00010000
00001000
01000000
00010000
00000000
00010000
00100000
00000000
,
00010000
10000000
01000000
10000000
00000000
10000000
00100000
00000000
,
02000000
00000000
00000000
00010000
00000000
00000000
00001000
03000000
,
00002000
00000000
00000000
00010000
00000000
00000000
00100000
00003000
,
00020000
00000000
00000000
00001000
00000000
00000000
00000010
00030000
,
00000020
00000000
00000000
00001000
00000000
00000000
00000100
00000030
,
00001000
00000000
00000001
00000010
00000000
00000100
00000010
00000100
,
00001000
00000000
00000100
00010000
00000000
00001000
00010000
00001000
,
01000000
00000000
00100000
01000000
00000000
00100000
10000000
00010000
,
00100000
00000000
01000000
00100000
00000000
01000000
10000000
00010000
,
00100000
00000000
00010000
00000000
00100000
00010000
10000000
00000000
,
00010000
00000000
01000000
00000000
00010000
01000000
00001000
00000000
,
00010000
00000100
00010000
00000000
00000010
00001000
00000010
00000000
,
00000100
00000000
00000000
00000001
00000000
00000000
00000010
00000000
00000000
00000100
00000000
00000000
00001000
00000000
00000000
00000000
,
00000001
00000000
00000000
00000100
00000000
00000000
00001000
00000000
00000000
00000100
00000000
00000000
00000010
00000000
00010000
00000000
,
00001000
00000000
00000000
00010000
00000000
00000000
01000000
00000000
00000000
00010000
00000000
00000000
01000000
00000000
00100000
00000000
,
00010000
00000000
00000000
01000000
00000000
00000000
10000000
00000000
00000000
01000000
00000000
00000000
00100000
00000000
01000000
00000000
,
00001000
00000000
00000000
00010000
00000000
00000000
00001000
00000000
00000010
00000000
00000000
00000000
00000100
00000000
00000010
00000000
,
00000001
00000000
00000000
00000010
00000000
00000000
00001000
00000000
00000000
00010000
00000000
00000000
00001000
00000000
00100000
00000000
,
00010000
00000000
00000000
01000000
00000000
00000000
00100000
00000000
00000000
00010000
00000000
00000000
00100000
00000000
01000000
00000000
,
00010000
00000000
00000000
10000000
00000000
00000000
01000000
00000000
00000000
10000000
00000000
00000000
00010000
00000000
01000000
00000000
,
00001000
00000000
00000000
00010000
00000000
00000000
01000000
00000000
00000000
00010000
00000000
00000000
00001000
00000000
00010000
00000000
,
00000020
00000000
00000000
00001000
00000000
00000000
00000100
00000000
00000030
00000000
00000001
00000000
00000100
00000000
00000000
00000000
,
00000020
00000000
00000000
00001000
00000000
00000000
00010000
00000000
00000030
00000000
00001000
00000000
00010000
00000000
00001000
00000000
,
00200000
00000000
00000000
00010000
00000000
00000000
01000000
00000000
00300000
00000000
00100000
00000000
01000000
00000000
00000000
00000000
,
10000000
00010000
00000000
00010000
01000000
00000000
00100000
01000000
,
00020000
00000000
00000000
10000000
00000000
00000000
00100000
00030000
00000000
00001000
00000000
00000000
00010000
00000000
00000000
00000000
,
00000200
00000000
00000000
00000010
00000000
00000000
00001000
00000000
00000000
00000300
00000100
00000000
00001000
00000000
00000010
00000000
,
00000200
00000000
00000000
00000010
00000000
00000000
00000001
00000300
00000000
00001000
00000000
00000000
00000100
00000000
00000000
00000000
,
00010000
00001000
00000000
00001000
00100000
00000000
01000000
00100000
,
00010000
00000000
00000000
10000000
00000000
00000000
100M0000
00000000
00000000
01000000
00000000
00000000
00100000
00000000
00000000
00000000
,
00001000
00000000
00000000
00010000
00000000
00000000
0001M000
00000000
00000000
00000010
00000000
00000000
00000100
00000000
00000000
00000000
,
00000001
00000000
00000000
00000010
00000000
00000000
0000001M
00000000
00000000
00000100
00000000
00000000
00000010
00000000
00000000
00000000
,
00000001
00000000
00000000
00000100
00000000
00000000
0000010M
00000000
00000000
00000010
00000000
00000000
00010000
00000000
00000000
00000000
,
00100000
00000000
00000000
10000000
00000000
00000000
10M00000
00000000
00000000
01000000
00000000
00000000
00100000
00000000
00000000
00000000
,
00001000
00000000
00000000
01000000
00000000
00000000
0100M000
00000000
00000000
00010000
00000000
00000000
00100000
00000000
00000000
00000000
,
00001000
00000000
00000000
00010000
00000000
00000000
0001M000
00000000
00000000
00000100
00000000
00000000
00000010
00000000
00000000
00000000
,
00000100
00000000
00000000
00001000
00000000
00000000
00001M00
00000000
00000000
00000010
00000000
00000000
00000100
00000000
00000000
00000000
,
00000001
00000000
00000000
00000100
00000000
00000000
00001000
00000000
00000000
00010000
00000000
00000000
01000000
00000000
01000000
00000000
,
10000000
00000000
00000000
01000000
00000000
00000000
00010000
00000000
00000000
00001000
00000000
00000000
00000100
00000000
00000100
00000000
,
00000001
00000000
00000000
00000010
00000000
00000000
00001000
00000000
00000000
00010000
00000000
00000000
00100000
00000000
00100000
00000000
,
01000000
00000000
00000000
00001000
00000000
00000000
00100000
00000000
00000000
01000000
00000000
00000000
00100000
00000000
00010000
00000000
,
10000000
00000000
00000000
00100000
00000000
00000000
00010000
00000000
00000000
00001000
00000000
00000000
00000010
00000000
00000010
00000000
,
00000001
00000000
00000000
00000100
00000000
00000000
00001000
00000000
00000000
00010000
00000000
00000000
01000000
00000000
01000000
00000000
,
10000000
00000000
00000000
00100000
00000000
00000000
01000000
00000000
00000000
00001000
00000000
00000000
00100000
00000000
00100000
00000000
,
00001000
00000000
00000000
00010000
00000000
00000000
00000010
00000000
00000000
00000100
00000000
00000000
00000001
00000000
00001000
00000000
;
