#VERSION:0.83;
#TITLE:Super Mario Bros.;
#SUBTITLE:(DDR Version);
#ARTIST:近藤浩治;
#TITLETRANSLIT:;
#SUBTITLETRANSLIT:;
#ARTISTTRANSLIT:Koji Kondo;
#GENRE:;
#ORIGIN:;
#CREDIT:;
#BANNER:;
#BACKGROUND:;
#PREVIEWVID:;
#JACKET:;
#CDIMAGE:;
#DISCIMAGE:;
#LYRICSPATH:;
#CDTITLE:;
#MUSIC:Super Mario Bros (DDR Version).mp3;
#OFFSET:0.000000;
#SAMPLESTART:19.166615;
#SAMPLELENGTH:15.000000;
#SELECTABLE:YES;
#BPMS:0.000=100.210,
12.000=200.420;
#STOPS:;
#DELAYS:;
#WARPS:;
#TIMESIGNATURES:0.000=4=4;
#TICKCOUNTS:0.000=4;
#COMBOS:0.000=1;
#SPEEDS:0.000=1.000=0.000=0;
#SCROLLS:0.000=1.000;
#FAKES:;
#LABELS:0.000=Song Start;
#BGCHANGES:;
#KEYSOUNDS:;
#ATTACKS:
;

//---------------dance-single - ----------------
#NOTEDATA:;
#CHARTNAME:;
#STEPSTYPE:dance-single;
#DESCRIPTION:;
#CHARTSTYLE:;
#DIFFICULTY:Hard;
#METER:11;
#RADARVALUES:0.767479,0.874200,1.271564,0.158945,0.270207,507.000000,387.000000,120.000000,15.000000,0.000000,0.000000,0.000000,0.000000,0.000000,0.767479,0.874200,1.271564,0.158945,0.270207,507.000000,387.000000,120.000000,15.000000,0.000000,0.000000,0.000000,0.000000,0.000000;
#CREDIT:;
#NOTES:
// measure 0
1000
1000
0000
0001
0000
1000
0100
0000
0001
0001
0000
1000
0000
0001
0100
0000
,  // measure 1
0110
1001
1100
1001
0202
0000
0000
0303
,  // measure 2
1000
1000
0000
0010
0000
1000
0001
0000
0010
0010
0000
1000
0000
0010
0001
0000
,  // measure 3
1001
0100
0000
0010
0000
0010
0100
0000
,  // measure 4
1001
0220
0000
0330
,  // measure 5
1000
0000
0001
0100
0010
0010
1000
0001
,  // measure 6
1001
0000
0010
0001
1000
1000
0100
0010
,  // measure 7
0110
0000
0100
1000
0001
0001
0010
0100
,  // measure 8
0110
0000
1000
0010
0100
0100
0001
1000
,  // measure 9
1001
0000
0010
0001
0100
0100
1000
0010
,  // measure 10
1010
0000
0010
0010
1000
0100
0100
0010
,  // measure 11
0011
0000
1000
1100
0000
0100
1001
0000
,  // measure 12
0000
0010
1000
0100
1000
0010
1001
0000
,  // measure 13
1000
0001
0000
0000
0000
0000
0001
1000
0000
0000
0000
0000
0110
0000
0000
0000
,  // measure 14
0000
0000
0010
0001
0000
0000
1000
0010
0000
0000
0001
0000
1000
0000
0000
0000
,  // measure 15
0110
0001
1000
0100
0010
0000
0010
0100
,  // measure 16
0000
1001
0000
0010
0100
1010
0000
0000
,  // measure 17
0001
1000
0000
0000
0000
0000
1000
0001
0000
0000
0000
0000
0110
0000
0000
0000
,  // measure 18
0000
0000
0100
1000
0000
0000
0001
0100
0000
0000
1000
0000
0001
0000
0000
0000
,  // measure 19
0110
1000
0001
0010
0100
0000
0100
0010
,  // measure 20
0000
1001
0000
0100
0010
0101
0000
1001
,  // measure 21
0110
0000
0001
1000
0001
0100
0000
0110
,  // measure 22
0000
0100
0010
0100
0000
1000
0001
1000
,  // measure 23
0000
0000
1000
0100
0001
0100
0000
1001
,  // measure 24
0000
0110
0000
0001
1000
0000
2200
0000
,  // measure 25
3300
0000
1000
0001
1000
0010
0000
0110
,  // measure 26
0000
0010
0100
0010
0000
0001
1000
0001
,  // measure 27
0000
0000
0000
0000
0001
1000
0000
0000
0000
0000
1000
0001
0000
0000
0000
0000
,  // measure 28
0110
0000
0011
1100
0000
0001
1000
1000
,  // measure 29
0001
0000
1000
0001
1000
0010
0000
0110
,  // measure 30
0000
0010
0100
0010
0000
0001
1000
0001
,  // measure 31
0000
0000
0001
0010
1000
0010
0000
1001
,  // measure 32
0000
0110
0000
1000
0001
0000
0022
0000
,  // measure 33
0033
0000
0001
1000
0001
0100
0000
0110
,  // measure 34
0000
0100
0010
0100
0000
1000
0001
1000
,  // measure 35
0000
0000
0000
0000
1000
0001
0000
0000
0000
0000
0001
1000
0000
0000
0000
0000
,  // measure 36
0110
0000
0000
0100
0010
1100
0101
0000
,  // measure 37
1100
0101
0000
0110
0000
1000
1100
0000
,  // measure 38
1001
0000
0000
0110
0000
0000
1100
0000
0000
0101
0000
0000
0000
0000
0000
0000
,  // measure 39
0101
1100
0000
0110
0000
0001
1000
1001
,  // measure 40
0000
0000
0001
0100
1000
0100
0001
0000
,  // measure 41
0011
1010
0000
0110
0000
0001
0011
0000
,  // measure 42
1001
0000
0000
0110
0000
0000
0011
0000
0000
1010
0000
0000
0000
0000
0000
0000
,  // measure 43
1010
0011
0000
0110
0000
1000
0001
0000
,  // measure 44
1001
0000
1000
0010
0001
0010
1000
0000
,  // measure 45
2000
0000
3200
0000
0320
0000
0031
0100
,  // measure 46
0000
1001
0000
0000
1010
0000
0010
0011
,  // measure 47
0000
0010
1010
0000
0000
0000
1000
0001
,  // measure 48
1000
0000
0000
0001
0000
1000
0000
0010
0000
0000
0001
0000
1000
0000
0000
0010
,  // measure 49
0000
1100
1001
0000
0000
0000
1000
0010
,  // measure 50
0000
1001
0000
0000
0101
0000
0100
1100
,  // measure 51
0000
0100
0101
0000
0000
0000
0001
1000
,  // measure 52
0001
0000
0000
1000
0000
0001
0000
0100
0000
0000
1000
0000
0001
0000
0000
0100
,  // measure 53
0000
0011
1001
0000
0000
0000
0010
0001
,  // measure 54
0000
0110
0000
0000
1100
0000
1000
1010
,  // measure 55
0000
1000
1100
0000
0000
0000
0100
0010
,  // measure 56
0100
0000
0000
0010
0000
0100
0000
1000
0000
0000
0010
0000
0100
0000
0000
1000
,  // measure 57
0000
0101
0110
0000
0000
0000
0100
1000
,  // measure 58
0000
0110
0000
0000
0011
0000
0001
0101
,  // measure 59
0000
0001
0011
0000
0000
0000
0010
0100
,  // measure 60
0010
0000
0000
0100
0000
0010
0000
0001
0000
0000
0100
0000
0010
0000
0000
0001
,  // measure 61
0000
1010
0220
0000
0330
0000
1001
0011
,  // measure 62
0000
0000
0101
0000
0000
0000
1000
0000
1001
0000
0000
0000
1010
0000
0000
0101
,  // measure 63
0000
0000
1001
0000
0000
0011
0000
0000
0000
0000
0000
0000
0011
0000
1001
0000
,  // measure 64
0000
0101
0000
0010
1000
1010
0000
0000
,  // measure 65
0010
0001
1000
0001
0010
0000
0110
1100
,  // measure 66
0000
0000
0101
0000
0000
0000
0010
0000
0110
0000
0000
0000
1010
0000
0000
0101
,  // measure 67
0000
0000
0110
0000
0000
1100
0000
0000
0000
0000
0000
0000
1010
0000
0011
0000
,  // measure 68
0000
0110
0000
1000
0001
0000
1001
0000
,  // measure 69
1000
0010
0001
0010
1000
0000
0000
1000
,  // measure 70
1100
0000
0100
0000
0110
0000
0010
0000
0011
0000
0001
0000
0000
0001
0000
0000
,  // measure 71
1000
0000
0000
0001
0000
0000
1000
0000
0000
0000
0000
0000
0010
0000
0000
0000
0100
0000
0000
0000
0000
0000
0000
0000
1001
0000
0000
0000
0000
0000
0000
0000
,  // measure 72
0220
0000
0000
0000
,  // measure 73
0000
0000
0000
0000
,  // measure 74
0000
0000
0000
0000
,  // measure 75
0330
0000
0000
0000
;

//---------------dance-single - ----------------
#NOTEDATA:;
#CHARTNAME:;
#STEPSTYPE:dance-single;
#DESCRIPTION:;
#CHARTSTYLE:;
#DIFFICULTY:Medium;
#METER:9;
#RADARVALUES:0.534359,0.556309,0.593396,0.158945,0.158945,353.000000,297.000000,56.000000,15.000000,0.000000,0.000000,0.000000,0.000000,0.000000,0.534359,0.556309,0.593396,0.158945,0.158945,353.000000,297.000000,56.000000,15.000000,0.000000,0.000000,0.000000,0.000000,0.000000;
#CREDIT:;
#NOTES:
0100
0000
0000
0001
0000
0000
1000
0000
0001
0000
0000
0100
0000
0000
1000
0000
,
0010
1000
0010
0000
2020
0000
3030
0000
,
0100
0000
0000
0010
0000
0000
0001
0000
0010
0000
0000
0100
0000
0000
0001
0000
,
0100
1000
0000
0010
0000
0010
1000
0000
,
0101
0000
0000
2020
0000
0000
3030
0000
,
0100
0000
0001
0000
0010
0000
0100
0001
,
0100
0000
0010
0000
0100
0000
1000
0010
,
1000
0000
1000
0000
0001
0000
0010
1000
,
0010
0000
0100
0000
1000
0000
0001
0100
,
0001
0000
0010
0000
1000
0000
0100
0010
,
0100
0000
0010
0000
0100
0000
1000
0010
,
0001
0000
0100
1000
0000
1000
0100
0000
,
0100
0010
0100
0010
0100
0010
0100
0000
,
0101
0000
0000
1001
0000
0000
1010
0000
,
0000
0010
0000
0100
0000
0001
0100
0000
,
1010
0000
0100
0000
0010
0000
0010
1000
,
0000
0101
0000
0010
1000
0100
0000
0000
,
0101
0000
0000
0101
0000
0000
1010
0000
,
0000
1000
0000
0001
0000
0100
0001
0000
,
1010
0000
0001
0000
1000
0000
1000
0010
,
0000
0101
0000
1000
0010
1000
0000
0000
,
0000
0000
0001
0000
0001
1000
0000
1010
,
0000
0000
0010
1000
0000
0000
0001
0100
,
0000
0000
0100
0000
0001
1000
0000
0101
,
0000
1010
0000
0001
0100
0000
0101
0000
,
0000
0000
0100
0000
0100
0010
0000
1010
,
0000
0000
1000
0010
0000
0000
0100
0001
,
0000
0000
0101
0000
0000
0101
0000
0000
,
1010
0000
0000
0000
,
0000
0000
0100
0000
0100
0010
0000
1010
,
0000
0000
1000
0010
0000
0000
0100
0001
,
0000
0000
0001
0000
0100
0010
0000
0101
,
0000
1010
0000
0100
0001
0000
0011
0000
,
0000
0000
0001
0000
0001
1000
0000
1010
,
0000
0000
0010
1000
0000
0000
0001
0100
,
0000
0000
0101
0000
0000
0101
0000
0000
,
1010
0000
0000
0000
,
1000
0001
0000
1010
0000
0100
1000
0000
,
0001
0000
0000
1000
0000
0000
0100
0000
0000
1001
0000
0000
0000
0000
0000
0000
,
0001
1000
0000
1010
0000
0001
0100
0001
,
0000
0000
0000
0000
,
0001
0100
0000
1010
0000
0001
0010
0000
,
0001
0000
0000
1000
0000
0000
0001
0000
0000
0110
0000
0000
0000
0000
0000
0000
,
0100
0001
0000
1010
0000
0100
0001
0000
,
0101
0220
0000
0330
,
0200
0000
2300
0000
3010
0000
0001
1000
,
0000
0101
0000
0000
0110
0000
0010
0001
,
0000
0010
0100
0000
0000
0000
0100
0001
,
0000
0000
0000
0010
0000
0100
0000
0010
0000
0000
0001
0000
0100
0000
0000
0010
,
0000
1000
0001
0000
0000
0000
0100
0010
,
0000
0101
0000
0000
1001
0000
1000
0100
,
0000
0100
1000
0000
0000
0000
0001
0100
,
0000
0000
0000
0100
0000
0001
0000
1000
0000
0000
0100
0000
0001
0000
0000
1000
,
0000
0010
0100
0000
0000
0000
0010
0001
,
0000
1010
0000
0000
1100
0000
0100
0010
,
0000
0100
0010
0000
0000
0000
1000
0010
,
0000
0000
0000
0010
0000
1000
0000
0100
0000
0000
0010
0000
1000
0000
0000
0100
,
0000
1000
0010
0000
0000
0000
1000
0100
,
0000
1010
0000
0000
0011
0000
0001
1000
,
0000
1000
0001
0000
0000
0000
0010
1000
,
0000
0000
0000
1000
0000
0010
0000
0001
0000
0000
1000
0000
0010
0000
0000
0001
,
0000
0100
0020
0000
0030
0000
0100
0001
,
0000
0000
1001
0000
0000
0000
0100
0000
0001
0000
0000
0000
0100
0000
0000
1000
,
0000
0000
0001
0000
0000
0011
0000
0000
0000
0000
0000
0000
0001
0000
0100
0000
,
0000
1001
0000
0010
0100
0010
0000
0000
,
0000
0000
0000
0000
0000
0000
0010
0100
,
0000
0000
1001
0000
0000
0000
0010
0000
1000
0000
0000
0000
0010
0000
0000
0001
,
0000
0000
0100
0000
0000
0101
0000
0000
0000
0000
0000
0000
0010
0000
0001
0000
,
0000
1010
0000
0100
0001
0000
0101
0000
,
2200
0000
0000
0000
3300
0000
0000
0202
,
0000
0000
0000
0000
0000
0000
0303
0000
0000
0000
0001
0000
0000
1000
0000
0000
,
0100
0000
0000
0100
0000
0000
0010
0000
1000
0000
0000
0000
0101
0000
0000
0000
,
2002
0000
0000
0000
,
0000
0000
0000
0000
,
0000
0000
0000
0000
,
3003
0000
0000
0000
;

//---------------dance-single - ----------------
#NOTEDATA:;
#CHARTNAME:;
#STEPSTYPE:dance-single;
#DESCRIPTION:;
#CHARTSTYLE:;
#DIFFICULTY:Challenge;
#METER:14;
#RADARVALUES:0.821975,1.033145,1.356334,0.158945,0.397364,543.000000,415.000000,128.000000,15.000000,0.000000,0.000000,0.000000,0.000000,0.000000,0.821975,1.033145,1.356334,0.158945,0.397364,543.000000,415.000000,128.000000,15.000000,0.000000,0.000000,0.000000,0.000000,0.000000;
#CREDIT:;
#NOTES:
// measure 0
0100
0110
0000
0010
0000
0100
1100
0000
0010
0110
0000
0100
0000
0010
1010
0000
,  // measure 1
1001
0110
0011
0110
2020
0000
0000
3030
,  // measure 2
0100
0101
0000
0001
0000
0100
0110
0000
0001
0101
0000
0100
0000
0001
0011
0000
,  // measure 3
0110
0000
1001
0000
0000
0000
0001
1000
0000
0000
0101
0000
1100
0000
0000
0000
,  // measure 4
0110
2002
0000
3003
,  // measure 5
0100
0000
0000
0000
0110
0000
1000
0000
0001
0000
0001
0000
0100
0000
0010
1000
,  // measure 6
0010
0000
0000
0000
1001
0000
0010
0000
0100
0000
0100
0000
1000
0000
0001
1000
,  // measure 7
0001
0000
0000
0000
1001
0000
0100
0000
0010
0000
0010
0000
0001
0000
1000
0001
,  // measure 8
1000
0000
0000
0000
1100
0000
0001
0000
1000
0000
1000
0000
0010
0000
0100
1000
,  // measure 9
0100
0000
0000
0000
0101
0000
0010
0000
1000
0000
1000
0000
0100
0000
0001
1000
,  // measure 10
0001
0000
0000
0000
0101
0000
0001
0000
0100
0000
1000
0000
1000
0000
0001
0010
,  // measure 11
0001
0000
0000
0000
0100
0001
1000
0000
0000
0000
1000
0010
0100
0000
0000
0000
,  // measure 12
0000
0000
0001
1000
0001
1000
0001
1000
0001
1000
0001
1000
0001
0000
0000
0000
,  // measure 13
0100
0010
0100
0000
0000
0000
0010
0100
0010
0000
0000
0000
1001
0000
0000
0000
,  // measure 14
0000
0000
0001
0010
0001
0000
0100
0001
0100
0000
0010
0000
0100
0000
0000
0000
,  // measure 15
1001
0010
0100
1000
0001
0000
0001
1000
,  // measure 16
0000
0110
0000
0001
1000
0101
0000
0000
,  // measure 17
0010
0100
0000
0000
0000
0000
0100
0010
0000
0000
0000
0000
1001
0000
0000
0000
,  // measure 18
0000
0000
1000
0100
0000
0000
0010
1000
0000
0000
0100
0000
0010
0000
0000
0000
,  // measure 19
1001
0100
0010
0001
1000
0000
1000
0001
,  // measure 20
0000
0110
0000
1000
0001
1010
0000
0110
,  // measure 21
1001
0000
0000
0000
0010
0100
0010
0100
0010
0000
1000
0000
0000
0000
1001
0000
,  // measure 22
0000
1000
0001
1000
0000
0100
0010
0100
,  // measure 23
0000
0000
0000
0000
0100
1000
0100
1000
0100
0000
1000
0000
0000
0000
0110
0000
,  // measure 24
0000
1001
0000
0010
0100
0000
2200
0000
,  // measure 25
3300
0000
0000
0000
0100
0010
0100
0010
0100
0000
0001
0000
0000
0000
1001
0000
,  // measure 26
0000
0001
1000
0001
0000
0010
0100
0010
,  // measure 27
0000
0000
0000
0000
0010
0100
0000
0000
0000
0000
0100
0010
0000
0000
0000
0000
,  // measure 28
1001
0000
0011
1100
0000
0010
0100
0100
,  // measure 29
0010
0000
0000
0000
0100
0010
0100
0010
0100
0000
0001
0000
0000
0000
1001
0000
,  // measure 30
0000
0001
1000
0001
0000
0010
0100
0010
,  // measure 31
0000
0000
0010
0001
0100
0001
0000
0110
,  // measure 32
0000
1001
0000
0100
0010
0000
0022
0000
,  // measure 33
0033
0000
0000
0000
0010
0100
0010
0100
0010
0000
1000
0000
0000
0000
1001
0000
,  // measure 34
0000
1000
0001
1000
0000
0100
0010
0100
,  // measure 35
0000
0000
0000
0000
0100
0010
0000
0000
0000
0000
0010
0100
0000
0000
0000
0000
,  // measure 36
1001
0000
0000
1000
0001
1100
1010
0000
,  // measure 37
1100
1010
0000
1001
0000
0100
1100
0000
,  // measure 38
0110
0000
0000
1001
0000
0000
1100
0000
0000
1010
0000
0000
0000
0000
0000
0000
,  // measure 39
1010
1100
0000
1001
0000
0010
0100
0110
,  // measure 40
0000
0000
0010
1000
0100
1000
0010
0000
,  // measure 41
0011
0101
0000
1001
0000
0010
0011
0000
,  // measure 42
0110
0000
0000
1001
0000
0000
0011
0000
0000
0101
0000
0000
0000
0000
0000
0000
,  // measure 43
0101
0011
0000
1001
0000
0100
0010
0000
,  // measure 44
0110
0000
0100
0001
0010
0001
0100
0000
,  // measure 45
0200
0000
2300
0000
3002
0000
0013
1000
,  // measure 46
0000
0110
0000
0000
0101
0000
0001
0011
,  // measure 47
0000
0001
0101
0000
0000
0000
0100
0010
,  // measure 48
0100
0000
0000
0010
0000
0100
0000
0001
0000
0000
0010
0000
0100
0000
0000
0001
,  // measure 49
0000
1100
0110
0000
0000
0000
0100
0001
,  // measure 50
0000
0110
0000
0000
1010
0000
1000
1100
,  // measure 51
0000
1000
1010
0000
0000
0000
0010
0100
,  // measure 52
0010
0000
0000
0100
0000
0010
0000
1000
0000
0000
0100
0000
0010
0000
0000
1000
,  // measure 53
0000
0011
0110
0000
0000
0000
0001
0010
,  // measure 54
0000
1001
0000
0000
1100
0000
0100
0101
,  // measure 55
0000
0100
1100
0000
0000
0000
1000
0001
,  // measure 56
1000
0000
0000
0001
0000
1000
0000
0100
0000
0000
0001
0000
1000
0000
0000
0100
,  // measure 57
0000
1010
1001
0000
0000
0000
1000
0100
,  // measure 58
0000
1001
0000
0000
0011
0000
0010
1010
,  // measure 59
0000
0010
0011
0000
0000
0000
0001
1000
,  // measure 60
0001
0000
0000
1000
0000
0001
0000
0010
0000
0000
1000
0000
0001
0000
0000
0010
,  // measure 61
0000
0101
2002
0000
3003
0000
0110
0011
,  // measure 62
0000
0000
1010
0000
0000
0000
0100
0000
0110
0000
0000
0000
0101
0000
0000
1010
,  // measure 63
0000
0000
0110
0000
0000
0011
0000
0000
0000
0000
0000
0000
0011
0000
0110
0000
,  // measure 64
0000
1010
0000
0001
0100
0101
0000
0000
,  // measure 65
0001
0010
0100
0010
0001
0000
1001
1100
,  // measure 66
0000
0000
1010
0000
0000
0000
0001
0000
1001
0000
0000
0000
0101
0000
0000
1010
,  // measure 67
0000
0000
1001
0000
0000
1100
0000
0000
0000
0000
0000
0000
0101
0000
0011
0000
,  // measure 68
0000
1001
0000
0100
0010
0000
0110
0000
,  // measure 69
0100
0001
0010
0001
0100
0000
0000
0100
,  // measure 70
1100
0000
1000
0000
1001
0000
0001
0000
0011
0000
0010
0000
0000
0010
0000
0000
,  // measure 71
0100
0000
0000
0010
0000
0000
0100
0000
0000
0000
0000
0000
0001
0000
0000
0000
1000
0000
0000
0000
0000
0000
0000
0000
0110
0000
0000
0000
0000
0000
0000
0000
,  // measure 72
0220
0000
0000
0000
,  // measure 73
0000
0000
0000
0000
,  // measure 74
0000
0000
0000
0000
,  // measure 75
0330
0000
0000
0000
;

//---------------dance-single - ----------------
#NOTEDATA:;
#CHARTNAME:;
#STEPSTYPE:dance-single;
#DESCRIPTION:;
#CHARTSTYLE:;
#DIFFICULTY:Easy;
#METER:5;
#RADARVALUES:0.417799,0.516573,0.360276,0.127156,0.000000,276.000000,242.000000,34.000000,12.000000,0.000000,0.000000,0.000000,0.000000,0.000000,0.417799,0.516573,0.360276,0.127156,0.000000,276.000000,242.000000,34.000000,12.000000,0.000000,0.000000,0.000000,0.000000,0.000000;
#CREDIT:;
#NOTES:
0001
1000
1000
0100
,
1000
0010
0202
0303
,
0010
1000
1000
0100
,
0010
0000
0100
0010
,
1000
0000
1001
0000
,
0100
1000
1000
1000
,
0010
0100
0100
0001
,
1000
0001
0010
0100
,
1000
0010
0001
0010
,
1000
1000
0100
1000
,
0100
0100
0010
0100
,
0100
1000
0001
1000
,
1100
0110
0011
0110
,
0100
0000
0100
0010
,
0000
0010
0100
0001
,
0100
1000
1000
0100
,
0001
0010
0010
1010
,
0010
0000
0100
1000
,
0000
1000
0010
1000
,
0100
1000
0010
0001
,
1000
0010
0001
0011
,
0000
0001
1000
1000
,
0010
0100
0010
1000
,
1000
0010
1000
0001
,
0100
0010
0010
1100
,
0000
0100
0100
1000
,
0100
0001
0100
1000
,
0010
0011
0000
0010
,
0110
0000
0000
0000
,
0000
0001
0001
0100
,
0100
0100
1000
0010
,
0100
1000
0100
1000
,
0100
1000
0010
0110
,
0000
0100
1000
1000
,
0001
0100
0001
1000
,
0010
1001
0000
0100
,
1001
0000
0000
0000
,
0010
0010
0100
0010
,
1000
0001
0110
0000
,
1000
1000
0001
0001
,
1100
0000
0000
0000
,
1000
0010
0010
1000
,
0001
0010
1100
0000
,
0100
0010
0100
1000
,
0100
0220
0000
0330
,
2002
0000
3003
0100
,
0010
0100
0001
1000
,
0100
1010
0000
0010
,
1000
0010
0010
0100
,
0100
1100
0000
1000
,
0001
0100
1000
1000
,
0100
0110
0000
0001
,
0100
0010
0100
0010
,
0010
0101
0000
0100
,
0010
0010
0100
1000
,
0001
0011
0000
1000
,
0010
0100
0100
0010
,
0100
0110
0000
0001
,
1000
0001
1000
1000
,
0100
1010
0000
0001
,
0010
0001
0010
0001
,
0100
1001
0000
0100
,
1000
0100
0010
0001
,
0110
1001
0000
1000
,
0100
1000
0010
0110
,
0000
0000
0000
0100
,
0001
0001
0010
0100
,
1000
0110
0000
0001
,
1000
0100
0001
0100
,
2002
0000
3003
0220
,
0000
0000
0330
1000
,
1000
1000
0010
1000
,
2002
0000
0000
0000
,
0000
0000
0000
0000
,
0000
0000
0000
0000
,
3003
0000
0000
0000
;

//---------------dance-single - ----------------
#NOTEDATA:;
#CHARTNAME:;
#STEPSTYPE:dance-single;
#DESCRIPTION:;
#CHARTSTYLE:;
#DIFFICULTY:Beginner;
#METER:2;
#RADARVALUES:0.264909,0.317891,0.211927,0.021193,0.000000,175.000000,155.000000,20.000000,2.000000,0.000000,0.000000,0.000000,0.000000,0.000000,0.264909,0.317891,0.211927,0.021193,0.000000,175.000000,155.000000,20.000000,2.000000,0.000000,0.000000,0.000000,0.000000,0.000000;
#CREDIT:;
#NOTES:
0001
0000
1000
0000
,
1000
0000
1001
0000
,
0010
0000
1000
0000
,
0010
0000
0100
0100
,
0100
0000
1001
0000
,
0100
0000
0000
0000
,
0010
0000
0000
0000
,
1000
0000
0000
0000
,
1000
0000
0000
0000
,
1000
0000
0000
0000
,
0100
0000
0000
0000
,
0100
0000
0000
0000
,
0100
0100
0100
0100
,
0100
0000
0000
0010
,
0000
0001
0001
0001
,
0001
0000
1000
0000
,
0001
0000
0010
0000
,
0010
0000
0100
0000
,
0000
1000
0000
1000
,
0000
1000
0000
0001
,
0000
0010
0000
0110
,
0000
0001
0001
0000
,
0010
0000
0010
0010
,
0010
0000
0001
0001
,
0000
0010
0000
1001
,
0000
0100
0000
1000
,
0000
0001
0000
1000
,
0000
1001
0000
0000
,
0110
0000
0000
0000
,
0000
0001
0000
0100
,
0000
0100
0000
0010
,
0000
1000
0000
0001
,
0000
1000
0000
0110
,
0000
0100
0000
1000
,
0000
0100
0000
1000
,
0000
1001
0000
0000
,
1001
0000
0000
0000
,
0010
0010
0000
0100
,
0100
0000
0110
0000
,
1000
1000
0000
0000
,
1001
0000
0000
0000
,
1000
1000
0000
0001
,
0001
0000
0110
0000
,
0100
0000
0010
0000
,
0100
0000
0010
0000
,
1001
0000
0000
0100
,
0100
0100
0000
1000
,
1000
1000
0000
0010
,
0010
0010
0000
0001
,
0001
0001
0000
0010
,
0010
0010
0000
1000
,
1000
1000
0000
0001
,
0001
0001
0000
0100
,
0100
0100
0000
0010
,
0010
0010
0000
0100
,
0100
0100
0000
0001
,
0001
0001
0000
1000
,
1000
1000
0000
0001
,
0001
0001
0000
0100
,
0100
0100
0000
1000
,
1000
1000
0000
0010
,
0010
0010
0000
0100
,
0000
0100
0000
0001
,
0000
1001
0000
1000
,
0000
1000
0000
0110
,
0000
0000
0000
0100
,
0000
0001
0000
0100
,
0000
0110
0000
0010
,
0010
0010
0000
0000
,
0000
1001
0000
0000
,
0110
0000
0000
1000
,
0000
0001
0000
1001
,
2002
0000
0000
0000
,
0000
0000
0000
0000
,
0000
0000
0000
0000
,
3003
0000
0000
0000
;
