#TITLE:Vuela Vuela;
#SUBTITLE:;
#ARTIST:Magneto;
#TITLETRANSLIT:;
#SUBTITLETRANSLIT:;
#ARTISTTRANSLIT:;
#GENRE:;
#CREDIT:;
#BANNER:;
#BACKGROUND:;
#LYRICSPATH:;
#CDTITLE:DDRTM.PNG;
#MUSIC:Magneto-Vuela, Vuela.mp3;
#OFFSET:0.000000;
#SAMPLESTART:57.400002;
#SAMPLELENGTH:15.000000;
#SELECTABLE:YES;
#BPMS:0.000000=124.979996
;
#STOPS:117.000000=1.000000,
203.000000=0.900000,
289.000000=1.000000,
375.000000=1.000000,
429.000000=0.940000
;
#BGCHANGES:117.000=flash=1.000=0=0=1=====,
135.000=flash=1.000=0=0=1=====,
151.000=flash=1.000=0=0=1=====,
167.000=flash=1.000=0=0=1=====,
289.000=flash=1.000=0=0=1=====,
307.000=flash=1.000=0=0=1=====,
323.000=flash=1.000=0=0=1=====,
339.000=flash=1.000=0=0=1=====,
375.000=flash=1.000=0=0=1=====,
429.000=flash=1.000=0=0=1=====,
447.000=flash=1.000=0=0=1=====,
463.000=flash=1.000=0=0=1=====,
479.000=flash=1.000=0=0=1=====,
99999=-nosongbg-=1.000=0=0=0 // don't automatically add -songbackground-
;
#KEYSOUNDS:;
#ATTACKS:;

//---------------dance-single - ----------------
#NOTES:
     dance-single:
     :
     Hard:
     8:
     0.498061,0.570468,0.384890,0.119577,0.022421,933.000000,830.000000,103.000000,32.000000,0.000000,0.000000,0.498061,0.570468,0.384890,0.119577,0.022421,933.000000,830.000000,103.000000,32.000000,0.000000,0.000000:
// measure 0
0000
0000
0000
0000
,  // measure 1
0000
0000
0000
0000
,  // measure 2
0000
0000
0000
0000
,  // measure 3
0000
0000
0000
0000
,  // measure 4
0000
0000
1000
0010
0001
0100
0010
1000
,  // measure 5
0010
0001
1000
0001
0100
1000
0100
0010
,  // measure 6
1000
0001
0010
0100
0001
0010
1000
0010
,  // measure 7
1000
0000
0100
0000
0010
0000
0001
0000
1000
0000
0100
0000
0001
0000
1000
0100
,  // measure 8
1000
0100
1000
0000
0001
0000
0100
0000
0010
0000
1000
0000
0010
0000
1000
0000
,  // measure 9
0100
0001
0100
0010
0100
1000
0100
0010
,  // measure 10
1000
0100
0010
0100
0001
0010
0001
1000
,  // measure 11
0001
0100
0010
0000
1100
0001
1100
0000
,  // measure 12
1000
0000
0000
0000
0100
0000
0000
0000
0001
0000
0000
0000
0000
0000
0000
0000
0000
0001
0000
0000
1000
0000
0000
0000
0000
0000
0000
0000
0100
0000
0000
0000
,  // measure 13
0100
0100
0000
0001
0100
1000
0010
1000
,  // measure 14
0001
0100
0100
1000
0100
0001
1000
0110
,  // measure 15
0110
0000
0110
0000
0001
0000
1000
0000
0010
0000
0001
0000
0000
0000
0010
0100
,  // measure 16
0010
0000
0001
1000
0001
0000
0100
0000
1000
0000
0100
0000
0010
0000
0100
0000
,  // measure 17
1000
0010
0000
1001
0100
1001
0000
1001
,  // measure 18
0010
1001
0100
0010
1000
0001
0100
0001
,  // measure 19
0010
0100
0010
0000
1000
1000
1000
0000
,  // measure 20
0001
0010
1000
0100
0010
0100
0000
0101
,  // measure 21
1000
0101
0000
0000
1000
0100
0001
0100
,  // measure 22
0010
1000
0001
0100
0010
0100
0000
0110
,  // measure 23
0110
0110
0000
1000
0010
0001
0010
1000
,  // measure 24
0100
0001
0100
1000
0010
0100
0001
0000
,  // measure 25
1000
0001
1000
0010
0100
0000
1000
0100
,  // measure 26
0001
0010
1000
0010
0000
0001
1000
0100
,  // measure 27
0010
0100
0000
0010
0001
0010
1000
0100
,  // measure 28
0010
0010
0100
1000
0001
0100
0010
1000
,  // measure 29
0011
0100
1010
0000
1001
0100
0210
0000
,  // measure 30
0010
0010
0310
0000
0001
0001
1000
0001
,  // measure 31
0001
1000
0001
0001
0001
1000
0020
0000
,  // measure 32
0000
0030
1000
0001
0100
0010
0000
0110
,  // measure 33
0000
0010
0100
0000
0110
0010
1002
0000
,  // measure 34
1000
1000
1003
0000
0010
0010
0100
0010
,  // measure 35
0010
0100
0010
0010
0010
0001
2000
0000
,  // measure 36
0000
3000
0010
0001
1000
0010
0000
0110
,  // measure 37
0000
0001
0100
0000
1100
0100
0102
0000
,  // measure 38
0100
0100
0103
0000
1000
0100
0010
0001
,  // measure 39
1000
0100
0010
0001
1000
0100
0020
0000
,  // measure 40
0000
0030
0001
0100
0001
0100
0000
1000
,  // measure 41
0000
0010
0001
0000
0101
0100
2100
0000
,  // measure 42
0100
0100
3100
0000
0001
0010
0100
1000
,  // measure 43
0001
0010
0100
1000
0001
0010
0100
1000
,  // measure 44
0001
1000
0001
0100
0010
0110
0000
0110
,  // measure 45
0000
0000
0010
0000
0010
0000
0010
1000
,  // measure 46
1000
0001
0010
0001
1000
1000
0100
0101
,  // measure 47
0000
0000
0100
0000
0100
0000
0001
0010
,  // measure 48
0100
0010
1000
0001
1000
0010
0010
1010
,  // measure 49
0000
0000
0001
0000
1000
0000
0010
0100
,  // measure 50
0001
1000
1000
0001
0100
0010
1001
0000
,  // measure 51
0220
0330
0000
0000
1000
0000
0001
0000
0010
0000
0100
0000
0010
0000
0100
0000
,  // measure 52
0001
1000
0001
0010
0001
0100
0001
0010
,  // measure 53
0100
0001
0010
0001
1000
0010
1000
0100
,  // measure 54
1000
0001
0010
0000
0101
1000
0101
0000
,  // measure 55
0100
0001
1000
0000
1000
0100
0000
0001
,  // measure 56
0001
0001
0000
1000
0001
0100
0010
0100
,  // measure 57
1000
0001
0000
0100
0001
1000
0100
0011
,  // measure 58
0011
0000
0011
0000
1000
0000
0100
0000
0010
0000
0010
0001
0010
0001
0000
0000
,  // measure 59
1000
0100
1000
0100
1000
0000
0001
0000
0100
0000
0001
0000
0010
0000
0001
0000
,  // measure 60
0100
0010
0000
1100
0001
1100
0000
1100
,  // measure 61
0010
1100
0001
0010
0100
1000
0001
1000
,  // measure 62
0010
0001
0010
0000
0100
0100
0100
0000
,  // measure 63
1000
0000
0010
0000
0100
0000
0001
0000
0010
0000
0202
0303
0000
0000
1001
0000
,  // measure 64
0100
1001
0000
0000
0100
0001
1000
0001
,  // measure 65
0010
0100
1000
0001
0010
0001
0000
0011
,  // measure 66
0011
0011
0000
0100
0010
1000
0010
0100
,  // measure 67
0001
1000
0001
0100
0010
0001
1000
0000
,  // measure 68
0100
1000
0100
0010
0001
0000
0100
0001
,  // measure 69
1000
0010
0100
0010
0000
1000
0100
0001
,  // measure 70
0010
0001
0000
0010
1000
0010
0100
0001
,  // measure 71
0010
0010
0001
0100
1000
0001
0010
0100
,  // measure 72
1010
0001
0101
0000
1010
0010
0012
0000
,  // measure 73
0010
0010
0013
0000
1000
0100
1000
0100
,  // measure 74
0001
0100
0001
0100
0010
1000
0002
0000
,  // measure 75
0000
0003
0100
1000
0100
0001
0000
1001
,  // measure 76
0000
0100
0100
0000
0011
1000
1200
0000
,  // measure 77
1000
1000
1300
0000
0001
0100
0001
0100
,  // measure 78
1000
0100
1000
0100
0010
0001
2000
0000
,  // measure 79
0000
3000
0100
0001
0100
1000
0000
1001
,  // measure 80
0000
0010
0010
0000
1001
1000
2100
0000
,  // measure 81
0001
0001
3001
0000
0010
1000
0001
0010
,  // measure 82
1000
0001
0010
1000
0001
1000
0020
0000
,  // measure 83
0000
0030
1000
0001
1000
0001
0000
0110
,  // measure 84
0000
0001
1000
0000
1001
0001
0201
0000
,  // measure 85
0001
0001
0301
0000
0001
0001
0100
0001
,  // measure 86
0100
1000
1000
0010
0100
0001
1000
0001
,  // measure 87
0001
0010
0100
0001
1000
0010
0000
1010
,  // measure 88
0000
0000
0010
0000
0001
0000
1000
0001
,  // measure 89
0100
1000
0100
1000
0001
0100
0010
0001
,  // measure 90
0000
0000
0001
0000
0100
0000
1000
0100
,  // measure 91
0100
1000
0001
0010
0010
1000
0010
0010
,  // measure 92
0000
0000
0100
0000
1000
0000
0010
1000
,  // measure 93
0001
0100
0100
0010
0001
1000
0110
0000
,  // measure 94
2002
3003
0000
0000
1000
0000
0100
0000
0001
0000
0001
0000
0100
0000
1000
0000
,  // measure 95
0000
0000
0100
0000
0000
0000
0000
0000
0100
0010
0000
0000
0010
0100
0000
0000
,  // measure 96
0100
0010
0000
0000
1000
0000
0010
0000
0100
0000
0100
0000
1000
0000
0001
0000
,  // measure 97
1000
0100
0001
0000
0110
0100
0110
0000
,  // measure 98
1001
0000
1001
0000
0010
1001
0000
0000
,  // measure 99
0100
0000
1000
0000
0200
0000
0000
0310
,  // measure 100
0000
0000
1000
0001
0100
1000
0000
0010
,  // measure 101
0001
0100
0000
0001
1000
0001
0100
0010
,  // measure 102
0100
0010
0000
1000
1000
1100
0000
0001
,  // measure 103
0001
0101
0000
1000
0001
0000
1000
0100
,  // measure 104
0010
1000
0000
0010
0000
0000
1000
0010
,  // measure 105
0100
0001
0000
0000
0001
1000
0001
0000
,  // measure 106
0010
0000
0001
0000
0010
1000
0000
0100
,  // measure 107
0011
0100
1010
0000
0110
0100
0102
0000
,  // measure 108
1000
1000
1003
0000
0010
1000
0100
1000
,  // measure 109
0010
1000
0100
1000
0010
0100
0020
0000
,  // measure 110
0000
0030
0100
1000
0001
0100
0000
1010
,  // measure 111
0000
0001
0100
0000
1100
0001
0012
0000
,  // measure 112
0100
0100
0103
0000
0100
0001
0010
0001
,  // measure 113
0100
0001
0010
0001
0100
0010
0200
0000
,  // measure 114
0000
0300
0100
1000
1000
0010
0000
0101
,  // measure 115
0000
1000
0010
0000
0011
0100
2100
0000
,  // measure 116
0010
0010
3010
0000
1000
0100
0001
0100
,  // measure 117
1000
0100
0001
0100
1000
0001
2000
0000
,  // measure 118
0000
3000
0100
1000
0010
1000
0000
0010
,  // measure 119
0000
0001
1000
0000
0110
0010
1020
0000
,  // measure 120
0100
0100
0130
0000
0001
0010
1000
0010
,  // measure 121
0001
0010
1000
0010
0001
1000
0001
0100
,  // measure 122
0001
1000
1000
0100
0010
0010
0000
0010
,  // measure 123
0000
0110
0110
0000
1001
0001
0102
0000
,  // measure 124
1000
0100
1003
0000
1100
0000
1001
0000
,  // measure 125
0001
0100
0001
0000
0000
0001
1001
0000
,  // measure 126
1000
0001
0100
0100
0001
0100
0000
0100
,  // measure 127
0000
1000
0001
0000
0110
0110
0210
0000
,  // measure 128
0010
0001
0310
0000
0011
0000
1001
0000
,  // measure 129
1000
0010
1000
0000
1010
0000
1001
0000
,  // measure 130
1000
0100
0001
0010
1000
0100
0001
0010
,  // measure 131
1000
0000
0110
0000
1001
1001
1001
0000
,  // measure 132
0110
0110
0220
0000
0000
0000
0330
0000
;

//---------------dance-single - ----------------
#NOTES:
     dance-single:
     :
     Beginner:
     1:
     0.108901,0.272833,0.085946,0.149472,0.000000,204.000000,181.000000,23.000000,40.000000,0.000000,0.000000,0.108901,0.272833,0.085946,0.149472,0.000000,204.000000,181.000000,23.000000,40.000000,0.000000,0.000000:
0000
0000
0000
0000
,
0000
0000
0000
0000
,
0000
0000
0000
0000
,
0000
0000
0000
0000
,
0000
1000
1000
1000
,
0000
0001
0001
0001
,
0000
1000
1000
1000
,
0000
0001
0001
0001
,
0000
0100
0100
0100
,
0100
0100
0000
0000
,
0000
0010
0010
0010
,
0010
0010
0000
0000
,
2002
3003
2002
3003
,
0000
0000
0100
0100
,
0100
0200
0000
0000
,
0300
0000
0000
0000
,
0000
0001
0001
0001
,
0001
0001
0000
0000
,
0000
1000
1000
1000
,
1000
1000
0000
0000
,
2002
3003
2002
3003
,
0000
0000
0010
0010
,
0010
0020
0000
0000
,
0030
0000
0000
1000
0000
1000
0000
0000
,
2000
0000
0000
3000
,
0000
0000
0000
0001
,
0001
0002
0000
0003
,
0000
0000
0010
0010
,
0010
0010
0010
0010
,
0010
0010
1001
2002
,
0000
3003
0000
0000
,
0000
0000
0000
0000
0000
1000
0000
1000
,
0000
1000
0000
1000
0000
1000
0000
1000
,
0000
0000
0110
0220
,
0000
0330
0000
0000
,
0000
0000
0000
0000
0000
0001
0000
0001
,
0000
0001
0000
0001
0000
0001
0000
0001
,
0000
0000
0100
0200
,
0000
0300
0000
0000
,
0000
0000
0000
0000
0000
0010
0000
0010
,
0000
0010
0000
0010
0000
0010
0000
0010
,
0000
0000
0100
0200
,
0000
0300
0000
0000
,
0000
0000
0000
0000
,
0000
0010
0000
0010
0000
0010
0000
0020
,
0000
0000
0000
0030
0000
0000
1000
0000
,
1000
1000
1000
2000
,
0000
3000
0000
0001
,
0001
0001
0001
0002
,
0000
0003
0000
1000
,
1000
1000
1000
1000
,
0100
0000
0100
0000
0100
0000
0200
0300
,
0000
0200
0000
0000
0000
0300
0000
0000
,
0000
0001
0001
0001
,
0001
0001
0000
0000
,
0110
0000
0110
0000
,
0000
0000
0010
0010
,
0010
0020
0000
0030
,
0000
0000
0000
0000
,
0000
1000
1000
1000
,
1000
1000
0000
0000
,
0000
0001
0001
0001
,
0001
0001
0000
0000
,
0110
0000
0110
0000
,
0000
0000
0100
0100
,
0100
0200
0000
0300
,
0000
0000
0000
0001
0000
0001
0000
0000
,
0002
0000
0000
0003
,
0000
0000
0000
1000
,
1000
1000
2000
0000
,
3000
0000
0100
0100
,
0100
0100
0100
0100
,
0100
0100
0010
0020
,
0000
0030
0000
0000
,
0000
0000
0000
0000
,
0000
0000
0000
0000
,
0000
0000
0001
0002
,
0000
0003
0000
0000
,
0000
0000
0000
0000
,
0000
0000
0000
0000
,
0000
0000
1000
2000
,
0000
3000
0000
0000
,
0000
0000
0000
0000
,
0000
0000
0000
0000
,
0000
0000
0001
0002
,
0000
0003
0000
0000
,
0000
0000
0000
0000
,
0000
0000
0000
0000
,
0000
0000
0000
0000
,
0000
0000
0000
0000
,
0000
0000
0000
0000
,
0000
0000
0000
0000
,
0000
0000
0000
0000
,
0000
0000
0000
0110
,
1001
0000
0000
0000
,
0000
0000
0000
0000
,
0000
0000
0000
0000
,
0000
0000
0000
0000
,
0000
0000
1001
0000
,
0000
0000
0000
0000
,
0000
0000
0000
0000
,
0000
0000
0000
0000
,
0000
0000
0000
0000
,
0000
0000
0000
0000
,
0000
0000
0000
0000
,
0000
0000
0000
0000
,
0000
0000
0000
0000
,
0010
0010
0100
0200
,
0000
0300
0000
0000
,
0000
0000
0000
0000
,
0000
0000
0000
1001
,
0000
0000
0010
0020
,
0000
0030
0000
0000
,
0000
0000
0000
0000
,
0000
0000
0000
0000
,
0000
0000
0100
0200
,
0000
0300
0000
0000
,
0000
0000
0000
0000
,
0000
0000
0000
0000
,
0000
0000
0010
0020
,
0000
0030
0000
0000
,
0000
0000
0000
0000
,
0000
0000
0000
0000
,
0000
0000
0001
0002
,
0000
0003
0000
1001
,
0000
0000
0000
0000
,
0000
0000
0000
0000
,
0000
0000
0110
0220
,
0000
0330
0000
0000
,
0000
0000
0000
1001
,
0000
0000
0000
0110
,
0000
0000
1001
2002
,
0000
0000
0000
3003
;

//---------------dance-double - ----------------
#NOTES:
     dance-double:
     :
     Hard:
     9:
     0.497528,0.570468,0.392363,0.119577,0.018684,932.000000,827.000000,105.000000,32.000000,0.000000,0.000000,0.497528,0.570468,0.392363,0.119577,0.018684,932.000000,827.000000,105.000000,32.000000,0.000000,0.000000:
00000000
00000000
00000000
00000000
,
00000000
00000000
00000000
00000000
,
00000000
00000000
00000000
00000000
,
00000000
00000000
00000000
00000000
,
00000000
00000000
01000000
00010000
00001000
00100000
00010000
01000000
,
00010000
00001000
01000000
00001000
00100000
01000000
00100000
00010000
,
01000000
00001000
00010000
00100000
00001000
00010000
01000000
00010000
,
01000000
00000000
00100000
00000000
00010000
00000000
00001000
00000000
01000000
00000000
00100000
00000000
00010000
00000000
01000000
00100000
,
01000000
00100000
01000000
00000000
00010000
00000000
00010000
00000000
00001000
00000000
00100000
00000000
00001000
00000000
00100000
00000000
,
00010000
00000100
00010000
00001000
00010000
00100000
00010000
00001000
,
00100000
00010000
00001000
00010000
00000100
00001000
00000100
00001000
,
00000100
00010000
00001000
00000000
00110000
01000000
00110000
00000000
,
00010000
00000000
00000000
00000000
00001000
00000000
00000000
00000000
00000010
00000000
00000000
00000000
00000000
00000000
00000000
00000000
00000000
00000010
00000000
00000000
00010000
00000000
00000000
00000000
00000000
00000000
00000000
00000000
00001000
00000000
00000000
00000000
,
00001000
00001000
00000000
00000010
00001000
00010000
00000100
00010000
,
00000010
00001000
00001000
00010000
00001000
00000010
00010000
00001100
,
00001100
00000000
00001100
00000000
00000010
00000000
00010000
00000000
00000100
00000000
00000010
00000000
00000000
00000000
00001000
00000001
,
00001000
00000000
00000001
00001000
00000001
00000000
00000100
00000000
00001000
00000000
00000100
00000000
00000010
00000000
00000100
00000000
,
00001000
00000010
00000000
00001001
00000100
00001001
00000000
00001001
,
00000010
00001001
00000100
00000010
00001000
00000001
00000100
00000001
,
00000010
00000100
00000010
00000000
00001000
00001000
00001000
00000000
,
00000010
00000100
00010000
00001000
00000100
00001000
00000000
00001010
,
00000001
00001010
00000000
00000000
00010000
00001000
00000010
00001000
,
00000100
00010000
00000010
00001000
00000100
00001000
00000000
00001100
,
00001100
00001100
00000000
00010000
00000100
00000010
00000100
00010000
,
00010000
00000100
00010000
00100000
00001000
00010000
00000100
00000000
,
00010000
01000000
00100000
00001000
00010000
00000000
00100000
00010000
,
00000100
00001000
00100000
00001000
00000000
00000100
00001000
00010000
,
00001000
00010000
00000000
00001000
00000100
00001000
00100000
00010000
,
00010000
00010000
00100000
01000000
00001000
00100000
00010000
01000000
,
00011000
00100000
01010000
00000000
01001000
00100000
00210000
00000000
,
00010000
00010000
00310000
00000000
00001000
00001000
01000000
00001000
,
00001000
01000000
00001000
00001000
00001000
01000000
00020000
00000000
,
00000000
00030000
01000000
00001000
00100000
00010000
00000000
00110000
,
00000000
00010000
00100000
00000000
00110000
00010000
01002000
00000000
,
01000000
01000000
01003000
00000000
00010000
00010000
00100000
00010000
,
00010000
00100000
00010000
00010000
00010000
00001000
02000000
00000000
,
00000000
03000000
00010000
00001000
01000000
00010000
00000000
00110000
,
00000000
00001000
00100000
00000000
01100000
00100000
00102000
00000000
,
00100000
00100000
00103000
00000000
01000000
00100000
00010000
00001000
,
01000000
00100000
00010000
00001000
01000000
00100000
00020000
00000000
,
00000000
00030000
00001000
00100000
00001000
00100000
00000000
01000000
,
00000000
00010000
00001000
00000000
00101000
00100000
02100000
00000000
,
00100000
00100000
03100000
00000000
00001000
00010000
00100000
01000000
,
00001000
00010000
00100000
01000000
00001000
00010000
00100000
01000000
,
00010000
10000000
00010000
01000000
00100000
01100000
00000000
01100000
,
00000000
00000000
00100000
00000000
00100000
00000000
00100000
10000000
,
10000000
00010000
00100000
00010000
10000000
10000000
01000000
01010000
,
00000000
00000000
01000000
00000000
01000000
00000000
00010000
00100000
,
00100000
00010000
01000000
00001000
01000000
00010000
00010000
01010000
,
00000000
00000000
00001000
00000000
01000000
00000000
00010000
00100000
,
00001000
01000000
01000000
00001000
00100000
00010000
01001000
00000000
,
00220000
00330000
00000000
00000000
01000000
00000000
00001000
00000000
00010000
00000000
00100000
00000000
00010000
00000000
00100000
00000000
,
00001000
00100000
00010000
00001000
00000100
00010000
00000100
00001000
,
00010000
00000100
00001000
00000100
00010000
00001000
00100000
00010000
,
00001000
00000100
00001000
00000000
00010100
00001000
00010100
00000000
,
00010000
00000000
00000000
00000000
00000100
00000000
00000000
00000000
00001000
00000000
00000000
00000000
00000000
00000000
00000000
00000000
00000000
00100000
00000000
00000000
00010000
00000000
00000000
00000000
00000000
00000000
00000000
00000000
00000100
00000000
00000000
00000000
,
00000010
00000010
00000000
00010000
00000010
00001000
00000100
00001000
,
00010000
00000010
00000000
00001000
00000010
00010000
00001000
00000110
,
00000110
00000000
00000110
00000000
00010000
00000000
00001000
00000000
00000100
00000000
00000100
00000010
00000100
00000010
00000000
00000000
,
00010000
00001000
00010000
00001000
00010000
00000000
00000010
00000000
00001000
00000000
00000010
00000000
00000100
00000000
00000010
00000000
,
00000100
00000010
00000000
00001100
00000001
00001100
00000000
00001100
,
00000010
00001100
00000001
00000010
00000100
00001000
00000001
00001000
,
00000010
00000001
00000010
00000000
00000100
00000100
00000100
00000000
,
00001000
00000000
00000010
00000000
00000100
00000000
00000001
00000000
00000010
00000000
00000202
00000303
00000000
00000000
00010010
00000000
,
00001000
00010010
00000000
00000000
00001000
00000010
00010000
00000010
,
00000100
00001000
00010000
00000010
00000100
00000010
00000000
00000110
,
00000110
00000110
00000000
00001000
00000100
00010000
00000100
00001000
,
00000010
00010000
00000010
00001000
00000100
00000010
00010000
00000000
,
00010000
00100000
00010000
00001000
00000100
00000000
00010000
00000100
,
00000010
00001000
00010000
00001000
00000000
00100000
00010000
00000100
,
00001000
00000100
00000000
00001000
00100000
00001000
00010000
00000100
,
00001000
00001000
00000100
00010000
00100000
00010000
00001000
00010000
,
01010000
00001000
00101000
00000000
01010000
00010000
00012000
00000000
,
00010000
00010000
00013000
00000000
01000000
00100000
01000000
00100000
,
00001000
00100000
00001000
00100000
00010000
01000000
00002000
00000000
,
00000000
00003000
00100000
01000000
00100000
00001000
00000000
01001000
,
00000000
01000000
01000000
00000000
00110000
10000000
12000000
00000000
,
10000000
10000000
13000000
00000000
00010000
01000000
00010000
01000000
,
10000000
01000000
10000000
01000000
00100000
00010000
20000000
00000000
,
00000000
30000000
01000000
00010000
01000000
10000000
00000000
10010000
,
00000000
00010000
00010000
00000000
01001000
01000000
02100000
00000000
,
00001000
00001000
03001000
00000000
00010000
01000000
00001000
00010000
,
01000000
00001000
00010000
01000000
00001000
01000000
00020000
00000000
,
00000000
00030000
01000000
00001000
01000000
00001000
00000000
00110000
,
00000000
00010000
00010000
00000000
00100000
00010000
00020100
00000000
,
00000100
00000100
00030100
00000000
00000100
00000100
00010000
00000100
,
00010000
00100000
00100000
00001000
00010000
00000100
00001000
00000100
,
00000100
00001000
00010000
00000100
00010000
00001000
00000000
00101000
,
00000000
00000000
00000100
00000000
00000010
00000000
00010000
00000010
,
00001000
00010000
00001000
00010000
00000010
00001000
00000100
00000010
,
00000000
00000000
00000010
00000000
00001000
00000000
00010000
00001000
,
00001000
00010000
00000010
00000100
00000100
00010000
00000100
00000100
,
00000000
00000000
00000100
00000000
00001000
00000000
00000010
00001000
,
00000001
00000100
00000100
00000010
00000001
00001000
00000110
00000000
,
00002002
00003003
00000000
00000000
00001000
00000000
00000100
00000000
00000001
00000000
00000001
00000000
00000100
00000000
00001000
00000000
,
00000000
00000100
00000000
00000000
00000110
00000000
00000110
00000000
,
00001100
00000000
00010000
00000100
00001000
00001000
00010000
00000010
,
00010000
00001000
00000010
00000000
00001100
00001000
00001100
00000000
,
00010010
00000000
00010010
00000000
00000100
00010010
00000000
00000000
,
00001000
00000000
00010000
00000000
00002000
00000000
00000000
00003100
,
00000000
00000000
00100000
00001000
00010000
00100000
00000000
00001000
,
00000100
00010000
00000000
00000100
00001000
00000100
00010000
00001000
,
00010000
00001000
00000000
00100000
00100000
00110000
00000000
00001000
,
00001000
00010100
00000000
00100000
00010000
00000000
00100000
00010000
,
00010000
01000000
00000000
00010000
00000000
00000000
01000000
00010000
,
00100000
00001000
00000000
00000000
00001000
01000000
00001000
00000000
,
00010000
00000000
00001000
00000000
00010000
01000000
00000000
00100000
,
00011000
00100000
01010000
00000000
00110000
00100000
00102000
00000000
,
01000000
01000000
01003000
00000000
00010000
01000000
00100000
01000000
,
00010000
01000000
00100000
01000000
00010000
00100000
00020000
00000000
,
00000000
00030000
00100000
01000000
00001000
00100000
00000000
01010000
,
00000000
00001000
00100000
00000000
00101000
00001000
00012000
00000000
,
00100000
00100000
00103000
00000000
00100000
00001000
00010000
00001000
,
00100000
00001000
00010000
00001000
00100000
00010000
00200000
00000000
,
00000000
00300000
00100000
01000000
01000000
00010000
00000000
00101000
,
00000000
01000000
00010000
00000000
00011000
00100000
02100000
00000000
,
00010000
00010000
03010000
00000000
01000000
00100000
00001000
00100000
,
01000000
00100000
00001000
00100000
01000000
00001000
02000000
00000000
,
00000000
03000000
00100000
01000000
00010000
01000000
00000000
00010000
,
00000000
00001000
01000000
00000000
00110000
00010000
01020000
00000000
,
00100000
00100000
00130000
00000000
00001000
00010000
01000000
00010000
,
00001000
00010000
01000000
00010000
00001000
01000000
00001000
00100000
,
00001000
01000000
01000000
00100000
00010000
00010000
00000000
00010000
,
00000000
00110000
00110000
00000000
01001000
00001000
00102000
00000000
,
01000000
00100000
01003000
00000000
01100000
00000000
01001000
00000000
,
00001000
00100000
00001000
00000000
00000000
00001000
01001000
00000000
,
01000000
00001000
00100000
00100000
00001000
00100000
00000000
00100000
,
00000000
01000000
00001000
00000000
00110000
00110000
00210000
00000000
,
00010000
00001000
00310000
00000000
00011000
00000000
01001000
00000000
,
01000000
00010000
01000000
00000000
01010000
00000000
01001000
00000000
,
01000000
00100000
00001000
00010000
01000000
00100000
00001000
00010000
,
01000000
00000000
00110000
00000000
01001000
01001000
01001000
00000000
,
01100000
01100000
02200000
00000000
00000000
00000000
03300000
00000000
;

//---------------dance-single - ----------------
#NOTES:
     dance-single:
     :
     Medium:
     7:
     0.408378,0.520863,0.171893,0.250365,0.003737,765.000000,719.000000,46.000000,67.000000,0.000000,0.000000,0.408378,0.520863,0.171893,0.250365,0.003737,765.000000,719.000000,46.000000,67.000000,0.000000,0.000000:
0000
0000
0000
0000
,
0000
0000
0000
0000
,
0000
0000
0000
0000
,
0000
0000
0000
0000
,
0000
0000
0001
0100
1000
0000
0100
0001
,
0100
0000
0001
1000
0010
0000
0010
0100
,
0001
0000
0100
0010
1000
0000
0001
0100
,
0001
0000
0100
1000
0001
0000
1000
0001
,
0010
0001
1000
0010
0100
0001
0100
0002
,
0000
2003
0000
3000
0010
0001
0000
0100
,
0001
0010
0100
0010
1000
0100
1000
0001
,
1000
0010
0200
0000
0010
0000
0310
0000
,
0001
0000
0000
0000
0010
0000
0000
0000
2000
0000
0000
0000
3000
0000
0000
0000
0000
1000
0000
0000
0002
0000
0000
0000
0000
0000
0000
0000
0000
0000
0000
0000
,
0000
0003
0000
1000
0010
0001
0100
0001
,
1000
0020
0000
0000
0000
0030
0000
0100
,
0010
0110
0000
0001
0100
1000
0000
0100
,
0010
0001
0100
0010
0001
0010
0100
0020
,
0000
0030
0200
0000
0000
0000
0300
0000
0000
0000
1001
0000
0000
0000
1000
0000
,
0100
0001
0000
0100
0001
1000
0010
1000
,
0100
0010
0200
0000
0001
0000
0301
0000
,
1000
0100
0002
0003
0100
0020
0000
0000
,
1000
0000
1030
0000
0001
0010
1000
0010
,
0100
0002
0000
0000
0000
0003
0000
0010
,
0100
0110
0000
0001
0100
1000
0200
0300
,
0010
1000
0000
0001
0100
0010
0000
1000
,
0001
1000
0000
0100
0010
0000
0001
0010
,
1000
0100
0000
0100
0000
1000
0001
0010
,
0100
0010
0000
0100
1000
0100
0001
0000
,
0100
0000
0010
0000
1000
0010
0000
0001
,
1000
0010
0101
0000
1000
0001
0020
0000
,
0100
0000
0130
0000
1000
1000
0001
0000
,
1000
0001
1000
0000
1000
0001
0200
0000
,
0000
0300
0001
1000
0010
0100
0000
0110
,
0000
0100
0010
0000
0010
0100
2000
0000
,
0001
0000
3001
0000
0100
0100
0010
0000
,
0100
0010
0100
0000
0100
1000
0002
0000
,
0000
0003
0100
1000
0001
0100
0000
0110
,
0000
1000
0010
0000
0001
0010
2000
0000
,
0010
0000
3010
0000
0001
0010
0100
0000
,
0001
0010
0100
0000
0001
0010
0200
0000
,
0000
0300
1000
0010
1000
0010
0000
0001
,
0000
0100
1000
0000
1000
0010
0002
0000
,
0010
0000
0013
0000
1000
0100
0010
0000
,
1000
0100
0010
0000
1000
0100
0010
0000
,
1000
0001
1000
0010
0100
0010
0000
0110
,
0000
0000
0100
0000
0100
0000
0100
0010
,
0001
1000
0100
1000
0001
0100
0010
2000
,
0000
0000
0010
0000
3010
0000
1000
0100
,
0010
0100
0001
1000
0001
0100
0001
0020
,
0000
0000
1000
0000
0031
0000
0100
0010
,
1000
0001
0001
1000
0010
0100
1001
0000
,
0220
0330
0000
0000
0001
0000
1000
0000
0100
0000
0010
0000
0100
0000
0020
0000
,
0000
0030
0002
0000
1003
0000
1000
0100
,
0010
0000
0100
1000
0001
0100
0001
0010
,
0001
1000
0200
0000
1000
0000
1300
0000
,
0010
0000
0000
0000
1000
0000
0000
0000
0001
0000
0000
0000
0000
0000
0000
0000
0000
0001
0000
0000
0010
0000
0000
0000
0000
0000
0000
0000
1000
0000
0000
0000
,
0100
1000
0000
0001
1000
0010
0100
0010
,
0001
2000
0000
0010
0000
3001
0000
1000
,
0100
1100
0000
0010
0100
1000
0100
0010
,
0000
0010
0001
1000
0010
1000
0100
1000
,
0010
0200
0300
0001
0100
0001
0000
0001
,
0010
0001
1000
0100
0010
0001
1000
0001
,
0100
1000
0200
0000
0010
0000
0310
0000
,
0001
0000
0100
0000
0010
0000
1000
0000
0100
0000
2020
3030
0000
0000
0010
0000
,
0100
0010
0000
0000
0010
1000
0001
1000
,
0100
0020
0000
1000
0000
1030
0000
0100
,
1000
1100
0000
0010
0100
0001
0200
0300
,
1000
0002
0000
0013
0100
1000
0000
0000
,
0010
0001
0010
0100
1000
0000
0010
1000
,
0001
0200
0300
0010
0000
0001
0010
1000
,
0100
1000
0000
0000
0001
0100
0010
1000
,
0100
0100
1000
0010
0001
1000
0100
0010
,
0101
1000
1010
0000
0001
0100
2000
0000
,
0100
0000
3100
0000
0001
0010
0001
0000
,
1000
0010
1000
0000
0100
0001
2000
0000
,
0000
3000
0010
0001
0010
1000
0000
1001
,
0000
0010
0010
0000
0100
0001
0020
0000
,
0001
0000
0031
0000
1000
0010
1000
0000
,
0001
0010
0001
0010
0100
1000
0002
0000
,
0000
0003
0010
1000
0010
0001
0000
1001
,
0000
0100
0100
0000
1000
0010
0002
0000
,
1000
0000
1003
0000
0100
0001
1000
0000
,
0001
1000
0100
0000
1000
0001
0200
0000
,
0000
0300
0001
1000
0001
1000
0000
0110
,
0000
1000
0001
0000
0001
1000
0020
0000
,
1000
0000
1030
0000
1000
1000
0010
0000
,
0010
0001
0001
0100
0010
1000
0001
1000
,
1000
0100
0010
1000
0001
0100
0000
0101
,
0000
0000
0100
0000
1000
0000
0001
1000
,
0010
0001
0010
0001
1000
0010
0100
1000
,
0000
0000
1000
0000
0010
0000
0001
0100
,
0010
0001
1000
0100
0010
0001
0100
1000
,
0000
0000
0010
0000
0001
0000
0100
0001
,
1000
0010
0001
0100
1000
0001
0110
0000
,
2002
3003
0000
0000
0001
0000
0010
0000
1000
0000
1000
0000
0010
0000
0001
0000
,
0000
0010
0000
0000
0110
0000
0110
0000
,
0110
0000
0001
0100
0010
0010
0001
1000
,
0001
0010
1000
0000
0100
0010
0110
0000
,
1001
0000
1001
0000
0100
1001
0000
0000
,
0010
0000
0001
0000
0020
0000
0000
0130
,
0000
0000
0001
1000
0010
0001
0000
0100
,
1000
0010
0000
1000
0001
1000
0020
0000
,
0030
0200
0000
0001
0000
0301
0000
1000
,
0100
1000
0000
0001
1000
0000
0001
0010
,
0100
0001
0000
0100
0000
0000
0001
0100
,
0010
1000
0000
0000
1000
0001
1000
0000
,
0100
0000
1000
0000
0100
0001
0000
0010
,
1000
0010
0101
0000
0010
0100
2000
0000
,
0001
0000
3001
0000
0100
0001
0010
0000
,
0100
0001
0010
0001
0100
0010
0200
0000
,
0000
0300
0010
0001
1000
0010
0000
0202
,
0303
0000
0010
0000
0001
0010
2000
0000
,
0010
0000
3010
0000
0010
1000
0100
0000
,
0010
1000
0100
1000
0010
0100
0020
0000
,
0000
0030
0010
1000
0001
0200
0000
2300
,
0000
3001
0100
0000
1000
0010
0002
0000
,
0100
0000
0103
0000
0001
0010
1000
0000
,
0001
0010
1000
0010
0001
1000
0002
0000
,
0000
0003
0010
0001
0100
0001
0000
0100
,
0000
1000
0001
0000
0010
1000
0200
0000
,
0010
0000
0310
0000
1000
0100
0001
0000
,
1000
0100
0001
0000
1000
0001
1000
0010
,
1000
0001
0001
0010
1000
0200
0000
0300
,
0000
0010
0110
0000
0001
0010
2000
0000
,
0001
3001
0011
1001
,
1000
0010
1000
0000
0000
1000
0002
0000
,
0003
1000
0100
0010
1000
0020
0000
0030
,
0000
0001
1000
0000
0110
0110
0220
0000
,
0000
0330
1100
1001
,
0001
0100
0001
0000
0101
0000
1001
0000
,
0001
0010
1000
0100
0001
0010
1000
0100
,
0001
0000
0110
0000
1001
1001
1001
0000
,
0110
0110
0220
0000
0000
0000
0330
0000
;

//---------------dance-single - ----------------
#NOTES:
     dance-single:
     :
     Easy:
     5:
     0.287733,0.347242,0.089683,0.235418,0.000000,539.000000,515.000000,24.000000,63.000000,0.000000,0.000000,0.287733,0.347242,0.089683,0.235418,0.000000,539.000000,515.000000,24.000000,63.000000,0.000000,0.000000:
0000
0000
0000
0000
,
0000
0000
0000
0000
,
0000
0000
0000
0000
,
0000
0000
0000
0000
,
0000
0000
0001
0000
1000
0000
0100
0010
,
0100
0000
0001
0000
0010
0000
0010
1000
,
0001
0000
0100
0000
1000
0000
0001
0100
,
0001
0000
0100
0000
0001
0000
1000
0100
,
0010
1000
0100
0200
,
0000
0000
0000
0000
0310
0000
0001
1000
,
0001
0100
1000
1000
,
1000
0010
0200
0000
0010
0000
0310
0000
,
0001
0000
2000
0000
0000
3001
0000
0100
,
0001
0100
0000
0000
0010
0000
0100
0000
,
1000
0000
0002
0000
0000
0000
0003
0100
,
0010
0100
0000
0000
0100
0000
0000
0000
,
0010
0000
0100
0000
0001
0000
0100
0001
,
2000
0000
0000
3000
,
0100
0001
0001
0010
,
0100
0010
0200
0000
0001
0000
0301
0000
,
1000
0002
0200
0303
,
1000
1000
0001
1000
,
0100
0000
0220
0000
0000
0330
0000
0010
,
0100
0010
0000
0000
0100
0000
0200
0300
,
0010
0010
0000
0000
0100
0000
0000
0000
,
0001
1000
0010
0001
,
1000
0000
0100
0000
0010
0000
0001
0100
,
1000
0100
0000
0000
1000
0000
0001
0000
,
0100
0010
1000
0000
,
1000
0100
0001
0000
1000
0000
0020
0000
,
0100
0130
1000
0001
,
1000
0000
1000
0000
1000
0001
0200
0000
,
0000
0300
0001
0000
0010
0000
0100
0000
,
0010
0000
0100
0000
0010
0001
2000
0000
,
0001
3001
0100
0010
,
0100
0000
0100
0000
0100
0010
0002
0000
,
0000
0003
0100
0000
0001
0000
1000
0000
,
0100
0000
0010
0000
0001
0100
2000
0000
,
0010
3010
0001
0100
,
0001
0000
0100
0000
0001
0010
0200
0000
,
0000
0300
1000
0000
1000
0000
0001
0000
,
0001
0000
1000
0000
1000
0100
0002
0000
,
0010
0013
1000
0010
,
1000
0010
1000
0010
,
1000
0000
1000
0000
0010
0200
0000
0000
,
0320
0030
0100
0100
,
0001
0000
0100
0000
0001
0010
1000
0100
,
0000
0010
0010
1000
,
0010
0000
0001
0000
0001
0010
0001
0010
,
0000
1000
0001
0100
,
1000
0000
0001
0000
0010
0100
1001
0000
,
0220
0330
0000
0000
0001
0000
0000
0000
0100
0000
0000
0000
0100
0000
0000
0000
,
2000
3002
1003
1000
,
0010
0100
0001
0001
,
0001
0200
1000
1300
,
0010
1000
0001
0000
0001
1000
0000
0000
,
0100
0000
1000
0100
,
0001
0000
0010
0000
0100
0000
0000
0010
,
0100
0010
0000
0000
0100
0010
0100
0000
,
0001
1000
0001
0000
0010
0000
0100
0000
,
0020
0000
0230
0000
,
0310
1000
0010
1000
,
0100
0200
0010
0310
,
0001
0000
0010
0000
0100
0010
0000
0000
,
0100
0000
0010
0001
,
0100
0000
0001
0000
0100
0000
0000
0001
,
1000
0001
0000
0000
0100
0000
0200
0000
,
2300
0000
3100
0000
,
0010
0100
0010
0100
0010
0000
1000
0000
,
0002
0203
0300
0010
,
0100
0000
0000
0000
0001
1000
0010
0000
,
0100
1000
0001
0100
,
1000
0010
1010
0000
0001
0000
2000
0000
,
0100
3100
0001
0001
,
1000
0000
1000
0001
0100
0000
2000
0000
,
0000
3000
0010
0000
0010
0000
1000
0000
,
0001
0000
0010
0000
0100
0100
0020
0000
,
0001
0031
1000
1000
,
0001
0000
0001
0000
0100
0010
0002
0000
,
0000
0003
0010
0000
0020
0000
0030
0200
,
0000
0000
0300
0000
1000
0100
0002
0000
,
1000
1003
0100
1000
,
0001
0000
0100
0001
1000
0000
0200
0000
,
0000
0300
0001
0000
0001
0000
0000
0000
,
0000
0000
0001
0000
0001
1000
0020
0000
,
1000
1030
1000
0010
,
0010
0000
0001
0000
0010
0000
0001
0001
,
1000
0010
0001
0020
,
0230
0300
1000
0001
,
0010
0000
0010
0000
1000
0000
0100
0010
,
0000
1000
0010
0001
,
0010
0000
1000
0000
0010
0000
0100
0010
,
0000
0010
0001
0100
,
1000
0000
0001
0000
1000
0100
0010
0000
,
2002
3003
0000
0000
0001
0000
0000
0000
1000
0000
0000
0000
0010
0000
0000
0000
,
0010
0100
1001
1001
,
1001
0001
0010
0001
,
0001
1000
0100
0110
,
1001
0000
1001
0000
0100
0010
0000
0000
,
0010
0000
0001
0000
0020
0000
0000
0030
,
0000
0000
0001
0000
0010
0000
0000
0100
,
1000
0100
0000
0000
0001
1000
0020
0000
,
0000
0230
0000
0000
1300
0000
0000
0000
,
0100
0001
0100
0001
0100
0000
0001
0000
,
0100
0000
1000
0000
0100
0000
0001
1000
,
0010
0001
0000
0000
1000
0000
1000
0000
,
0100
1000
0100
0010
,
1000
0100
0001
0000
0010
0000
2000
0000
,
0001
3001
0100
0010
,
0100
0000
0010
0000
0100
0010
0200
0000
,
0000
0300
0010
0000
1000
2000
3000
0002
,
0000
0003
0000
0000
0001
0010
2000
0000
,
0010
3010
0010
0100
,
0010
0100
0010
0020
,
0000
0030
0010
0000
0001
0000
0100
0000
,
1000
0000
0100
0000
1000
0100
0002
0000
,
0100
0103
0001
1000
,
0001
1000
0001
0002
,
0000
0003
0010
0000
0100
0000
0010
0000
,
0100
0000
0001
0000
0010
0100
0200
0000
,
0010
0310
1000
0001
,
1000
0001
1000
1000
,
1000
0001
1000
0100
,
0001
0000
0110
0000
0001
0100
2000
0000
,
0001
3001
0011
1001
,
1000
1000
0000
0002
,
0003
0100
1000
0000
,
1000
0100
1000
0000
0010
0100
0220
0000
,
0000
0330
1100
1001
,
0001
0001
0101
1001
,
0001
1000
0001
1000
,
0001
0110
1001
1001
,
0110
0220
0000
0330
;
