#TITLE:Gentleman;
#SUBTITLE:;
#ARTIST:Psy;
#TITLETRANSLIT:;
#SUBTITLETRANSLIT:;
#ARTISTTRANSLIT:;
#GENRE:;
#CREDIT:;
#BANNER:Psy - Gentleman.png;
#BACKGROUND:Psy - Gentleman-bg.png;
#LYRICSPATH:Gentleman.lrc;
#CDTITLE:;
#MUSIC:PSY - GENTLEMAN M_V.mp3;
#OFFSET:0.238000;
#SAMPLESTART:58.824451;
#SAMPLELENGTH:15.000002;
#SELECTABLE:YES;
#BPMS:0.000000=125.999992
;
#STOPS:161.500000=0.480000,
404.000000=1.500000
;
#BGCHANGES:0.000=flash=1.000=0=0=1=====,
0.500=PSY - GENTLEMAN M_V.avi=1.000=0=0=1=====,
485.000=Psy - Gentleman-bg.png=1.000=0=0=1=====,
99999=-nosongbg-=1.000=0=0=0 // don't automatically add -songbackground-
;
#KEYSOUNDS:;
#ATTACKS:;

//---------------dance-single - ----------------
#NOTES:
     dance-single:
     :
     Hard:
     14:
     0.696368,0.754411,0.695142,0.300370,0.502047,1136.000000,974.000000,162.000000,70.000000,0.000000,0.000000,0.696368,0.754411,0.695142,0.300370,0.502047,1136.000000,974.000000,162.000000,70.000000,0.000000,0.000000:
0000
0000
0000
0000
,
0000
0000
0000
0000
,
0000
0000
0000
0000
,
0000
0000
0000
0000
,
0000
0000
0000
0000
2002
0000
3003
0000
0000
0000
1000
0001
1000
0000
0001
0000
,
0100
1000
0010
0001
0100
0000
0110
0000
0000
0000
0001
0010
1000
0000
0100
0000
,
0010
0000
0001
0000
2002
0000
3003
0000
0000
0000
0010
0100
0010
0000
0001
0000
,
0010
0000
0100
0000
1000
0100
0010
0001
1000
0100
0010
0001
1000
0001
1000
0000
,
0100
0010
0100
0000
1001
0000
0010
0000
0110
0000
0000
0000
1000
0100
0001
0000
,
0010
0000
0001
0000
0100
0010
1000
0000
0110
0000
0000
0000
0001
1000
0001
0000
,
0100
0010
0100
0000
1001
0000
0000
0000
0110
0000
0000
0000
0001
0100
1000
0000
,
0010
0000
1000
0000
0100
0010
0001
0000
0110
0000
0000
0000
0001
1000
0001
0000
,
0010
0100
0010
0000
1001
0000
0000
0000
0110
0000
0000
0000
0010
0001
1000
0000
,
0100
0000
1000
0000
0010
1000
0001
0000
0110
0000
0000
0000
1000
0001
1000
0000
,
0010
0100
0010
0000
1001
0000
0000
0000
0110
0000
0000
0000
0010
1000
0001
0000
,
0100
0000
0001
0000
0010
0100
1000
0000
0110
0000
0000
0000
0010
0000
0000
0000
,
1000
0001
1000
0002
2000
0000
3003
0000
0000
0000
0001
0010
1000
0100
0010
0000
,
0001
0000
0010
0100
0010
0001
1000
0000
0100
0000
0010
0000
1001
0000
0000
0000
,
0001
1000
0001
2000
0002
0000
3003
0000
0000
0000
0001
0100
1000
0000
0010
0000
,
0001
0000
0010
0100
0010
0000
1000
0000
0100
0000
0010
0000
1001
0000
0000
0000
,
0100
0010
0100
0020
0200
0000
0330
0000
0000
0000
0010
0001
0100
0000
1000
0000
,
0010
0000
1000
0001
1000
0000
0100
0000
0001
0000
1000
0000
0110
0000
0000
0000
,
0010
0100
0010
0200
0020
0000
0330
0000
0000
0000
0100
1000
0010
0000
0001
0000
,
0100
0000
0001
1000
0001
0000
0010
0000
1000
0000
0001
0000
0110
0000
0000
0000
,
0101
0000
0000
0000
1100
0000
0000
0000
0100
0010
0100
0000
0010
0001
0010
0000
,
0001
0010
0001
0000
1000
0001
1000
0000
0010
1000
0010
0000
0100
1000
0100
0000
,
1000
0001
1000
0000
0001
0010
0001
0000
0010
0100
0010
0000
0100
1000
0100
0000
,
1000
0001
1000
0000
0001
0100
0001
0000
0100
0010
0100
0000
0010
1000
0001
0000
,
1100
0000
0000
0000
0101
0000
0000
1100
0000
0000
0101
0000
0000
0000
0010
0000
,
0100
0001
0010
0100
1000
0000
0000
0011
0000
0000
1010
0000
0000
0000
1000
0010
,
0100
1000
0001
0000
1001
0000
0000
0110
0000
0000
1001
0000
0000
0000
1000
0001
,
1000
0000
0110
0000
1000
0100
1000
0100
0010
0000
0001
0000
0010
0000
0100
0000
,
1001
0000
0000
0000
0202
0000
0303
0000
0000
0000
1000
0100
1000
0000
0001
0000
,
0010
0000
0100
0000
1000
0000
1001
0000
0000
0000
0001
0100
0001
0000
1000
0000
,
0010
0000
0100
0000
0202
0000
0303
0000
0000
0000
1000
0100
1000
0000
0010
0000
,
0100
0000
1000
0000
0001
1000
0010
0001
0100
0000
1000
0000
0100
0000
0001
0000
,
0110
0000
0000
0000
2002
0000
3003
0000
0000
0000
0001
0010
0001
0000
1000
0000
,
0100
0000
0010
0000
0001
0000
1001
0000
0000
0000
1000
0010
1000
0000
0001
0000
,
0100
0000
0010
0000
2020
0000
3030
0000
0000
0000
0001
0010
0001
0000
0001
0000
,
1000
0000
0100
0000
0010
1000
0001
0100
0010
0000
1000
0000
0010
0000
1010
0000
,
1001
0000
0000
0000
2002
0000
3003
0000
0001
1000
0001
0000
0010
0100
0010
0000
,
1001
0100
0110
0000
0011
1000
0100
1000
,
0010
0000
0001
0000
0110
0000
0000
0000
1000
0001
1000
0000
0010
0100
0010
0000
,
1001
0000
0110
0000
1010
0001
0100
0001
,
0010
0000
1000
0000
0110
0000
0000
0000
1000
0001
1000
0000
0100
0010
0100
0000
,
1001
0000
0110
0000
1100
0001
0010
0001
,
0100
0000
1000
0000
0110
0000
0000
0000
0001
1000
0001
0000
0100
0010
0100
0000
,
1001
0000
0110
0000
0101
1000
0010
1000
,
0100
0000
0001
0000
0110
0000
0000
0000
0100
0000
0000
0000
0001
1000
0001
2000
,
0002
0000
3003
0000
0000
0000
1000
0100
0001
0000
0100
0000
1000
0000
0100
0010
,
0100
0000
0001
0000
0010
0000
0100
0000
1001
0000
0000
0000
1000
0001
1000
0002
,
2000
0000
3003
0000
0000
0000
1000
0010
0001
0000
0100
0000
1000
0000
0100
0010
,
0100
0000
0001
0000
0010
0000
0100
0000
1001
0000
0000
0000
0010
0100
0010
0200
,
0020
0000
0330
0000
0000
0000
0100
1000
0010
0000
0001
0000
0100
0000
0001
1000
,
0001
0000
0010
0000
1000
0000
0001
0000
0110
0000
0000
0000
0100
0010
0100
0020
,
0200
0000
0330
0000
0000
0000
0010
0001
0100
0000
1000
0000
0010
0000
1000
0001
,
1000
0100
0001
1000
0110
0000
1010
0000
,
0011
0000
0000
0000
0010
0100
0010
0000
0100
1000
0100
0000
1000
0100
1000
0000
,
0001
1000
0001
0000
0100
0001
0100
0000
0010
0001
0010
0000
0001
1000
0001
0000
,
1000
0100
1000
0000
0100
0010
0100
0000
0010
0001
0010
0000
0001
1000
0001
0000
,
1000
0010
1000
0000
0010
0100
0010
0000
0100
0001
1000
0000
0011
0000
0000
0000
,
1010
0000
0000
0011
0000
0000
1010
0000
0000
0000
0100
0000
0010
1000
0100
0010
,
0001
0000
0000
1100
0000
0000
0101
0000
0000
0000
0001
0100
0010
0001
1000
0000
,
1001
0000
0000
0110
0000
0000
1001
0000
0000
0000
0001
1000
0001
0000
0110
0000
,
0001
0010
0001
0010
0100
0000
1000
0000
0100
0000
0010
0000
1001
0000
0000
0000
,
2020
0000
3030
0000
0000
0000
0001
0010
0001
0000
1000
0000
0100
0000
0010
0000
,
0001
0000
1001
0000
0000
0000
1000
0010
1000
0000
0001
0000
0100
0000
0010
0000
,
2020
0000
3030
0000
0000
0000
0001
0010
0001
0000
0100
0000
0010
0000
0001
0000
,
1000
0001
0100
1000
0010
0000
0001
0000
0010
0000
1000
0000
0110
0000
0000
0000
,
2002
0000
3003
0000
0000
0000
1000
0100
1000
0000
0001
0000
0010
0000
0100
0000
,
1000
0000
1001
0000
0000
0000
0001
0100
0001
0000
1000
0000
0010
0000
0100
0000
,
0202
0000
0303
0000
0000
0000
1000
0100
1000
0000
1000
0000
0001
0000
0010
0000
,
0100
0001
1000
0010
0100
0000
0001
0000
0100
0000
0101
0000
1001
0000
0000
0000
,
1000
0000
0001
1000
0001
0000
1100
0000
0202
0000
0000
0000
0000
0000
0303
0000
,
0000
0000
1000
0001
1000
0000
0101
0000
2200
0000
0000
0000
0000
0000
3300
0000
,
0000
0000
0100
0010
0100
0000
0110
0000
2002
0000
0000
0000
0000
0000
3003
0000
,
0000
0000
0000
0000
0001
1000
0001
0000
1000
0002
2000
0000
0000
0000
3003
0000
,
0000
0000
0010
0100
0010
0000
0101
0000
0022
0000
0000
0000
0000
0000
0033
0000
,
0000
0000
0100
0010
0100
0000
0011
0000
0202
0000
0000
0000
0000
0000
0303
0000
,
0000
0000
0001
1000
0001
0000
1001
0000
0220
0000
0000
0000
0000
0000
0330
0000
,
0000
0000
0000
0000
0010
0100
0010
0000
0100
0020
0200
0000
0000
0000
0330
0000
,
1000
0200
2000
0000
0000
3300
0000
0000
0001
0200
0002
0000
0303
0000
0000
0000
,
1000
0100
1000
0000
0001
0100
0001
0000
1000
0100
1000
0000
0001
0100
0001
0000
,
1000
0001
1000
0001
1000
0001
1000
0001
1000
0001
1000
0001
1000
0001
1000
0000
,
0100
1000
0100
1000
0001
0000
0010
0000
0001
0000
1000
0000
0110
0000
0000
0000
,
2020
0000
3030
0000
0000
0000
0100
1000
0100
0000
0010
0000
0001
0000
1000
0000
,
0100
0000
0110
0000
0000
0000
0010
1000
0010
0000
0100
0000
0001
0000
1000
0000
,
2020
0000
3030
0000
0000
0000
0100
1000
0100
0000
0001
0000
1000
0000
0100
0000
,
0010
0100
0001
0010
1000
0000
0100
0000
1000
0000
0010
0000
1001
0000
0000
0000
,
0220
0000
0330
0000
0000
0000
0010
0001
0010
0000
0100
0000
1000
0000
0001
0000
,
0010
0000
0110
0000
0000
0000
0100
0001
0100
0000
0010
0000
1000
0000
0001
0000
,
0202
0000
0303
0000
0000
0000
0010
0001
0010
0000
0010
0000
0100
0000
1000
0000
,
0001
0100
0010
1000
0001
0000
0100
0000
0001
0000
0101
0000
0110
0000
0000
0000
,
1000
0010
0100
0000
0000
0000
0001
0100
0010
0000
0110
0000
1001
0000
0000
0000
,
0100
1000
0001
1000
0100
0000
0010
0001
1000
0000
1001
0000
0110
0000
0000
0000
,
0010
0001
1000
0000
0000
0000
0100
1000
0001
0000
1001
0000
0110
0000
0000
0000
,
1000
0100
1000
0100
1000
0000
1000
0000
1100
0000
1000
0000
1100
0000
0000
0000
,
0001
0100
0010
0000
0000
0000
1000
0010
0100
0000
0110
0000
1001
0000
0000
0000
,
0010
0001
1000
0001
0010
0000
0100
1000
0001
0000
1001
0000
0110
0000
0000
0000
,
0100
1000
0001
0000
0000
0000
0010
0001
1000
0000
1001
0000
0110
0000
0000
0000
,
0001
0000
0000
0000
0000
0000
0000
0000
0000
0000
0000
0000
0010
0000
0000
0000
0000
0000
0000
0000
0000
0000
0000
0000
0001
0000
0000
0000
0000
0000
0000
0000
0000
0000
0000
0000
0010
0000
0000
0000
0000
0000
0000
0000
0000
0000
0000
0000
0001
0000
0000
0000
0000
0000
0000
0000
0000
0000
0000
0000
0000
0000
0000
0000
0000
0000
0000
0000
0000
0000
0000
0000
0001
0000
0000
0000
0000
0000
0000
0000
0000
0000
0000
0000
0000
0000
0000
0000
0000
0000
0000
0000
0000
0000
0000
0000
0011
0000
0000
0000
0000
0000
0000
0000
0000
0000
0000
0000
0000
0000
0000
0000
0000
0000
0000
0000
0000
0000
0000
0000
0001
0000
0000
0000
0000
0000
0000
0000
0000
0000
0000
0000
0000
0000
0000
0000
0000
0000
0000
0000
0000
0000
0000
0000
2001
0002
0000
0000
0000
0000
0000
0000
0000
0000
0000
0000
0000
0000
0000
0000
0000
0000
0000
0000
0000
0000
0000
0000
0000
0000
0000
0000
0000
0000
0000
0000
0000
0000
0000
0000
0000
0000
0000
0000
0000
0000
0000
0000
0000
0000
0000
0000
,
3003
0000
0000
0000
0100
1000
0001
0000
0000
0000
0010
0001
1000
0000
1001
0000
,
0110
0000
0000
0000
0001
0100
0010
0100
0001
0000
1000
0010
0100
0000
0110
0000
,
1001
0000
0000
0000
1000
0010
0100
0000
0000
0000
0001
0100
0010
0000
0110
0000
,
1001
0000
0000
0000
0100
0001
0100
0001
0100
0000
0100
0000
0101
0000
0100
0000
,
0101
0000
0000
0000
0010
0001
1000
0000
0000
0000
0100
1000
0001
0000
1001
0000
,
0110
0000
0000
0000
1000
0010
0100
0010
1000
0000
0001
0100
0010
0000
0110
0000
,
1001
0000
0000
0000
0001
0100
0010
0000
0000
0000
1000
0010
0100
0000
0110
0000
,
1001
0000
0000
0000
0010
1000
0010
1000
0010
0000
0010
0000
1010
0000
0010
0000
,
1010
0000
0000
0000
0001
0010
0100
0000
0000
0000
1000
0100
0010
0000
0110
0000
,
1001
0000
0000
0000
0100
0001
1000
0001
0100
0000
0010
1000
0001
0000
1001
0000
,
0110
0000
0000
0000
0010
1000
0001
0000
0000
0000
0100
0001
1000
0000
1001
0000
,
0110
0000
0000
0000
0001
0100
0001
0100
0001
0000
0001
0000
0101
0000
0001
0000
,
0101
0000
0000
0000
1000
0100
0010
0000
0000
0000
0001
0010
0100
0000
0110
0000
,
1001
0000
0000
0000
0010
1000
0001
1000
0010
0000
0100
0001
1000
0000
1001
0000
,
0110
0000
0000
0000
0100
0001
1000
0000
0000
0000
0010
1000
0001
0000
1001
0000
,
0110
0000
0000
0000
1000
0010
1000
0010
1000
0000
1000
0000
1010
0000
1000
0000
,
1010
0000
0000
0000
0010
1000
0100
0000
0000
0000
0010
0100
1000
0000
1001
0000
,
1100
0000
0000
0000
0100
1000
0010
0100
0010
0000
0100
1000
0010
0000
0101
0000
,
0011
0000
0000
0000
0100
0001
1000
0000
0000
0000
0100
0001
1000
0000
0110
0000
,
1001
0000
0000
0000
0010
1000
0100
0001
1000
0000
0100
0000
0101
0000
1000
0000
,
0220
0330
0000
0000
;

//---------------dance-single - ----------------
#NOTES:
     dance-single:
     :
     Medium:
     10:
     0.538214,0.520284,0.695142,0.420518,0.012873,878.000000,716.000000,162.000000,98.000000,0.000000,0.000000,0.538214,0.520284,0.695142,0.420518,0.012873,878.000000,716.000000,162.000000,98.000000,0.000000,0.000000:
0000
0000
0000
0000
,
0000
0000
0000
0000
,
0000
0000
0000
0000
,
0000
0000
0000
0000
,
0000
0000
2002
3003
0000
0001
0010
1000
,
0010
0100
0001
1001
0000
1000
0001
0010
,
0100
1000
2002
3003
0000
0100
0010
1000
,
0100
0010
0001
0010
1000
0100
0001
1000
,
0010
0100
1001
0000
0110
0000
0001
1000
,
0100
1000
0010
0001
0110
0000
1000
0001
,
0010
0100
1001
0000
0110
0000
1000
0001
,
0100
0001
0010
1000
0110
0000
1000
0001
,
0100
0010
1001
0000
0110
0000
0100
1000
,
0010
0001
0100
1000
0110
0000
0001
1000
,
0100
0010
1001
0000
0110
0000
0100
1000
,
0010
1000
0100
0001
0110
0000
0100
0000
,
0101
1100
2002
3003
0000
1000
0001
0100
,
1000
0100
0010
0001
0010
0100
1001
0000
,
1100
0101
2002
3000
0003
1000
0001
0100
,
1000
0100
0010
0001
0010
0100
1001
0000
,
0110
0110
0220
0330
0000
0100
1000
0001
,
0100
0001
1000
0010
1000
0001
0110
0000
,
1001
1001
2002
3003
0000
0010
0001
1000
,
0010
1000
0001
0100
0001
1000
0110
0000
,
1010
0011
0120
0230
,
2300
3002
0203
0320
,
0032
2003
3200
0320
,
0032
2003
3020
0230
,
0301
0000
0000
0000
1010
0000
0000
0011
0000
0000
1010
0000
0000
0000
0100
0000
,
0010
0000
1000
0000
0011
0000
0000
1100
0000
0000
0101
0000
0000
0000
0001
0000
,
0100
0000
1000
0000
1001
0000
0000
0110
0000
0000
1001
0000
0000
0000
0001
0000
,
1000
0100
0001
0010
0100
1000
0100
1001
,
1001
0000
2020
3030
0000
0001
0001
1000
,
0100
0010
0001
1001
0000
1000
0010
0001
,
0100
0010
0220
0330
0000
0001
0001
0100
,
0010
0001
1000
0001
0010
0001
0010
1000
,
2010
0000
3002
0003
0000
1000
0100
0001
,
0010
0100
1000
0101
0000
0001
0001
1000
,
0010
0100
0022
0033
0000
1000
0100
1000
,
0001
0010
0100
0001
0010
0001
0100
0001
,
0110
0000
2002
3003
1000
0001
0100
0010
,
0011
0000
1010
0000
0100
0001
0010
0001
,
0100
1000
1010
0000
0001
0001
0100
0010
,
0011
0000
0110
0000
0001
1000
0010
1000
,
0100
0001
1010
0000
0001
0001
0010
0010
,
1001
0000
0110
0000
0001
1000
0100
1000
,
0010
0001
0011
0000
1000
0001
0010
0010
,
0101
0000
1010
0000
0010
0001
0100
0001
,
0010
1000
0010
0001
0010
0100
1000
0001
,
2002
3003
0000
0001
0010
0010
0001
0010
,
0010
1000
0100
0010
1100
0000
0001
0001
,
2020
3030
0000
0001
0100
0010
0001
0010
,
0010
1000
0100
0010
1001
0000
0100
0010
,
0220
0330
0000
0010
0001
1000
0010
1000
,
0001
0100
0001
1000
0110
0000
0010
0010
,
0022
0033
0000
0100
0010
0001
0100
0001
,
0001
0010
1000
0001
1010
0000
1001
0000
,
1100
0200
0320
0032
,
2003
3020
0230
2300
,
3002
0023
0230
2300
,
3002
0203
0320
0130
,
0011
0000
0000
0110
0000
0000
0101
0000
0000
0000
0010
0000
0100
0000
0001
0000
,
1100
0000
0000
0110
0000
0000
1010
0000
0000
0000
1000
0000
0010
0000
0001
0000
,
0011
0000
0000
0110
0000
0000
1010
0000
0000
0000
1000
0000
0001
0000
0010
0000
,
1000
0100
0010
0001
0010
0100
1001
0000
,
2002
3003
0000
1000
0100
0001
0010
0100
,
1000
0101
0000
0001
0001
1000
0010
0100
,
2200
3300
0000
1000
0100
0010
0100
1000
,
0001
0010
0001
1000
0100
0001
0110
0000
,
0220
0330
0000
0001
0001
1000
0100
0010
,
0001
1001
0000
1000
0010
0001
0100
0010
,
2020
3030
0000
0001
0001
0001
1000
0100
,
0010
0001
0010
1000
0010
0010
1001
0000
,
0000
0011
0011
0011
0022
0000
0033
0000
,
0000
1010
1010
1010
2020
0000
3030
0000
,
0000
0110
0110
0110
0220
0000
0000
0000
,
0330
0000
1001
0000
2002
0000
0000
3003
,
0000
1100
1100
1100
2200
0000
0000
3300
,
0000
0101
0101
0101
0202
0000
0303
0000
,
0000
1001
1001
1001
2002
0000
0000
0000
,
3003
1100
0022
0033
,
2020
3030
0220
0330
,
1001
1100
0101
1001
,
0001
1000
0001
1000
0001
1000
0001
1000
,
0010
0001
0001
0100
1000
0001
0110
0000
,
0202
0303
0000
0010
0001
0100
1000
0001
,
0010
1100
0000
0100
0001
0010
1000
0001
,
0202
0303
0000
0010
0001
1000
0001
0010
,
0100
0010
0001
0010
0001
0100
0101
0000
,
0022
0033
0000
0100
0100
0010
0001
1000
,
0100
1010
0000
0010
0010
0100
0001
1000
,
0022
0033
0000
0100
0100
0100
0010
0001
,
1000
0010
0001
0010
1000
0010
0110
0000
,
0001
0010
0100
1000
0010
0010
0011
0000
,
0010
0001
0001
0100
0001
0001
1010
0000
,
0100
0001
0000
0010
0001
0001
0110
0000
,
0001
0001
0001
0001
0001
0001
1001
0000
,
1000
0010
0100
0001
0010
0010
1001
0000
,
0100
0001
0100
0010
0001
0001
0110
0000
,
0010
0001
0000
0100
0001
0001
1010
0000
,
1000
0100
0100
1000
0100
1000
2002
0000
,
3003
0000
0010
0001
0000
0100
0001
0001
,
0011
0000
1000
0010
0010
0001
0010
0010
,
1010
0000
0001
0010
0100
1000
0010
0010
,
0101
0000
0010
0010
0010
0010
0010
0010
,
0110
0000
0100
0001
1000
0010
0001
0001
,
1010
0000
0001
0010
0001
1000
0010
0010
,
0101
0000
1000
0010
0000
0001
0010
0010
,
1100
0000
0100
0001
0001
0100
0001
0100
,
0101
0000
1000
0010
0100
0001
0010
0010
,
0101
0000
0010
0001
0010
0100
0001
0001
,
1010
0000
0100
0001
0000
0010
0001
0001
,
0011
0000
1000
0010
0010
1000
0010
1000
,
0110
0000
0001
0010
0100
1000
0010
0010
,
0011
0000
0100
0001
0001
0010
0001
0001
,
1010
0000
0010
0001
0010
0100
0001
0001
,
0110
0000
1000
1000
1000
1000
1000
1000
,
1001
0000
0100
0001
0100
0100
0001
0001
,
1001
0000
0010
0001
0010
0010
0001
0010
,
0110
0000
0010
0001
1000
0010
0001
0010
,
0001
0000
0100
0001
0001
0010
0010
0001
,
2002
3003
0000
0000
;

//---------------dance-single - ----------------
#NOTES:
     dance-single:
     :
     Easy:
     7:
     0.373317,0.390213,0.347571,0.163058,0.012873,609.000000,528.000000,81.000000,38.000000,0.000000,0.000000,0.373317,0.390213,0.347571,0.163058,0.012873,609.000000,528.000000,81.000000,38.000000,0.000000,0.000000:
// measure 0
0000
0000
0000
0000
,  // measure 1
0000
0000
0000
0000
,  // measure 2
0000
0000
0000
0000
,  // measure 3
0000
0000
0000
0000
,  // measure 4
0000
0000
1001
0000
0000
0000
0010
0100
,  // measure 5
1000
0100
0001
0100
,  // measure 6
0100
0000
1100
0000
0000
0000
0010
0001
,  // measure 7
1000
1000
0101
0100
,  // measure 8
0010
0000
0100
0000
0110
0000
0010
0001
,  // measure 9
1000
0100
1100
1000
,  // measure 10
0010
0000
0001
0000
1010
0000
0100
0010
,  // measure 11
0001
0010
1001
0010
,  // measure 12
0001
0000
1000
0000
1010
0000
0100
1000
,  // measure 13
0010
0100
0110
0010
,  // measure 14
1000
0000
0100
0000
0011
0000
0100
0001
,  // measure 15
1000
0100
0010
1100
,  // measure 16
1000
0001
2000
0000
3000
0000
1010
0000
,  // measure 17
1000
0010
0100
1100
,  // measure 18
1000
0100
2000
0000
3000
0000
0110
0000
,  // measure 19
0100
0000
0100
0001
0100
0000
0101
0000
,  // measure 20
0100
0001
0200
0000
0300
0000
1010
0000
,  // measure 21
1000
0010
0001
0110
,  // measure 22
0100
0010
0200
0000
0300
0000
1100
0000
,  // measure 23
1000
1000
0100
0100
,  // measure 24
1000
0001
0010
0000
0110
0000
0100
0000
,  // measure 25
1100
0001
1001
1000
,  // measure 26
1010
1000
1001
0010
,  // measure 27
0110
1000
1100
1000
,  // measure 28
1010
0000
0000
0000
0010
0000
0000
0001
0000
0000
0100
0000
0000
0000
0100
0000
,  // measure 29
0100
0000
0000
0000
0100
0000
0000
1000
0000
0000
0100
0000
0000
0000
1000
0000
,  // measure 30
1000
0000
0000
0000
1000
0000
0000
0001
0000
0000
0100
0000
0000
0000
0010
0000
,  // measure 31
0010
0110
1100
0110
,  // measure 32
1001
0000
0220
0000
0330
0000
0100
0001
,  // measure 33
0100
0001
0100
1000
,  // measure 34
0001
0000
0202
0000
0303
0000
1000
0010
,  // measure 35
1000
0001
1000
0001
,  // measure 36
0101
0000
2020
0000
3030
0000
0010
0001
,  // measure 37
0010
0100
0001
0001
,  // measure 38
0100
0000
2020
0000
3030
0000
0010
0100
,  // measure 39
0010
0001
0001
0001
,  // measure 40
0011
0000
2002
3003
0000
0000
0001
1000
,  // measure 41
0010
0110
0100
0100
,  // measure 42
0010
0000
0110
0000
1000
0000
0010
1000
,  // measure 43
0010
1100
0100
1000
,  // measure 44
0100
0000
0100
0000
0101
0000
0100
0010
,  // measure 45
0100
0001
0010
1000
,  // measure 46
0100
0000
0010
0000
1010
0000
0100
1000
,  // measure 47
0001
0100
0010
0001
,  // measure 48
1000
0000
0100
0000
0101
0000
1000
0010
,  // measure 49
2000
0000
3000
0000
1000
0100
0001
0000
,  // measure 50
0010
0000
0100
0000
1000
0000
0100
0001
,  // measure 51
2000
0000
3000
0000
0100
0010
0100
0000
,  // measure 52
0001
0000
0100
0000
0100
0000
1000
0001
,  // measure 53
0020
0000
0030
0000
0001
1000
0100
0000
,  // measure 54
0100
0000
0001
0000
0100
0000
0100
0001
,  // measure 55
0200
0000
0300
0000
0100
0001
0010
0000
,  // measure 56
0001
1000
0001
0100
,  // measure 57
1100
0001
0101
0100
,  // measure 58
1100
0100
0110
1000
,  // measure 59
1010
0010
0110
0100
,  // measure 60
0011
0100
1010
0100
,  // measure 61
1000
0000
0000
0001
0000
0000
1000
0000
0000
0000
0100
0000
0100
0000
0000
0000
,  // measure 62
0010
0000
0000
0010
0000
0000
0100
0000
0000
0000
1000
0000
1000
0000
0000
0000
,  // measure 63
0001
0000
0000
0010
0000
0000
0100
0000
0000
0000
0100
0000
0100
0000
0000
0000
,  // measure 64
0010
1001
0010
0110
,  // measure 65
0010
0000
0000
0000
0100
0001
1000
0000
,  // measure 66
0100
0000
0100
0000
1000
0000
0001
0100
,  // measure 67
1000
0000
1100
0100
,  // measure 68
0010
0010
0010
0000
0100
0100
0100
0000
,  // measure 69
1001
0000
0000
0000
0100
1000
0100
0000
,  // measure 70
0010
0000
0100
0000
0100
0000
0100
0001
,  // measure 71
0100
0000
0110
1000
,  // measure 72
0100
1000
0001
0000
0100
0000
0110
0000
,  // measure 73
0000
0000
0001
0100
0001
0000
0101
0000
,  // measure 74
0000
0000
1000
0100
1000
0000
1100
0000
,  // measure 75
0000
0000
0100
0010
0100
0000
0110
0000
,  // measure 76
0000
1001
0220
0330
,  // measure 77
0000
0000
1000
0100
0001
0000
1001
0000
,  // measure 78
0000
0000
0001
0100
1000
0000
1001
0000
,  // measure 79
0000
0000
0100
0001
1000
0000
1001
0000
,  // measure 80
0000
0110
2002
3003
,  // measure 81
0200
0000
0320
0000
,  // measure 82
0032
0023
2030
3100
,  // measure 83
1000
1000
1000
0000
0001
0001
0001
0000
,  // measure 84
0001
1000
0001
1000
0001
0000
1100
0000
,  // measure 85
2200
0000
3300
0000
0010
0001
0100
0000
,  // measure 86
0100
0000
1000
0000
1000
0000
1000
0010
,  // measure 87
0002
0000
0003
0000
1001
0000
0001
1000
,  // measure 88
0100
0000
0100
0000
1000
0010
0100
0000
,  // measure 89
0202
0000
0303
0000
1000
0100
1000
0000
,  // measure 90
0100
0000
1000
0000
1000
0100
0001
0000
,  // measure 91
0202
0000
0303
0000
0100
0010
0100
0000
,  // measure 92
0010
1000
0001
0000
0010
0001
1000
0000
,  // measure 93
0010
0001
0010
0000
1000
0000
1100
0000
,  // measure 94
0010
1000
0010
0000
0001
0000
0101
0000
,  // measure 95
1000
0100
0001
0000
0010
0000
1010
0000
,  // measure 96
0100
1000
0100
0110
,  // measure 97
0100
0001
1000
0000
0010
0000
0011
0000
,  // measure 98
0100
0010
1000
0000
0010
0000
0011
0000
,  // measure 99
0100
0001
0100
0000
0100
0000
0101
0000
,  // measure 100
0010
0100
0010
0100
0010
0000
0220
0000
,  // measure 101
0330
0000
1000
0100
0010
0000
0100
0000
,  // measure 102
0100
0000
1000
0001
0100
0000
0100
0000
,  // measure 103
0010
0000
0010
0001
1000
0000
0010
0000
,  // measure 104
0010
0000
1000
0001
1000
0001
1000
0001
,  // measure 105
1000
0000
0100
0001
0010
0000
1000
0000
,  // measure 106
0010
0000
0001
1000
0100
0000
0010
0000
,  // measure 107
0010
0000
0100
0010
0100
0000
1000
0000
,  // measure 108
0001
0000
0001
1000
0001
1000
0001
1000
,  // measure 109
0001
0000
0100
0010
0100
0000
0010
0000
,  // measure 110
0100
0000
0010
1000
0100
0000
0100
0000
,  // measure 111
0001
0000
1000
0010
0100
0000
0001
0000
,  // measure 112
0001
0000
0100
0010
0100
0010
0100
0010
,  // measure 113
0100
0000
0001
0000
0100
0000
0100
0001
,  // measure 114
0100
1000
0001
0100
,  // measure 115
0010
0001
0100
0000
0100
0000
1000
0000
,  // measure 116
1000
0000
1000
0010
1000
0010
1000
0010
,  // measure 117
1000
0000
0100
0010
0001
0000
1000
0000
,  // measure 118
1000
0000
1000
0100
0010
0000
0010
0000
,  // measure 119
1000
0000
0010
0100
0010
0000
0001
0000
,  // measure 120
0001
0000
1000
0001
1000
0001
1000
0000
,  // measure 121
2002
3003
0000
0000
;

//---------------dance-single - ----------------
#NOTES:
     dance-single:
     :
     Beginner:
     4:
     0.245813,0.312170,0.141603,0.051492,0.012873,401.000000,368.000000,33.000000,12.000000,0.000000,0.000000,0.245813,0.312170,0.141603,0.051492,0.012873,401.000000,368.000000,33.000000,12.000000,0.000000,0.000000:
// measure 0
0000
0000
0000
0000
,  // measure 1
0000
0000
0000
0000
,  // measure 2
0000
0000
0000
0000
,  // measure 3
0000
0000
0000
0000
,  // measure 4
0000
1001
0000
1000
,  // measure 5
0000
0100
0000
0100
,  // measure 6
0100
0100
0000
1000
,  // measure 7
0000
0010
0000
0100
,  // measure 8
0100
0100
0000
1000
,  // measure 9
0000
0100
0000
0010
,  // measure 10
0010
0010
0000
0100
,  // measure 11
0000
1000
0000
1000
,  // measure 12
1000
1000
0000
0100
,  // measure 13
0000
0100
0000
1000
,  // measure 14
1000
1000
0000
0100
,  // measure 15
0000
0100
0000
0010
,  // measure 16
0010
0010
0020
0000
0030
0000
0000
0000
,  // measure 17
0010
0000
0000
0010
,  // measure 18
0010
0010
0020
0000
0030
0000
0000
0000
,  // measure 19
0100
0000
0000
0100
,  // measure 20
0100
0100
0200
0000
0300
0000
0000
0000
,  // measure 21
0010
0000
0001
0000
,  // measure 22
0100
0100
0200
0000
0300
0000
0000
0000
,  // measure 23
0010
0000
0100
0000
,  // measure 24
0010
0010
0010
0000
0010
0000
0000
0000
,  // measure 25
1001
0000
0110
0000
,  // measure 26
1001
0000
0110
0000
,  // measure 27
1001
0000
0110
0000
,  // measure 28
0010
0000
0000
0000
0010
0000
0000
0010
0000
0000
0010
0000
0000
0000
0010
0000
,  // measure 29
0010
0000
0000
0000
0010
0000
0000
0010
0000
0000
0010
0000
0000
0000
0010
0000
,  // measure 30
0010
0000
0000
0000
0010
0000
0000
0010
0000
0000
0010
0000
0000
0000
0010
0000
,  // measure 31
0010
0000
0100
0000
,  // measure 32
0100
0000
0100
0000
0000
0000
0100
0100
,  // measure 33
0100
0000
0100
0000
,  // measure 34
0001
0000
0001
0000
0000
0000
0010
0010
,  // measure 35
0010
0000
0010
0000
,  // measure 36
1000
0000
1000
0000
0000
0000
1000
1000
,  // measure 37
1000
0000
0001
0000
,  // measure 38
0010
0000
0010
0000
0000
0000
1000
1000
,  // measure 39
1000
0000
0001
0000
,  // measure 40
1001
0000
2002
3003
0000
0000
0001
0001
,  // measure 41
0001
0000
0100
0000
,  // measure 42
0110
0000
0000
0000
0010
0000
0010
0010
,  // measure 43
0010
0000
0100
0000
,  // measure 44
0100
0000
0000
0000
0100
0000
0100
0100
,  // measure 45
0100
0000
1000
0000
,  // measure 46
0100
0000
0000
0000
0001
0000
0001
0001
,  // measure 47
0001
0000
1000
0000
,  // measure 48
0010
0000
0000
0000
1000
0000
1000
1000
,  // measure 49
1000
0000
0000
0000
0001
0001
0001
0000
,  // measure 50
0000
0000
0100
0000
0000
0000
0001
0001
,  // measure 51
0001
0000
0000
0000
1000
1000
1000
0000
,  // measure 52
0000
0000
0100
0000
0000
0000
0010
0010
,  // measure 53
0010
0000
0000
0000
0001
0001
0001
0000
,  // measure 54
0000
0000
0000
0000
0100
0000
0100
0100
,  // measure 55
0100
0000
0000
0000
0100
0100
0100
0000
,  // measure 56
0000
0010
0000
0100
,  // measure 57
0100
0000
0110
0000
,  // measure 58
1001
0000
0110
0000
,  // measure 59
1001
0000
0110
0000
,  // measure 60
1001
1001
0000
0100
,  // measure 61
0100
0000
0000
0100
0000
0000
0100
0000
0000
0000
0100
0000
0100
0000
0000
0000
,  // measure 62
0100
0000
0000
0100
0000
0000
0100
0000
0000
0000
0100
0000
0100
0000
0000
0000
,  // measure 63
0100
0000
0000
0100
0000
0000
0100
0000
0000
0000
0100
0000
0100
0000
0000
0000
,  // measure 64
0000
0010
0000
0110
,  // measure 65
0000
0000
0000
0000
0100
0100
0100
0000
,  // measure 66
0000
0000
0100
0000
0000
0000
0001
0001
,  // measure 67
0001
0000
0110
0000
,  // measure 68
0000
0000
0100
0000
0100
0100
0100
0000
,  // measure 69
0100
0000
0000
0000
0010
0010
0010
0000
,  // measure 70
0000
0000
0100
0000
0000
0000
0001
0001
,  // measure 71
0001
0000
1000
0000
,  // measure 72
0010
0010
0010
0000
0000
0000
1001
0000
,  // measure 73
0000
0000
0001
0001
0001
0000
0000
0000
,  // measure 74
0000
0000
0010
0010
0010
0000
0000
0000
,  // measure 75
0000
0000
0100
0100
0100
0000
0000
0000
,  // measure 76
0000
0110
0220
0330
,  // measure 77
0000
0000
0010
0010
0010
0000
0000
0000
,  // measure 78
0000
0000
0001
0001
0001
0000
0000
0000
,  // measure 79
0000
0000
0100
0100
0100
0000
0000
0000
,  // measure 80
0000
1001
1001
0000
,  // measure 81
0110
0000
0110
0000
,  // measure 82
1001
1001
1001
0000
,  // measure 83
0010
0010
0010
0000
0010
0010
0010
0000
,  // measure 84
0000
0100
0100
0100
,  // measure 85
0200
0300
0000
0100
,  // measure 86
0000
0010
0000
0010
,  // measure 87
0010
0000
0001
0000
,  // measure 88
0100
0000
0100
0000
0100
0100
0100
0000
,  // measure 89
0100
0000
0000
0000
0010
0010
0010
0000
,  // measure 90
0010
0000
0000
0000
0001
0001
0001
0000
,  // measure 91
0001
0000
0000
0000
1000
1000
1000
0000
,  // measure 92
1000
0000
0010
0010
,  // measure 93
0010
0000
0010
0000
,  // measure 94
1000
1000
1000
0000
0000
0000
0000
0000
,  // measure 95
0001
0001
0001
0000
0000
0000
0000
0000
,  // measure 96
0100
0100
0100
0000
,  // measure 97
0001
0001
0001
0000
0000
0000
0000
0000
,  // measure 98
1000
1000
1000
0000
0000
0000
0000
0000
,  // measure 99
0100
0100
0100
0000
0100
0000
0000
0000
,  // measure 100
0010
0000
0010
0000
0010
0010
0020
0000
,  // measure 101
0030
0000
0010
0010
0010
0000
0000
0000
,  // measure 102
0000
0000
0010
0010
0010
0000
0000
0000
,  // measure 103
0000
0000
1000
1000
1000
0000
0000
0000
,  // measure 104
0000
0000
0001
0001
0001
0000
0001
0001
,  // measure 105
0001
0000
0001
0001
0001
0000
0000
0000
,  // measure 106
0000
0000
0100
0100
0100
0000
0000
0000
,  // measure 107
0000
0000
0100
0100
0100
0000
0000
0000
,  // measure 108
0000
0000
1000
1000
1000
0000
1000
1000
,  // measure 109
1000
0000
1000
1000
1000
0000
0000
0000
,  // measure 110
0000
0000
0100
0100
0100
0000
0000
0000
,  // measure 111
0000
0000
0010
0010
0010
0000
0000
0000
,  // measure 112
0000
0000
0100
0100
0100
0000
0100
0100
,  // measure 113
0100
0000
0000
0000
0000
0000
0001
0001
,  // measure 114
0001
0000
0010
0010
,  // measure 115
0010
0010
0010
0000
0000
0000
0010
0000
,  // measure 116
0010
0000
0010
0010
0010
0000
0010
0010
,  // measure 117
0010
0000
0010
0010
0010
0000
0000
0000
,  // measure 118
0000
0000
0100
0100
0100
0000
0000
0000
,  // measure 119
0000
0000
0100
0100
0100
0000
0000
0000
,  // measure 120
0000
1001
1001
1001
,  // measure 121
2002
3003
0000
0000
;
