#TITLE:Unlimited Legend of Max 300;
#SUBTITLE:;
#ARTIST:Various Artists;
#TITLETRANSLIT:;
#SUBTITLETRANSLIT:;
#ARTISTTRANSLIT:;
#GENRE:;
#CREDIT:;
#BANNER:;
#BACKGROUND:MAX 300-bg.png;
#LYRICSPATH:;
#CDTITLE:;
#MUSIC:ddr - unlimited legend of max 300.mp3;
#OFFSET:-0.100000;
#SAMPLESTART:13.600000;
#SAMPLELENGTH:15.000000;
#SELECTABLE:YES;
#DISPLAYBPM:*;
#BPMS:0.000000=300.000000
,290.000000=200.000000
,291.000000=150.000000
,292.000000=124.999992
,292.500000=100.000000
,293.000000=75.000000
,293.500000=50.000000
,294.000000=300.000000
,524.000000=280.000000
,556.000000=300.000000
,588.000000=150.000000
,604.000000=300.000000
,636.000000=140.000000
,644.000000=124.999992
,645.000000=48.000000
,646.000000=320.000000
,796.333313=333.000000
,1092.000000=665.995972
,1098.000000=333.000000
,1099.000000=165.501007
,1100.000000=83.250999
,1109.000000=333.000000
;
#STOPS:294.000000=1.150000,
646.000000=1.500000,
1100.666626=0.700000
;
#BGCHANGES:;
#KEYSOUNDS:;
#ATTACKS:;

//---------------dance-single - ----------------
#NOTES:
     dance-single:
     :
     Easy:
     9:
     0.464836,0.787763,0.469828,0.302864,0.000000,838.000000,717.000000,121.000000,78.000000,0.000000,0.000000,0.464836,0.787763,0.469828,0.302864,0.000000,838.000000,717.000000,121.000000,78.000000,0.000000,0.000000:
// measure 0
0000
0000
0000
0000
,  // measure 1
0000
0000
0000
0000
,  // measure 2
0000
0000
0000
0000
,  // measure 3
0000
0000
0000
0000
,  // measure 4
0000
0000
0000
0000
,  // measure 5
1000
0000
1000
0000
,  // measure 6
0001
0000
0001
0000
,  // measure 7
1000
0000
0100
0000
,  // measure 8
0010
0001
1000
0000
,  // measure 9
0001
0000
0100
0000
,  // measure 10
0001
0000
0010
0000
,  // measure 11
0100
0000
1000
0000
,  // measure 12
0001
1000
0001
0000
,  // measure 13
1000
0100
1000
0000
,  // measure 14
0001
0010
0001
0000
,  // measure 15
1000
0100
1000
0100
,  // measure 16
0010
0001
0010
0000
,  // measure 17
0001
0000
0010
0000
,  // measure 18
0100
0000
1000
0000
,  // measure 19
0001
0010
0001
0000
,  // measure 20
1000
0100
1000
0100
,  // measure 21
0001
0000
0010
0000
,  // measure 22
0100
0000
1000
0000
,  // measure 23
0001
0010
0001
0000
,  // measure 24
1000
0100
1000
0100
,  // measure 25
0001
0000
0100
0000
,  // measure 26
0010
0000
1000
0000
,  // measure 27
0001
0100
0001
0000
,  // measure 28
1000
0010
1000
0010
,  // measure 29
1000
0000
1000
0000
,  // measure 30
0001
1000
0001
0000
,  // measure 31
1000
0000
0000
0001
0000
0000
1000
0000
,  // measure 32
0010
0100
0010
0000
,  // measure 33
1000
0100
0010
0000
,  // measure 34
0001
0000
1000
0000
,  // measure 35
0001
0100
0010
0000
,  // measure 36
1000
0000
0001
0000
,  // measure 37
1000
0100
0010
0000
,  // measure 38
0001
0000
0100
0000
,  // measure 39
0010
0000
1000
0000
,  // measure 40
0001
0100
1000
0000
,  // measure 41
0100
0000
0001
0000
,  // measure 42
1000
0100
0001
0000
,  // measure 43
0100
0000
1000
0000
,  // measure 44
0001
0100
0001
0000
,  // measure 45
1000
0100
1000
0000
,  // measure 46
0001
0100
0001
0000
,  // measure 47
1000
0010
1000
0000
,  // measure 48
0001
0010
0001
0000
,  // measure 49
1000
0100
1000
0000
,  // measure 50
0001
0010
0001
0000
,  // measure 51
1000
0010
1000
0000
,  // measure 52
0001
0010
0001
0000
,  // measure 53
1000
0100
0001
0000
,  // measure 54
0100
0000
1000
0000
,  // measure 55
0001
0100
1000
0000
,  // measure 56
0100
0000
0001
0000
,  // measure 57
1000
0100
1000
0000
,  // measure 58
0001
0010
0001
0000
,  // measure 59
1000
0100
0010
0001
,  // measure 60
1000
0100
1000
0000
,  // measure 61
0010
0001
0010
0000
,  // measure 62
0100
1000
0100
0000
,  // measure 63
0010
0001
1000
0100
,  // measure 64
0010
0001
0010
0000
,  // measure 65
0001
1000
0100
0000
,  // measure 66
1000
0001
0100
0000
,  // measure 67
0001
1000
0010
0100
,  // measure 68
0010
1000
0001
0000
,  // measure 69
1000
0001
0010
0000
,  // measure 70
0001
1000
0010
0000
,  // measure 71
1100
0000
0011
0000
,  // measure 72
0101
0000
2002
0000
,  // measure 73
0000
0000
0000
0000
0000
0000
0000
0000
0000
0000
0000
3003
0000
0000
0000
0000
0000
0000
0001
0000
0000
0000
0000
0000
,  // measure 74
0000
0001
0000
0000
,  // measure 75
1000
0001
0000
1000
,  // measure 76
0000
1000
0001
0000
,  // measure 77
0001
1000
0000
0001
,  // measure 78
0100
0010
1000
0000
,  // measure 79
0100
1000
0000
0001
,  // measure 80
0100
0010
1000
0000
,  // measure 81
0100
1000
0001
0010
,  // measure 82
0000
0010
0000
0000
,  // measure 83
0100
0010
0000
0100
,  // measure 84
0000
0100
0000
0000
,  // measure 85
0010
0100
0000
1000
,  // measure 86
1000
1000
1000
0000
,  // measure 87
0001
0001
0000
0010
,  // measure 88
0010
0010
0010
0000
,  // measure 89
0100
0100
0100
1000
,  // measure 90
0000
0001
0000
0000
1000
0000
1001
0000
,  // measure 91
0000
0000
0000
1000
,  // measure 92
0000
0100
0000
0000
1000
0000
1100
0000
,  // measure 93
0000
0000
0000
0001
,  // measure 94
0000
0100
0000
0000
0001
0000
0101
0000
,  // measure 95
0000
0000
0000
0010
,  // measure 96
0000
0100
0000
0000
0010
0000
0110
0000
,  // measure 97
0000
0000
0000
1000
,  // measure 98
0000
0100
0000
0000
0010
0000
0011
0000
,  // measure 99
0000
0000
0000
0001
,  // measure 100
0000
0100
0000
0000
0010
0000
1010
0000
,  // measure 101
0000
0000
0000
1000
,  // measure 102
0000
0001
0000
0000
0100
0000
0110
0000
,  // measure 103
0000
0000
0000
1001
,  // measure 104
0010
0000
0100
0000
,  // measure 105
0100
0000
0010
0000
,  // measure 106
1000
0001
1000
0001
,  // measure 107
0010
0000
1001
0000
,  // measure 108
0010
0000
1001
0000
,  // measure 109
0010
0000
1000
0001
,  // measure 110
2002
0000
0000
3003
,  // measure 111
0100
0000
1001
0000
,  // measure 112
0100
0000
1001
0000
,  // measure 113
0100
0000
0001
1000
,  // measure 114
2002
0000
0000
3003
,  // measure 115
0010
0000
0011
0000
,  // measure 116
0010
0000
0011
0000
,  // measure 117
0010
0000
0011
0000
,  // measure 118
0010
0001
0010
0001
,  // measure 119
0100
0000
1100
0000
,  // measure 120
0100
0000
1100
0000
,  // measure 121
0100
0000
1100
0000
,  // measure 122
0100
1000
0100
1000
,  // measure 123
0010
0000
0011
0000
,  // measure 124
0100
0000
1100
0000
,  // measure 125
0010
0000
1001
0000
,  // measure 126
0010
0100
0010
0100
,  // measure 127
0010
0000
1100
0000
,  // measure 128
0100
0000
0011
0000
,  // measure 129
0100
0000
0110
0000
,  // measure 130
0010
1000
0001
0100
,  // measure 131
2002
0000
0000
0000
,  // measure 132
0000
0000
0000
3000
,  // measure 133
0200
0000
0300
0020
,  // measure 134
0000
0030
2000
3003
,  // measure 135
2002
0000
0000
0000
,  // measure 136
0000
0000
0000
0003
,  // measure 137
0200
0000
0300
0020
,  // measure 138
0000
0030
0002
3003
,  // measure 139
2200
0000
0000
3300
,  // measure 140
2002
0000
0000
3003
,  // measure 141
0202
0000
0300
2000
,  // measure 142
0000
3000
0020
0033
,  // measure 143
0022
0000
0000
0033
,  // measure 144
2002
0000
0000
3003
,  // measure 145
2200
0000
0300
0002
,  // measure 146
0000
0003
0020
3030
,  // measure 147
0202
0300
0020
0030
,  // measure 148
0200
0300
0020
0033
,  // measure 149
2200
0300
0020
0030
,  // measure 150
0200
0300
0020
3030
,  // measure 151
0202
0300
0020
0030
,  // measure 152
0200
0300
0020
0033
,  // measure 153
2200
0300
0020
0030
,  // measure 154
0200
0300
0020
3030
,  // measure 155
1100
0000
0101
0000
,  // measure 156
1100
0000
0101
0000
,  // measure 157
0010
1000
1010
0000
,  // measure 158
0001
0100
0101
0000
,  // measure 159
2200
3300
0202
0303
,  // measure 160
0022
0033
2020
3030
,  // measure 161
2002
0000
0000
0000
0000
0000
0000
0000
0000
0000
0000
3003
0000
0000
0000
0000
0000
0000
0100
0000
0000
0000
0000
0000
,  // measure 162
0000
1001
0000
0010
,  // measure 163
0000
1001
0000
0100
,  // measure 164
0000
1001
0000
0010
,  // measure 165
0010
1001
0000
0100
,  // measure 166
0000
0100
0000
0010
,  // measure 167
0000
0010
0000
0100
,  // measure 168
0000
0100
0000
0001
,  // measure 169
0001
1000
1000
0110
,  // measure 170
0000
1001
0000
0110
,  // measure 171
0000
1001
0000
0110
,  // measure 172
0000
1001
0000
0110
,  // measure 173
0110
1001
0000
1100
,  // measure 174
0000
0101
0000
1100
,  // measure 175
0000
0101
0000
1100
,  // measure 176
0000
0101
0000
1100
,  // measure 177
1001
0101
1001
0010
,  // measure 178
0000
1100
0000
0000
0000
0000
1000
0000
,  // measure 179
0000
0101
0000
0000
0000
0000
0010
0000
,  // measure 180
0000
1100
0000
0000
0000
0000
2002
0000
,  // measure 181
0000
0000
3003
0010
,  // measure 182
0000
1100
0000
0000
0000
0000
1000
0000
,  // measure 183
0000
0101
0000
0000
0000
0000
0010
0000
,  // measure 184
0000
1100
0000
0000
0000
0000
0220
0000
,  // measure 185
0330
2002
3003
1100
,  // measure 186
0000
1100
0000
0000
0000
0000
0011
0000
,  // measure 187
0000
0011
0000
0000
0000
0000
1001
0000
,  // measure 188
0000
1001
0000
0000
1001
0000
0110
0000
,  // measure 189
2002
0000
3003
1010
,  // measure 190
0000
1010
0000
0000
0000
0000
0101
0000
,  // measure 191
0000
0101
0000
0000
0000
0000
0110
0000
,  // measure 192
0000
0110
0000
0000
0110
0000
1001
0000
,  // measure 193
0220
0000
0330
1100
,  // measure 194
0000
0000
1000
0000
,  // measure 195
0001
0000
1000
0000
,  // measure 196
0001
0000
0100
0000
,  // measure 197
0010
0000
0100
0000
,  // measure 198
0010
0000
1000
0000
,  // measure 199
0001
0000
0100
0000
,  // measure 200
0010
0000
1000
0000
,  // measure 201
0100
0000
0001
0000
,  // measure 202
0100
0000
1000
0000
,  // measure 203
0010
0000
0001
0000
,  // measure 204
0010
0000
0100
0000
,  // measure 205
0010
0000
0100
0000
,  // measure 206
2002
3003
0100
0000
,  // measure 207
0010
0000
0100
0000
,  // measure 208
0010
0110
1000
0100
,  // measure 209
1000
0000
0001
0000
,  // measure 210
0001
0000
0100
0000
,  // measure 211
0100
0000
0010
0000
0010
0000
0000
0010
,  // measure 212
0000
0100
0001
0100
,  // measure 213
0001
0000
1000
0000
,  // measure 214
1000
0000
0100
0000
,  // measure 215
0100
0000
0010
0000
0010
0000
0000
0010
,  // measure 216
0000
0100
0001
1000
,  // measure 217
0001
0000
0100
0000
,  // measure 218
0100
0000
0010
0000
,  // measure 219
0100
0000
0001
0000
0001
0000
0000
0001
,  // measure 220
0000
1000
1000
0001
,  // measure 221
1000
0000
0100
0000
,  // measure 222
0100
0000
0010
0000
,  // measure 223
0100
0000
1000
0000
1000
0000
0000
1000
,  // measure 224
0000
0001
0100
0000
,  // measure 225
0010
0000
0100
0000
,  // measure 226
1000
0000
0100
0000
,  // measure 227
0001
0000
0100
0000
0010
0000
0000
1001
,  // measure 228
0000
0100
0100
0000
,  // measure 229
0010
0000
0100
0000
,  // measure 230
0001
0000
0100
0000
,  // measure 231
1000
0100
0010
0000
,  // measure 232
1001
0000
0010
0000
,  // measure 233
0100
0000
0010
0000
,  // measure 234
1000
0000
0010
0000
,  // measure 235
0001
0000
0010
0000
,  // measure 236
1001
0000
0100
0000
,  // measure 237
1001
0000
0100
0000
,  // measure 238
1001
0000
0100
0000
,  // measure 239
0010
0000
0100
0000
,  // measure 240
1001
0000
1000
0100
,  // measure 241
1000
0000
0000
0001
,  // measure 242
0000
0001
0000
1000
,  // measure 243
0000
1000
0100
0000
,  // measure 244
1001
0000
0001
0100
,  // measure 245
0001
0000
0000
1000
,  // measure 246
0000
1000
0000
0001
,  // measure 247
0000
0001
0100
0000
,  // measure 248
1001
0000
0010
0100
,  // measure 249
0010
0000
0000
1000
,  // measure 250
0000
0100
0000
0001
,  // measure 251
0000
0100
0010
0000
,  // measure 252
1001
0000
0010
0100
,  // measure 253
0010
0000
0000
0001
,  // measure 254
0000
0100
0000
1000
,  // measure 255
0000
0100
0010
0000
,  // measure 256
1001
0000
1000
0010
,  // measure 257
1000
0000
0000
0001
,  // measure 258
0000
0001
0000
1000
,  // measure 259
0000
1000
0010
0000
,  // measure 260
1001
0000
0001
0010
,  // measure 261
0001
0000
0000
1000
,  // measure 262
0000
1000
0000
0001
,  // measure 263
0000
0001
0010
0000
,  // measure 264
1001
0000
0100
0010
,  // measure 265
0100
0000
0000
1000
,  // measure 266
0000
0010
0000
0001
,  // measure 267
0000
0010
0100
0000
,  // measure 268
1001
0000
0100
0010
,  // measure 269
0100
0000
1000
0001
,  // measure 270
1000
0000
0100
0010
,  // measure 271
0100
0010
0100
0000
,  // measure 272
0010
0000
2002
0000
,  // measure 273
0000
0000
0000
0000
,  // measure 274
0000
0000
0000
0000
,  // measure 275
0000
3003
0100
0000
0010
0000
1000
0000
,  // measure 276
0001
0010
0100
0001
,  // measure 277
1000
0100
0000
0010
,  // measure 278
0000
0100
0000
0010
,  // measure 279
0000
0100
0000
0001
,  // measure 280
0000
1000
0000
0010
,  // measure 281
0000
0100
0000
0010
,  // measure 282
0000
0100
0000
0010
,  // measure 283
0000
0100
0000
1000
,  // measure 284
0000
0001
0000
0010
,  // measure 285
0000
0100
1000
0100
,  // measure 286
0000
0010
0000
0001
,  // measure 287
0000
0010
0001
0010
,  // measure 288
0000
0100
0000
1000
,  // measure 289
0000
0001
0100
0001
,  // measure 290
0000
1000
0000
0010
,  // measure 291
0000
1000
0100
1000
,  // measure 292
0000
0001
0000
0010
,  // measure 293
0000
0010
1000
0010
,  // measure 294
0000
0100
0000
0001
,  // measure 295
0000
0100
0001
0100
,  // measure 296
0000
0010
0000
1000
,  // measure 297
0000
0001
0010
0001
,  // measure 298
0000
1000
0000
0100
,  // measure 299
0000
1000
0010
1000
,  // measure 300
0000
0001
0000
0100
,  // measure 301
0000
0000
1000
0000
0000
0001
0000
0000
,  // measure 302
1000
0100
0000
0100
,  // measure 303
0000
0000
0001
0000
0000
0001
0000
0000
,  // measure 304
0001
0000
1000
0000
0000
1000
0000
0000
,  // measure 305
1000
0000
0100
0000
0000
0100
0000
0000
,  // measure 306
0100
0000
0010
0000
0000
0010
0000
0000
,  // measure 307
0010
0000
0100
0000
0000
0010
0000
0000
,  // measure 308
1000
0000
0001
0000
0000
0100
0000
0000
,  // measure 309
0010
2002
0000
0000
,  // measure 310
0000
0000
0000
0000
,  // measure 311
0000
0000
0000
0000
,  // measure 312
0000
3003
0000
0000
0000
0000
0000
0000
;

//---------------dance-single - ----------------
#NOTES:
     dance-single:
     :
     Medium:
     13:
     0.642893,0.969554,0.559134,0.559134,0.034946,1159.000000,1015.000000,144.000000,144.000000,0.000000,0.000000,0.642893,0.969554,0.559134,0.559134,0.034946,1159.000000,1015.000000,144.000000,144.000000,0.000000,0.000000:
// measure 0
0000
0000
0000
0000
,  // measure 1
0000
0000
0000
0000
,  // measure 2
0000
0000
0000
0000
,  // measure 3
0000
0000
0000
0000
,  // measure 4
0000
0000
0000
0000
,  // measure 5
0001
0100
0020
0030
,  // measure 6
1000
0100
0020
0030
,  // measure 7
0001
1000
0001
1000
,  // measure 8
0001
1000
2000
3000
,  // measure 9
0001
0010
0200
0300
,  // measure 10
1000
0010
0200
0300
,  // measure 11
0001
1000
0001
1000
,  // measure 12
0001
1000
2000
3000
,  // measure 13
0010
1000
0001
0100
,  // measure 14
0010
1000
0001
0100
,  // measure 15
0001
0100
0010
1000
,  // measure 16
0001
0100
0010
1000
0001
0100
0010
1000
,  // measure 17
0010
1000
0010
1000
,  // measure 18
0001
0100
0001
0100
,  // measure 19
0010
1000
0100
0010
,  // measure 20
0001
1000
0100
0010
,  // measure 21
0001
1000
0002
0003
,  // measure 22
1000
0001
2000
3000
,  // measure 23
0001
1000
0001
1000
,  // measure 24
0110
0000
1001
0000
,  // measure 25
0010
0100
0020
0030
,  // measure 26
0100
0010
0200
0300
,  // measure 27
0010
0100
0020
0030
,  // measure 28
1001
0000
0110
0000
,  // measure 29
0001
1000
0002
0003
,  // measure 30
0010
0100
0020
0030
,  // measure 31
1000
0000
0000
0101
0000
0000
1100
0000
,  // measure 32
0010
0001
1000
0100
0010
0001
1000
0100
,  // measure 33
0010
0100
1000
0001
,  // measure 34
0100
0010
0100
0001
,  // measure 35
1000
0100
1000
0010
,  // measure 36
0100
0001
0100
0010
,  // measure 37
0100
0100
0010
0010
,  // measure 38
1000
1000
0001
0001
,  // measure 39
2000
3000
0100
0010
,  // measure 40
0001
0010
0200
0300
,  // measure 41
2000
3000
0100
0010
,  // measure 42
0001
1000
0200
0300
,  // measure 43
1000
0010
0100
0020
,  // measure 44
0000
0030
1000
0001
,  // measure 45
1000
0010
1000
0010
,  // measure 46
1000
0010
1000
0010
,  // measure 47
0100
0001
0100
0001
,  // measure 48
0100
0001
0100
0001
,  // measure 49
1000
0010
0100
0001
,  // measure 50
1000
0100
0010
0001
,  // measure 51
1000
0100
0001
0010
,  // measure 52
1000
0100
0001
0010
,  // measure 53
1000
0100
0010
0001
,  // measure 54
1000
0100
0010
0001
,  // measure 55
1000
0010
0200
0300
,  // measure 56
1010
0000
0101
0000
,  // measure 57
1000
0000
0010
0000
1000
0010
0000
0000
,  // measure 58
1000
0000
0100
0000
1000
0100
0000
0000
,  // measure 59
1000
0100
0010
0001
,  // measure 60
1000
0001
2000
3000
,  // measure 61
0001
0000
0010
0000
0001
0010
0000
0000
,  // measure 62
0001
0000
0100
0000
0001
0100
0000
0000
,  // measure 63
0001
0100
0010
1000
,  // measure 64
0001
1000
0002
0003
,  // measure 65
0010
0000
0100
0000
0010
0100
0000
0000
,  // measure 66
0001
0000
1000
0000
0001
1000
0000
0000
,  // measure 67
1000
0100
0010
0100
,  // measure 68
1000
0010
0200
0300
,  // measure 69
0001
1000
0200
0300
,  // measure 70
1000
0001
0200
0300
,  // measure 71
1000
0000
0000
0000
0000
0100
0000
0000
0000
0000
1000
0000
0000
0000
0000
0000
0001
0000
0000
0000
0000
0100
0000
0000
0000
0000
0001
0000
0000
0000
0000
0000
,  // measure 72
0100
0000
2002
0000
,  // measure 73
0000
0000
0000
0000
0000
0000
0000
0000
0000
0000
0000
3003
0000
0000
0000
0000
0000
0000
0001
0000
0000
0000
0000
0000
,  // measure 74
0010
0100
1000
0001
,  // measure 75
0100
0020
0030
1000
,  // measure 76
0100
0010
0001
1000
,  // measure 77
0100
0020
0030
0001
,  // measure 78
0100
0001
0100
0010
,  // measure 79
1000
0010
0000
1000
,  // measure 80
0100
1000
0100
0010
,  // measure 81
0001
0010
0001
1000
,  // measure 82
0001
1000
0001
1000
,  // measure 83
0001
0100
0010
0100
,  // measure 84
0010
0100
0000
0001
,  // measure 85
0001
0002
1003
1000
,  // measure 86
2000
3100
0100
0200
,  // measure 87
0310
0010
0020
0031
,  // measure 88
0100
0001
1000
0100
,  // measure 89
1000
0001
1000
0001
,  // measure 90
0000
0010
0000
0000
0010
0000
0001
0000
,  // measure 91
0000
1000
0000
0000
1000
0000
0001
0000
,  // measure 92
0000
0100
0000
0000
0100
0000
0001
0000
,  // measure 93
0000
0101
0000
0001
,  // measure 94
0000
0100
0000
0001
0100
0000
0001
0000
,  // measure 95
0000
1000
0000
0001
1000
0000
0001
0000
,  // measure 96
0000
0010
0000
0100
0010
0000
0002
0000
,  // measure 97
0000
0000
0003
1000
,  // measure 98
0000
0001
0000
0100
0010
0000
1000
0000
,  // measure 99
0010
0000
0000
0202
0000
0000
0303
0000
,  // measure 100
0010
0000
0000
2200
0000
0000
3300
0000
,  // measure 101
0100
0000
0000
0022
0000
0000
0033
0000
,  // measure 102
0100
0000
0000
2200
0000
0000
3300
0000
,  // measure 103
0010
0000
0000
2002
0000
0000
3003
0000
,  // measure 104
0100
0000
0000
1001
0000
0000
0100
0000
,  // measure 105
0110
0000
0000
2002
0000
0000
3003
0000
,  // measure 106
0110
0000
0000
1001
0000
0000
0110
0000
,  // measure 107
0010
1000
0010
0001
,  // measure 108
0010
1000
0010
0001
,  // measure 109
0010
1000
0100
0010
,  // measure 110
2002
0000
0000
3003
,  // measure 111
0100
0001
0000
1000
,  // measure 112
0100
0001
0100
1000
,  // measure 113
0100
0010
1000
0001
,  // measure 114
2002
0000
0000
3003
,  // measure 115
0010
1000
0200
0000
,  // measure 116
0310
0001
0200
0000
,  // measure 117
0310
1000
0200
0300
,  // measure 118
2100
3100
0102
0103
,  // measure 119
0010
1000
0010
0000
,  // measure 120
0100
0001
0100
0000
,  // measure 121
0010
1000
0010
0000
,  // measure 122
0120
0130
2001
3001
,  // measure 123
0010
0001
1000
0000
,  // measure 124
0010
1000
0001
0000
,  // measure 125
0100
0001
1000
0000
,  // measure 126
1200
1300
0021
0031
,  // measure 127
0011
2100
0200
3300
,  // measure 128
1100
0012
0020
0033
,  // measure 129
1001
0120
0200
0330
,  // measure 130
1001
1100
1001
0101
,  // measure 131
0020
0000
0000
0000
0000
2000
0000
0000
,  // measure 132
0000
0000
0000
3000
0200
0000
0330
0000
,  // measure 133
0200
0000
0000
0000
0000
0002
0000
0000
,  // measure 134
0000
0000
0000
0003
0020
0000
0330
0000
,  // measure 135
2000
0000
0000
3200
,  // measure 136
0000
0000
0302
0000
,  // measure 137
0023
0000
0000
2030
,  // measure 138
0000
0000
0002
3003
,  // measure 139
0010
0001
0010
0001
,  // measure 140
1000
0100
1000
0100
,  // measure 141
0010
0001
1000
0100
,  // measure 142
0010
0002
2000
3003
,  // measure 143
0010
1000
0010
1000
,  // measure 144
0001
0100
0001
0100
,  // measure 145
0010
1000
0001
0100
,  // measure 146
0010
2000
0002
3003
,  // measure 147
0000
0000
0210
0000
0000
0010
0000
0000
0010
0000
0000
0010
0000
0000
0302
0000
,  // measure 148
0000
0000
0100
0000
0000
0100
0000
0000
0100
0000
0003
0100
0000
0000
2000
0000
,  // measure 149
0000
0000
0001
0000
0000
0001
0000
0000
0001
0000
3000
0001
0000
0000
0020
0000
,  // measure 150
0000
0000
1000
0000
0000
1000
0000
0000
1000
0000
0030
1000
0000
0000
1000
0000
,  // measure 151
1000
0010
1010
0000
,  // measure 152
0001
0010
0011
0000
,  // measure 153
1000
0010
0101
0000
,  // measure 154
0001
0010
1100
0000
,  // measure 155
0100
1000
0011
0000
,  // measure 156
0100
0001
1010
0000
,  // measure 157
0100
0010
1001
0000
,  // measure 158
1100
1001
0101
1001
,  // measure 159
0000
0000
2010
0000
0000
0100
0000
0000
0010
0000
0000
0001
0000
0000
3100
0000
,  // measure 160
0000
0000
0012
0000
0000
0100
0000
0000
0010
0000
0000
1000
0000
0000
0103
0000
,  // measure 161
2002
0000
0000
0000
0000
0000
0000
0000
0000
0000
0000
3003
0000
0000
0000
0000
0000
0000
0010
0000
0000
0000
0000
0000
,  // measure 162
1000
0020
0000
0130
,  // measure 163
0001
0200
0000
0310
,  // measure 164
1000
0200
0000
0310
,  // measure 165
0001
1000
0100
0010
,  // measure 166
0001
0020
0000
0130
,  // measure 167
1000
0200
0000
0310
,  // measure 168
0001
0200
0000
0310
,  // measure 169
1000
0001
0100
0010
,  // measure 170
1000
0200
0000
0310
,  // measure 171
0001
0200
0000
0310
,  // measure 172
1000
0100
1000
0010
,  // measure 173
1000
0100
0010
0001
,  // measure 174
0100
0020
0000
1030
,  // measure 175
0100
0020
0000
0031
,  // measure 176
0100
0010
1000
0100
,  // measure 177
0010
0001
0100
1010
,  // measure 178
0000
0101
0000
0000
1001
0000
0011
0000
,  // measure 179
0000
1100
0000
0000
1001
0000
0110
0000
,  // measure 180
0000
1001
0000
0000
0110
0000
1100
0000
,  // measure 181
0202
0000
0303
1010
,  // measure 182
0000
1100
0000
0000
1001
0000
0011
0000
,  // measure 183
0000
0101
0000
0000
1001
0000
0110
0000
,  // measure 184
0000
1001
0000
0000
0110
0000
1100
0000
,  // measure 185
1001
0101
1001
1010
,  // measure 186
0000
0011
0000
0000
1001
0000
0101
0000
,  // measure 187
0000
1100
0000
0000
1001
0000
0011
0000
,  // measure 188
0000
1010
0000
0000
1001
0000
0110
0000
,  // measure 189
2002
0000
3003
0011
,  // measure 190
0000
0110
0000
0000
1100
0000
1010
0000
,  // measure 191
0000
0110
0000
0000
0101
0000
1010
0000
,  // measure 192
0000
0011
0000
0000
0110
0000
1100
0000
,  // measure 193
0202
0000
0303
0010
,  // measure 194
0001
0200
0000
0310
,  // measure 195
1000
0000
0100
0010
0001
0000
0100
0000
,  // measure 196
0010
2000
0000
3100
,  // measure 197
0010
0000
0001
0100
0001
0000
1000
0000
,  // measure 198
1000
0001
0001
0110
,  // measure 199
0110
0000
1000
0001
1000
0000
1100
0000
,  // measure 200
0000
0011
0000
0000
1001
0000
0101
0000
,  // measure 201
0000
1010
0000
0000
1001
0000
0110
0000
,  // measure 202
0000
0001
1000
0000
0000
1000
0001
0000
,  // measure 203
0000
0001
1000
0000
0000
0000
1001
0000
,  // measure 204
0001
0100
0001
0000
,  // measure 205
0001
1000
0010
0100
,  // measure 206
0010
0100
0010
0000
,  // measure 207
0220
0330
0010
0001
,  // measure 208
1000
0001
0100
0010
,  // measure 209
1000
0100
0100
0010
,  // measure 210
0001
0000
0100
0010
,  // measure 211
1000
0000
0001
0000
0010
0000
0000
0010
,  // measure 212
0000
0100
0100
0010
,  // measure 213
0001
0000
0100
0010
,  // measure 214
1000
0000
0100
0010
,  // measure 215
0001
0000
1000
0000
0010
0000
0000
0010
,  // measure 216
0000
0100
0001
0100
,  // measure 217
0001
1000
0010
0100
,  // measure 218
0001
0000
1000
0100
,  // measure 219
0010
0000
0001
0000
1000
0000
0000
1000
,  // measure 220
0000
0100
1000
0100
,  // measure 221
1000
0001
0010
0100
,  // measure 222
1000
0000
0001
0100
,  // measure 223
0010
0000
1000
0000
0001
0000
0000
0001
,  // measure 224
0000
0100
0010
1000
,  // measure 225
0010
0001
0010
1000
,  // measure 226
0001
0000
0100
1000
,  // measure 227
0100
0000
0001
0000
1000
0000
0000
0001
,  // measure 228
0000
0100
0010
0001
,  // measure 229
0010
1000
0010
0001
,  // measure 230
1000
0000
0100
0001
,  // measure 231
0100
0000
1000
0000
0001
0000
0000
1000
,  // measure 232
0000
0100
0001
0100
,  // measure 233
0001
0010
1000
0010
,  // measure 234
0001
0000
1000
0001
,  // measure 235
0100
0000
0001
0000
0010
0000
0000
0100
,  // measure 236
0000
0100
0010
0001
,  // measure 237
1001
0000
0010
1000
,  // measure 238
1001
0000
0100
0010
,  // measure 239
0100
0010
0220
0330
,  // measure 240
2002
3003
1000
0100
,  // measure 241
2000
0000
0000
3000
0000
0000
0100
0000
,  // measure 242
0000
1000
0000
1000
,  // measure 243
0100
1000
0020
0030
,  // measure 244
2002
3003
0001
0100
,  // measure 245
0002
0000
0000
0003
0000
0000
0100
0000
,  // measure 246
0000
0001
0000
0001
,  // measure 247
0100
0001
0020
0030
,  // measure 248
2002
3003
1000
0010
,  // measure 249
2000
0000
0000
3000
0000
0000
0010
0000
,  // measure 250
0000
1000
0000
1000
,  // measure 251
0010
1000
0200
0300
,  // measure 252
2002
3003
0001
0010
,  // measure 253
0002
0000
0000
0003
0000
0000
0010
0000
,  // measure 254
0000
0001
0000
0001
,  // measure 255
0010
0001
0200
0300
,  // measure 256
1001
0000
1000
0001
,  // measure 257
2000
0000
0000
3000
0000
0000
0100
0000
,  // measure 258
0000
1000
0000
1000
,  // measure 259
0001
1000
0020
0000
,  // measure 260
0200
0330
0001
1000
,  // measure 261
0002
0000
0000
0003
0000
0000
0100
0000
,  // measure 262
0000
0001
0000
0001
,  // measure 263
1000
0001
0020
0000
,  // measure 264
0200
0330
1000
0001
,  // measure 265
0200
0000
0000
0300
0000
0000
0100
0000
,  // measure 266
0000
0010
0000
0001
,  // measure 267
1000
0001
0200
0300
,  // measure 268
2002
3003
0001
1000
,  // measure 269
0002
0003
1000
0001
,  // measure 270
2000
3000
0010
0100
,  // measure 271
0010
0100
0020
0000
,  // measure 272
0200
0330
2002
0000
,  // measure 273
0000
0000
0000
0000
,  // measure 274
0000
0000
0000
0000
,  // measure 275
0000
0000
3003
0000
0100
0000
0000
0000
0010
0000
0000
1000
1000
0000
0000
0000
,  // measure 276
0001
0000
0000
0000
0100
0000
0000
0000
0010
0000
0000
0001
0001
0000
1000
0000
,  // measure 277
1000
0100
0010
0000
0001
0000
0010
0000
,  // measure 278
0001
0010
0001
1000
,  // measure 279
0001
1000
0100
1000
,  // measure 280
0100
1000
0100
1000
,  // measure 281
0001
0010
0100
0010
,  // measure 282
0100
0010
0100
1000
,  // measure 283
0100
0010
0100
0010
,  // measure 284
0100
0010
0100
0001
,  // measure 285
0100
1000
0100
0010
,  // measure 286
0001
0000
0010
0000
0100
0000
1000
0001
,  // measure 287
1000
0001
0010
0100
,  // measure 288
1000
0000
0100
0000
0010
0000
0001
1000
,  // measure 289
0001
1000
0010
0100
,  // measure 290
0001
0000
0100
0000
0010
0000
1000
0001
,  // measure 291
1000
0001
0100
0010
,  // measure 292
1000
0000
0010
0000
0100
0000
0001
1000
,  // measure 293
0001
1000
0100
1000
,  // measure 294
0001
0000
0100
0000
0010
0000
1000
0001
,  // measure 295
1000
0001
0100
0001
,  // measure 296
1000
0000
0100
0000
0010
0000
0001
1000
,  // measure 297
0001
1000
1000
0100
,  // measure 298
0100
0010
0010
0001
,  // measure 299
0001
1000
0100
0010
,  // measure 300
0001
1000
0100
0010
,  // measure 301
0001
0000
0011
0000
0000
1001
0000
0000
,  // measure 302
1100
0000
0100
0000
0000
1001
0000
0000
,  // measure 303
0010
0000
1010
0000
0000
1001
0000
0000
,  // measure 304
0101
0000
0110
0000
0000
1010
0000
0000
,  // measure 305
1001
0000
1100
0000
0000
0110
0000
0000
,  // measure 306
0011
0000
1001
0000
0000
1010
0000
0000
,  // measure 307
0110
0000
0011
0000
0000
1001
0000
0000
,  // measure 308
0101
0000
1010
0000
0000
1001
0000
0000
,  // measure 309
1100
0220
0000
0000
,  // measure 310
0000
0000
0000
0000
,  // measure 311
0000
0000
0000
0000
,  // measure 312
0000
0330
0000
0000
0000
0000
0000
0000
;

//---------------dance-single - ----------------
#NOTES:
     dance-single:
     :
     Hard:
     15:
     0.939656,1.272540,0.520306,0.252387,0.066009,1694.000000,1560.000000,134.000000,65.000000,0.000000,0.000000,0.939656,1.272540,0.520306,0.252387,0.066009,1694.000000,1560.000000,134.000000,65.000000,0.000000,0.000000:
// measure 0
0000
0000
0000
0000
,  // measure 1
0000
0000
0000
0000
,  // measure 2
0000
0000
0000
0000
,  // measure 3
0000
0000
0000
0000
,  // measure 4
0000
0000
0000
0000
,  // measure 5
0001
0000
0100
0000
0010
1000
0000
0010
,  // measure 6
1000
0000
0100
0000
0010
0001
0000
0010
,  // measure 7
0001
0000
1000
0000
0001
0100
0000
0010
,  // measure 8
1000
0001
0001
0000
,  // measure 9
1000
0000
0100
0000
0010
0001
0000
0010
,  // measure 10
0001
0000
0100
0000
0010
1000
0000
0010
,  // measure 11
1000
0000
0001
0000
1000
0100
0000
0010
,  // measure 12
0001
1000
1000
0000
,  // measure 13
0001
0000
1000
0100
1000
0100
1000
0100
,  // measure 14
1000
0000
0001
0100
0001
0100
0001
0100
,  // measure 15
0010
1000
0010
0000
0100
0001
0100
0000
,  // measure 16
0001
0010
0100
1000
0010
0100
0001
1000
,  // measure 17
0010
1000
0010
1000
,  // measure 18
0001
0100
0001
0100
,  // measure 19
0010
1000
0100
0010
,  // measure 20
0001
1000
0100
0010
,  // measure 21
0001
0010
0001
0010
0001
0010
0001
0010
,  // measure 22
0100
1000
0100
1000
0100
1000
0100
1000
,  // measure 23
0001
0010
0100
1000
0010
0100
0001
1000
,  // measure 24
0100
0010
0001
0100
0010
1000
0001
0100
,  // measure 25
0010
0100
0010
1000
,  // measure 26
0100
0010
0001
0100
,  // measure 27
0001
1000
0010
0100
,  // measure 28
0010
1000
0100
0010
,  // measure 29
0001
0100
0001
0100
0001
1000
0001
1000
,  // measure 30
0001
0010
0001
0010
0001
1000
0001
1000
,  // measure 31
0001
0000
0000
0000
0000
0000
0000
0000
0000
0101
0000
0000
0000
0000
0000
0000
0000
0000
0000
0000
0000
0000
1100
0000
0000
0000
0000
0000
0000
0000
0000
0000
,  // measure 32
0010
0001
1000
0100
,  // measure 33
0010
0001
0010
0000
0001
0100
0001
0000
,  // measure 34
0100
0010
1000
0001
,  // measure 35
1000
0010
1000
0000
0010
0100
0010
0000
,  // measure 36
0100
0001
1000
0010
,  // measure 37
1000
0001
1000
0000
0001
1000
0001
0000
,  // measure 38
1000
1000
0001
0001
,  // measure 39
0010
0000
0001
0100
0001
0000
0100
0010
,  // measure 40
0100
0001
1000
0010
,  // measure 41
1000
0000
0100
0010
0100
0000
0010
0001
,  // measure 42
0010
0100
1000
0001
,  // measure 43
1000
0000
0001
0100
0010
1000
0001
0100
,  // measure 44
0010
0010
0100
0100
,  // measure 45
0001
1000
0001
0000
1000
0001
1000
0000
,  // measure 46
0001
0100
0001
0000
0100
0010
0100
0000
,  // measure 47
0010
1000
0010
0000
1000
0100
1000
0000
,  // measure 48
0100
0010
0100
0000
0010
0001
0010
0000
,  // measure 49
0001
0100
0001
0000
1000
0100
1000
0000
,  // measure 50
0001
0010
0001
0000
1000
0100
1000
0000
,  // measure 51
0001
1000
0100
0000
0010
0001
0100
0000
,  // measure 52
0001
1000
0010
0000
0100
0001
1000
0000
,  // measure 53
0100
1000
0001
0000
0010
0001
1000
0000
,  // measure 54
0010
0100
0001
0000
1000
0100
0010
0000
,  // measure 55
0001
1000
0001
0000
1000
0000
0000
0000
,  // measure 56
1100
0000
0101
0000
,  // measure 57
1000
0000
0100
1000
0000
0001
0100
0001
,  // measure 58
1000
0000
0010
1000
0000
0001
0010
0001
,  // measure 59
0010
0000
0100
0000
1000
0001
1000
0001
,  // measure 60
1000
1100
0011
0000
,  // measure 61
0001
0000
0100
0001
0000
1000
0100
1000
,  // measure 62
0001
0000
0010
0001
0000
1000
0010
1000
,  // measure 63
0010
0000
0100
0000
0001
1000
0001
1000
,  // measure 64
0001
0101
1010
0000
,  // measure 65
0010
0000
1000
0001
1000
0100
1000
0001
,  // measure 66
0010
0000
0001
1000
0001
0100
0001
1000
,  // measure 67
0010
0000
1000
0100
0010
0001
0100
0010
,  // measure 68
1000
1100
0101
0000
,  // measure 69
1000
0000
0001
0100
0001
0100
0001
0100
,  // measure 70
0001
0000
1000
0100
1000
0100
1000
0100
,  // measure 71
1000
0000
0000
0000
0000
0001
0000
0000
0000
0000
1000
0000
0000
0000
0000
0000
0001
0000
0000
0000
0000
1000
0000
0000
0000
0000
0001
0000
0000
0000
0000
0000
,  // measure 72
0100
0000
2002
0000
,  // measure 73
0000
0000
0000
0000
0000
0000
0000
0000
0000
0000
0000
3003
0000
0000
0000
0000
0000
0000
1000
0000
0000
0000
0000
0000
,  // measure 74
0001
0000
0010
0100
1000
0001
1000
0100
,  // measure 75
0010
0001
1000
0001
0100
0000
0010
0000
,  // measure 76
1000
0100
1000
0001
1000
0000
0010
1000
,  // measure 77
0001
0100
0001
0000
0010
0100
1000
0100
,  // measure 78
1000
0001
1000
0010
1000
0001
0100
0000
,  // measure 79
0010
1000
0100
0010
0001
0000
0100
0001
,  // measure 80
0000
0000
1000
0000
0001
0100
0010
1000
,  // measure 81
0010
1000
0001
0000
1000
0000
0001
0100
,  // measure 82
0001
0100
0001
0000
1000
0100
1000
0100
,  // measure 83
1000
0000
0010
0100
0010
0100
0010
0000
,  // measure 84
1000
0001
1000
0001
1000
0000
0001
0100
,  // measure 85
0001
0010
0001
0000
1000
0100
1000
0010
,  // measure 86
1000
0000
0010
0100
0010
1000
0001
0000
,  // measure 87
1000
0001
1000
0010
0100
0000
0001
0010
,  // measure 88
0100
1000
0001
0000
1000
0100
1000
0010
,  // measure 89
1000
0001
1000
0010
1000
0100
0010
0000
,  // measure 90
0001
1000
0000
1000
0001
0000
0010
0000
,  // measure 91
0011
0000
0000
1100
0000
0000
0100
0000
,  // measure 92
1000
0001
0000
0001
1000
0000
0100
0000
,  // measure 93
1100
0000
0000
0011
0000
0000
0001
0000
,  // measure 94
0010
0100
0000
0100
0010
0000
0001
0000
,  // measure 95
0100
0010
0000
0010
0100
0000
0010
0000
,  // measure 96
1000
0001
0000
0001
1000
0000
0001
0000
,  // measure 97
1001
0000
0000
1001
0000
0000
0010
0000
,  // measure 98
0001
1000
0001
0000
0100
0000
0001
0000
,  // measure 99
0010
0100
0010
0000
0001
0000
0100
0000
,  // measure 100
0001
1000
0001
0000
0010
0000
1000
0000
,  // measure 101
0100
0010
0100
0000
1000
0000
0010
0100
,  // measure 102
0010
1000
0001
0100
0010
1000
0001
0010
,  // measure 103
0100
1000
0010
0100
0001
1000
0000
0000
,  // measure 104
1000
0001
0100
1000
,  // measure 105
0010
0001
1000
0100
,  // measure 106
0010
0001
0010
0001
1000
0100
1000
0100
,  // measure 107
0010
0000
0010
0002
0000
1003
0000
1000
,  // measure 108
0010
0000
0010
2000
0000
3001
0000
0001
,  // measure 109
0010
0000
0001
2000
0000
3100
0000
0100
,  // measure 110
0010
0001
0000
0100
0000
0010
0000
1000
,  // measure 111
0010
0000
0010
2000
0000
3001
0000
0001
,  // measure 112
0010
0000
0010
0002
0000
1003
0000
1000
,  // measure 113
0010
0000
1000
0002
0000
0103
0000
0100
,  // measure 114
0010
1000
0000
0100
0000
0010
0000
0001
,  // measure 115
0100
0000
0100
0002
0000
1003
0000
1000
,  // measure 116
0100
0000
0100
2000
0000
3001
0000
0001
,  // measure 117
1000
0000
1000
0002
0000
0103
0000
0100
,  // measure 118
0101
1001
1100
1001
,  // measure 119
0010
0000
0100
2000
0000
3001
0000
0001
,  // measure 120
0100
0000
0010
2000
0000
3001
0000
0001
,  // measure 121
0010
0000
0001
2000
0000
3100
0000
0100
,  // measure 122
1100
1001
0101
1001
,  // measure 123
1000
0010
1000
0020
0000
1030
0000
1000
,  // measure 124
0001
0010
0001
0020
0000
0031
0000
0001
,  // measure 125
1000
0001
1000
0002
0000
0103
0000
0100
,  // measure 126
0110
1100
0110
0101
,  // measure 127
0001
0100
0001
2000
0000
3001
0000
0001
,  // measure 128
1000
0100
1000
0002
0000
1003
0000
1000
,  // measure 129
0010
0100
0010
0200
0000
0301
0000
0001
,  // measure 130
1000
0010
0100
0001
1000
0010
0100
0001
,  // measure 131
2000
0001
3000
0002
0100
0003
0200
0010
,  // measure 132
0300
0020
1000
0000
1000
0000
1030
0000
,  // measure 133
0002
1000
0003
2000
0010
3000
0020
0100
,  // measure 134
0030
0200
0001
0000
0001
0000
0301
0000
,  // measure 135
0020
0001
0030
0002
0100
0003
0200
0010
,  // measure 136
0300
0020
2000
0030
0001
0000
3001
0000
,  // measure 137
2000
0010
3000
0020
0100
0030
0200
0001
,  // measure 138
0300
0001
1000
0000
0010
1000
0001
0100
,  // measure 139
0010
1000
0010
0000
0100
0001
0100
0000
,  // measure 140
0010
1000
0010
0000
0100
0001
0100
0000
,  // measure 141
0010
1000
0010
0000
0100
0001
0100
0000
,  // measure 142
0010
1000
0010
0000
0100
0001
0100
0000
,  // measure 143
0010
1000
0100
0000
0010
0001
0100
0000
,  // measure 144
0010
1000
0100
0000
0010
0001
0100
0000
,  // measure 145
0010
1000
0100
0000
0010
0001
0100
0010
,  // measure 146
1000
0100
0010
0001
1000
0010
0100
0001
,  // measure 147
0000
0000
0200
0000
0000
0002
0300
0000
0020
0003
0000
0200
0030
0000
2000
0300
,  // measure 148
0000
0000
3020
0000
0000
2000
0030
0000
0002
3000
0000
0200
0003
0000
0010
0300
,  // measure 149
0010
0000
2000
0000
0000
0200
3000
0000
0020
0300
0000
0002
0030
0000
0200
0003
,  // measure 150
0000
0000
0320
0000
0000
2000
0030
0000
0200
3000
0000
0010
0300
0000
0001
0000
,  // measure 151
0100
0000
0010
1000
0000
0010
0100
0000
,  // measure 152
0001
0100
0000
0001
0010
0000
0011
0000
,  // measure 153
0100
0000
0010
0001
0000
0010
0100
0000
,  // measure 154
1000
0100
0000
1000
0010
0000
1010
0000
,  // measure 155
0100
0000
0001
0100
0000
0010
1000
0000
,  // measure 156
0001
0100
0000
0010
1000
0000
1010
0000
,  // measure 157
0010
1000
0010
0000
0100
0001
0100
0000
,  // measure 158
0010
1000
0100
0010
0001
0100
0010
1000
,  // measure 159
0000
0000
0001
1000
0000
1000
0100
0000
0100
0010
0000
0010
0001
0000
1000
0000
,  // measure 160
0001
0000
0010
0001
0000
0001
0100
0000
0100
0010
0000
0010
1000
0000
0001
0000
,  // measure 161
2002
0000
3003
1000
,  // measure 162
0010
0100
0001
1000
,  // measure 163
0100
0010
0001
1000
,  // measure 164
0010
0100
0001
0010
,  // measure 165
0001
0000
0000
1000
0000
1000
0010
0000
,  // measure 166
0100
0000
0001
0100
0001
0000
0010
0000
,  // measure 167
0100
0000
1000
0100
1000
0000
0001
0000
,  // measure 168
1000
0000
0010
0100
0010
0000
0100
0000
,  // measure 169
0001
1000
0000
1000
0001
0000
0100
0000
,  // measure 170
0001
0000
1000
0100
1000
0000
0100
0000
,  // measure 171
1000
0000
0001
0100
0001
0000
0100
0000
,  // measure 172
0010
0000
1000
0001
1000
0000
0100
0000
,  // measure 173
0010
0000
0100
0000
0001
1000
0100
0000
,  // measure 174
0010
0000
0100
0000
1000
0001
0010
0000
,  // measure 175
1001
0000
0100
0000
1001
0000
0010
0001
,  // measure 176
0010
0000
0100
1000
0100
0000
0010
0001
,  // measure 177
0100
0010
1000
0100
0010
0001
0011
0000
,  // measure 178
0000
0101
0000
0000
1001
0000
1010
0000
,  // measure 179
0000
1100
0000
0000
1001
0000
0011
0000
,  // measure 180
0001
0100
0000
0000
0001
0100
0010
1000
,  // measure 181
2002
0000
3003
1010
,  // measure 182
1000
0100
0000
0000
1001
0000
0011
0000
,  // measure 183
0001
0100
0000
0000
1001
0000
0101
0000
,  // measure 184
0010
1000
0000
0000
1001
0000
1100
0000
,  // measure 185
1001
0000
0101
0000
1001
0000
0010
0001
,  // measure 186
0010
0001
0000
0000
1000
0000
0010
1000
,  // measure 187
0010
1000
0000
0000
0001
0000
0010
0001
,  // measure 188
0000
1000
0100
0000
1001
0000
0010
1000
,  // measure 189
0001
0000
0110
0000
0110
0000
0010
0001
,  // measure 190
1000
0100
0000
0000
1000
0000
0010
1000
,  // measure 191
0001
0100
0000
0000
0001
0000
1000
0100
,  // measure 192
0000
0010
0001
0000
1001
0000
0010
0001
,  // measure 193
1000
0000
0110
0000
0110
0000
0010
1000
,  // measure 194
0100
0000
0010
0001
0100
0000
0010
1000
,  // measure 195
0100
0010
0001
0100
0010
0000
0100
0001
,  // measure 196
0010
0000
0100
1000
0010
0000
0100
0001
,  // measure 197
1000
0000
1000
0100
0010
0001
0100
0010
,  // measure 198
1000
0000
0100
0010
0001
0000
0100
0010
,  // measure 199
1000
0100
0010
0001
0100
0000
0100
0000
,  // measure 200
0010
0100
0000
0000
1001
0000
0100
0000
,  // measure 201
0010
0100
0000
0000
1000
0001
0210
0000
,  // measure 202
0300
0002
1000
0003
0001
1000
0010
0100
,  // measure 203
0001
0010
0100
1000
0001
0100
0001
0000
,  // measure 204
0010
0001
0000
0000
0100
0000
0010
0000
,  // measure 205
1000
0001
0100
0010
,  // measure 206
2002
3003
0010
1000
,  // measure 207
0010
1000
0001
0100
,  // measure 208
0001
0100
0001
0100
0010
0000
0100
0000
,  // measure 209
0001
0100
0010
0100
,  // measure 210
0001
0100
0001
0000
1000
0000
0100
0000
,  // measure 211
1000
0000
0100
0000
1001
0000
0000
1100
,  // measure 212
0000
0110
0010
0100
,  // measure 213
1000
0100
0010
0100
,  // measure 214
1000
0100
1000
0000
0001
0000
0100
0000
,  // measure 215
0001
0000
0100
0000
1001
0000
0000
1010
,  // measure 216
0000
0110
0010
0100
,  // measure 217
0001
0100
0010
0100
,  // measure 218
0001
0100
0001
0000
1000
0000
0100
0000
,  // measure 219
1000
0000
0100
0000
1100
0000
0000
0011
,  // measure 220
0000
0110
0010
0100
,  // measure 221
1000
0100
0010
0100
,  // measure 222
1000
0100
1000
0000
0001
0010
0001
0000
,  // measure 223
1000
0000
0001
1000
0010
0000
0100
0000
,  // measure 224
1001
0000
0010
0001
,  // measure 225
1000
0100
1000
0000
0001
0000
0010
0000
,  // measure 226
0100
1000
0100
0000
0010
0000
0001
0000
,  // measure 227
1000
0001
1000
0000
0010
1000
0000
1000
,  // measure 228
0010
1010
0010
1000
,  // measure 229
0001
0100
0001
0000
1000
0000
0010
0000
,  // measure 230
0100
0001
0100
0000
0010
0000
1000
0000
,  // measure 231
0001
1000
0001
0000
0010
0001
0000
0001
,  // measure 232
0010
0011
0010
0001
,  // measure 233
1000
0100
0010
0000
0001
0000
0010
0000
,  // measure 234
0100
1000
0001
0000
0010
0000
0001
0000
,  // measure 235
1000
0001
0100
0000
0010
1000
0000
1000
,  // measure 236
0010
0000
0110
0000
0010
1000
0010
0000
,  // measure 237
1010
0000
1001
0000
0010
0001
0010
0000
,  // measure 238
0011
0000
1001
0000
0100
1000
0100
0000
,  // measure 239
0010
0001
0010
0000
0001
0100
0001
0000
,  // measure 240
1000
0010
1000
0001
0010
0000
0100
0000
,  // measure 241
1100
0000
1000
0110
,  // measure 242
0000
0011
0000
0001
,  // measure 243
0100
0001
1001
0000
,  // measure 244
1100
0000
0010
0100
,  // measure 245
0101
0000
0001
0110
,  // measure 246
0000
1010
0000
1000
,  // measure 247
0100
1000
1001
0000
,  // measure 248
0101
0000
0000
0000
0010
0000
0001
0010
,  // measure 249
0100
0000
1000
1100
,  // measure 250
0000
0000
0011
0000
0000
0000
1000
0010
,  // measure 251
0100
0101
0110
0000
,  // measure 252
1010
0000
0000
0000
0010
0000
1000
0100
,  // measure 253
0010
0000
0001
0101
,  // measure 254
0000
0000
1010
0000
0000
0000
0001
0010
,  // measure 255
0100
1100
0110
0000
,  // measure 256
0011
0000
0000
0000
0110
0000
0001
1000
,  // measure 257
0100
0000
0000
0000
0100
0000
1000
0001
,  // measure 258
0100
0000
0110
0000
0000
0000
0010
1000
,  // measure 259
0010
1001
1100
0000
,  // measure 260
0011
0000
0000
0000
0110
0000
1000
0001
,  // measure 261
0100
0000
0000
0000
0100
0000
0001
1000
,  // measure 262
0010
0000
0110
0000
0000
0000
0010
0001
,  // measure 263
0010
1001
0101
0000
,  // measure 264
1010
0000
0000
0000
1001
0000
0001
0100
,  // measure 265
0010
0000
1000
0000
1001
0000
1000
0100
,  // measure 266
0010
0000
0001
0000
0110
0000
0010
0001
,  // measure 267
0010
0100
0110
0010
,  // measure 268
1100
0000
0001
0000
1000
0000
0001
0100
,  // measure 269
0010
0000
1000
0000
0110
0000
0010
0100
,  // measure 270
0010
0000
1100
0000
1000
0100
0010
0001
,  // measure 271
0010
0100
1000
0000
0010
0100
0001
0000
,  // measure 272
1000
0010
0100
0000
2002
0000
0000
0000
,  // measure 273
0000
0000
0000
0000
,  // measure 274
0000
0000
0000
0000
,  // measure 275
0000
0000
0000
0000
0000
0000
3003
0000
0000
0000
0000
0000
0100
0000
0000
0000
1000
0000
0000
0000
0000
0010
0000
0000
0000
0000
0000
0000
0000
0000
0000
0000
0000
0001
0000
0000
1001
0000
0000
0000
0000
0000
0000
0000
0000
0100
0000
0000
,  // measure 276
0100
0000
0000
0000
0001
0000
0000
0000
0000
0010
0000
0000
0010
0000
0000
0000
0001
0000
0000
0000
0000
0100
0000
0000
0000
0000
0000
0000
0000
0000
0000
0000
0000
1000
0000
0000
1001
0000
0000
0000
0000
0000
0000
0000
0000
0010
0000
0000
,  // measure 277
0010
0000
0000
0000
1000
0000
0000
0000
0000
0100
0000
0000
0010
0000
0000
0000
0000
0000
0000
0000
0000
0000
0000
0000
0001
0000
0000
0000
0000
0000
0000
0000
0000
0000
0000
0000
0010
0000
0000
0000
0000
0000
0000
0000
0000
0000
0000
0000
,  // measure 278
0001
0000
0100
0001
0010
0000
1000
0100
,  // measure 279
1000
0010
1000
0010
,  // measure 280
1000
0000
0001
0000
0100
0000
0001
0100
,  // measure 281
0001
0000
1000
0000
0001
0000
0010
0100
,  // measure 282
1000
0000
0001
0000
1000
0000
0010
0100
,  // measure 283
0001
0000
0010
0000
0100
0000
1000
0001
,  // measure 284
1000
0000
0001
1000
0010
0000
0100
0001
,  // measure 285
1000
0000
0001
0000
1000
0100
1000
0000
,  // measure 286
1000
0100
1000
0000
0001
0100
0001
0000
,  // measure 287
0001
0100
0001
0000
1000
0001
1000
0000
,  // measure 288
1000
0100
1000
0000
0001
1000
0001
0000
,  // measure 289
0001
0100
0010
0000
0100
0001
0100
0000
,  // measure 290
0010
1000
0010
0000
0100
0001
0100
0000
,  // measure 291
0010
1000
0001
0000
0010
0001
0010
0000
,  // measure 292
0001
0100
0001
0000
1000
0010
1000
0000
,  // measure 293
0001
0100
0010
1000
0010
1000
0010
1000
,  // measure 294
0001
0000
0010
0001
0010
0001
0010
0001
,  // measure 295
1000
0000
0010
1000
0010
0100
0001
1000
,  // measure 296
0100
0000
0010
0001
0010
0100
1000
0001
,  // measure 297
0100
0000
0010
1000
0001
0010
0100
0000
,  // measure 298
1000
0100
0010
0001
1000
0010
0100
0000
,  // measure 299
0001
0100
0010
1000
0100
0010
0001
0100
,  // measure 300
0010
1000
0100
0010
0001
0100
0010
1000
,  // measure 301
0001
0100
0001
0000
0000
1010
0000
0000
,  // measure 302
1001
0000
0101
0000
0000
0010
1000
0000
,  // measure 303
1010
0000
1001
0000
0000
0100
0001
0000
,  // measure 304
0101
0000
1001
0000
0000
0010
0001
0000
,  // measure 305
0011
0000
1001
0000
0000
0100
1000
0000
,  // measure 306
1100
0000
1001
0000
0000
0010
1000
0000
,  // measure 307
1010
0000
0010
0100
0000
0001
0100
0000
,  // measure 308
1001
0000
0010
0001
0000
0001
0100
0000
,  // measure 309
0110
2002
0000
0000
,  // measure 310
0000
0000
0000
0000
,  // measure 311
0000
0000
0000
0000
,  // measure 312
0000
3003
0000
0000
0000
0000
0000
0000
;

//---------------dance-single - ----------------
#NOTES:
     dance-single:
     :
     Challenge:
     18:
     0.999564,1.272030,0.667855,0.252387,0.066009,1802.000000,1630.000000,172.000000,65.000000,0.000000,0.000000,0.999564,1.272030,0.667855,0.252387,0.066009,1802.000000,1630.000000,172.000000,65.000000,0.000000,0.000000:
0000
0000
0000
0000
,
0000
0000
0000
0000
,
0000
0000
0000
0000
,
0000
0000
0000
0000
,
0000
0000
0000
0000
,
1001
0000
1100
0000
0010
1000
0000
0010
,
1000
0000
0110
0000
0010
0001
0000
0010
,
0001
0000
1000
0000
0001
0100
0000
0010
,
1000
0101
1001
0000
,
1001
0000
0101
0000
0010
0001
0000
0010
,
0001
0000
0110
0000
0010
1000
0000
0010
,
1000
0000
0001
0000
1000
0100
0000
0010
,
0001
1100
1001
0000
,
1001
0000
1000
0100
0001
0100
1000
0100
,
0010
0000
1000
0010
0001
0100
1000
0010
,
0100
0010
1000
0000
0100
0010
0100
0000
,
0001
0010
0100
1000
0010
0100
0001
1000
,
0010
0000
1000
0000
0010
0000
1000
0100
,
0001
0000
0100
0000
0001
0000
0100
0001
,
0010
0000
1000
0000
0100
0000
0010
0100
,
0001
1000
0100
0010
,
1000
0010
0001
0100
1000
0010
1000
0100
,
0001
1000
0001
0010
0100
1000
0001
1000
,
0100
0001
0010
0100
1000
0001
1000
0100
,
0001
1000
0100
0010
0001
0100
1000
0100
,
0010
0000
0100
0001
0010
0100
1000
0010
,
0100
0000
0010
0100
0001
0010
0100
1000
,
0001
0000
1000
0001
0010
1000
0100
0001
,
0010
0100
1000
0010
0100
0000
0010
0000
,
0100
0001
1000
0010
0100
0010
1000
0100
,
1000
0001
0010
1000
0010
0100
1000
0010
,
0001
0000
0000
0000
0000
0000
0000
0000
0000
0101
0000
0000
0000
0000
0000
0000
0000
0000
0000
0000
0000
0000
1100
0000
0000
0000
0000
0000
0000
0000
0000
0000
,
0010
0100
0001
0010
1000
0001
0100
0000
,
0010
0001
0010
0000
0001
0100
0001
1000
,
0001
0000
0011
0000
1000
0100
0001
0100
,
1000
0010
1000
0001
0010
0100
0010
1000
,
0010
0000
0011
0000
1000
0100
0010
0100
,
1000
0001
1000
0010
0001
1000
0001
0100
,
1000
0000
1010
0000
0001
0100
0001
0010
,
0100
0010
0001
0100
0001
0010
0100
1000
,
0100
0001
0100
0010
1000
0100
0010
0000
,
1001
0000
0100
0010
0100
1000
0010
0001
,
0010
0101
1010
0011
,
1100
0000
0001
0100
0010
1000
0001
0100
,
0010
0010
0100
0100
,
0010
0100
0001
0000
1000
0010
0100
0000
,
0010
0100
1000
0000
0100
0001
0010
0000
,
0100
0001
0100
0000
0100
1000
0010
0000
,
0001
0010
1000
0000
0100
0010
1000
0000
,
0001
0100
0010
0000
1000
0100
0001
0000
,
1000
0001
0100
0000
1000
0010
0100
0000
,
1000
0001
0010
0000
0100
1000
0010
0000
,
0100
0001
1000
0000
0100
0001
1000
0000
,
0001
0010
1000
0000
0010
1000
0001
0000
,
1000
0100
0010
0000
0010
1000
0100
0000
,
0100
0010
0001
0000
1001
0000
0110
0000
,
1100
0110
0101
0110
,
1100
0000
0100
1000
0000
0001
0100
0010
,
1000
0000
0010
1000
0000
0001
1000
0001
,
0010
0000
0100
0000
1000
0101
0000
0100
,
1000
1100
0011
0000
,
0001
0010
0100
0001
0010
1000
0100
1000
,
0001
0100
0010
0001
0100
1000
0001
1000
,
0010
0001
0100
0000
0001
0010
1000
0100
,
0001
0101
1010
0110
,
0010
0100
1000
0001
0010
0100
1000
0001
,
0010
0000
0001
1000
0010
0100
0001
1000
,
0010
0000
1000
0100
0010
0001
0100
0010
,
1000
1100
0101
0000
,
1000
0010
0001
1000
0001
0100
0001
0010
,
0001
0100
1000
0010
1000
0001
1000
0100
,
1000
0000
0000
0000
0000
0101
0000
0000
0000
0000
1001
0000
0000
0000
0000
0000
0011
0000
0000
0000
0000
1010
0000
0000
0000
0000
1001
0000
0000
0000
0000
0000
,
0110
0000
2002
0000
,
0000
0000
0000
0000
0000
0000
0000
0000
0000
0000
0000
3003
0000
0000
0000
0000
0000
0000
1000
0000
0000
0000
0000
0000
,
0001
0000
0010
0100
1000
0001
1000
0100
,
0010
0001
1000
0001
0100
1000
0010
0001
,
1000
0100
1000
0001
1000
0100
0010
1000
,
0001
0100
0001
1000
0010
0100
1000
0010
,
1000
0001
1000
0010
1000
0001
0100
0001
,
0010
1000
0100
0010
0001
1000
0100
0001
,
0100
0010
1000
0100
0001
0100
0010
1000
,
0010
1000
0001
0100
1000
0010
0001
1000
,
0001
0100
0001
0010
1000
0001
1000
0100
,
1000
0001
0010
1000
0010
0100
0010
0001
,
1000
0100
1000
0010
1000
0100
0001
1000
,
0001
0010
0001
0010
1000
0100
1000
0010
,
1000
0001
0010
0100
0010
1000
0001
0010
,
1000
0001
1000
0010
0100
1000
0001
0010
,
0100
1000
0001
0010
1000
0100
1000
0010
,
1000
0001
1000
0010
1000
0100
0010
0000
,
0001
1000
0010
1000
0001
0000
0010
0000
,
0011
0000
0000
1100
0000
0000
0100
0000
,
1000
0001
0010
0001
1000
0000
0100
0000
,
1100
0000
0000
0011
0000
0000
0001
0000
,
0010
0100
1000
0100
0010
0000
0001
0000
,
0100
0010
0001
0010
0100
0000
0010
0000
,
1000
0001
0100
0001
1000
0000
0001
0000
,
1001
0000
0000
1001
0000
0000
0010
0000
,
0001
1000
0001
0000
0100
0000
0001
0000
,
0010
0100
0010
0000
0001
0000
0100
0000
,
0001
1000
0001
0000
0010
0000
1000
0000
,
0100
0010
0100
0000
1000
0000
0010
0100
,
0010
1000
0001
0100
0010
1000
0001
0010
,
0100
1000
0010
0100
0001
1000
0000
0000
,
1100
0101
0110
1010
,
0011
1001
1000
0100
,
0010
0001
0010
0001
1000
0100
1000
0100
,
0010
0000
0010
0002
0000
1003
0000
1000
,
0010
0000
0010
2000
0000
3001
0000
0001
,
0010
0000
0001
2000
0000
3100
0000
0100
,
0010
0001
0000
0100
0000
0010
0000
1000
,
0010
0000
0010
2000
0000
3001
0000
0001
,
0010
0000
0010
0002
0000
1003
0000
1000
,
0010
0000
1000
0002
0000
0103
0000
0100
,
0010
1000
0000
0100
0000
0010
0000
0001
,
0100
0000
0100
0002
0000
1003
0000
1000
,
0100
0000
0100
2000
0000
3001
0000
0001
,
1000
0000
1000
0002
0000
0103
0000
0100
,
0101
1001
1100
1001
,
0010
0000
0100
2000
0000
3001
0000
0001
,
0100
0000
0010
2000
0000
3001
0000
0001
,
0010
0000
0001
2000
0000
3100
0000
0100
,
1100
1001
0101
1001
,
1000
0010
1000
0020
0000
1030
0000
1000
,
0001
0010
0001
0020
0000
0031
0000
0001
,
1000
0001
1000
0002
0000
0103
0000
0100
,
0110
1100
0110
0101
,
0001
0100
0001
2000
0000
3001
0000
0001
,
1000
0100
1000
0002
0000
1003
0000
1000
,
0010
0100
0010
0200
0000
0301
0000
0001
,
1000
0010
0100
0001
1000
0010
0100
0001
,
2000
0001
3000
0002
0100
0003
0200
0010
,
0300
0020
1000
0000
1000
0000
1030
0000
,
0002
1000
0003
2000
0010
3000
0020
0100
,
0030
0200
0001
0000
0001
0000
0301
0000
,
0020
0001
0030
0002
0100
0003
0200
0010
,
0300
0020
2000
0030
0001
0000
3001
0000
,
2000
0010
3000
0020
0100
0030
0200
0001
,
0300
0001
1000
0000
0010
1000
0001
0100
,
0010
1000
0010
0000
0100
0001
0100
0000
,
0010
1000
0010
0000
0100
0001
0100
0000
,
0010
1000
0010
0000
0100
0001
0100
0000
,
0010
1000
0010
0000
0100
0001
0100
0000
,
0010
1000
0100
0000
0010
0001
0100
0000
,
0010
1000
0100
0000
0010
0001
0100
0000
,
0010
1000
0100
0000
0010
0001
0100
0010
,
1000
0100
0010
0001
1000
0010
0100
0001
,
0000
0000
0200
0000
0000
0002
0300
0000
0020
0003
0000
0200
0030
0000
2000
0300
,
0000
0000
3020
0000
0000
2000
0030
0000
0002
3000
0000
0200
0003
0000
0010
0300
,
0010
0000
2000
0000
0000
0200
3000
0000
0020
0300
0000
0002
0030
0000
0200
0003
,
0000
0000
0320
0000
0000
2000
0030
0000
0200
3000
0000
0010
0300
0000
0001
0000
,
0100
0000
0010
1000
0000
0010
0100
0000
,
0001
0100
0000
0001
0010
0000
0011
0000
,
0100
0000
0010
0001
0000
0010
0100
0000
,
1000
0100
0000
1000
0010
0000
1010
0000
,
0100
0000
0001
0100
0000
0010
1000
0000
,
0001
0100
0000
0010
1000
0000
1010
0000
,
0010
1000
0010
0000
0100
0001
0100
0000
,
0010
1000
0100
0010
0001
0100
0010
1000
,
0000
0000
0001
1000
0000
1000
0100
0000
0100
0010
0000
0010
0001
0000
1000
0000
,
0001
0000
0010
0001
0000
0001
0100
0000
0100
0010
0000
0010
1000
0000
0001
0000
,
2002
0000
3003
1000
,
0010
0100
0001
1000
,
0100
0010
0001
1000
,
0010
0100
0001
0010
,
0001
0000
0000
1000
0000
1000
0010
0000
,
0100
0000
0001
0100
0001
0000
0010
0000
,
0100
0000
1000
0100
1000
0000
0001
0000
,
1000
0000
0010
0100
0010
0000
0100
0000
,
0001
1000
0000
1000
0001
0000
0100
0000
,
0001
0000
1000
0100
1000
0000
0100
0000
,
1000
0000
0001
0100
0001
0000
0100
0000
,
0010
0000
1000
0001
1000
0000
0100
0000
,
0010
0000
0100
0000
0001
1000
0100
0000
,
0010
0000
0100
0000
1000
0001
0010
0000
,
1001
0000
0100
0000
1001
0000
0010
0001
,
0010
0000
0100
1000
0100
0000
0010
0001
,
0100
0010
1000
0100
0010
0001
0011
0000
,
0000
0101
0000
0000
1001
0000
1010
0000
,
0000
1100
0000
0000
1001
0000
0011
0000
,
0001
0100
0000
0000
0001
0100
0010
1000
,
2002
0000
3003
1010
,
1000
0100
0000
0000
1001
0000
0011
0000
,
0001
0100
0000
0000
1001
0000
0101
0000
,
0010
1000
0000
0000
1001
0000
1100
0000
,
1001
0000
0101
0000
1001
0000
0010
0001
,
0010
0001
0000
0000
1000
0000
0010
1000
,
0010
1000
0000
0000
0001
0000
0010
0001
,
0000
1000
0100
0000
1001
0000
0010
1000
,
0001
0000
0110
0000
0110
0000
0010
0001
,
1000
0100
0000
0000
1000
0000
0010
1000
,
0001
0100
0000
0000
0001
0000
1000
0100
,
0000
0010
0001
0000
1001
0000
0010
0001
,
1000
0000
0110
0000
0110
0000
0010
1000
,
0100
0000
0010
0001
0100
0000
0010
1000
,
0100
0010
0001
0100
0010
0000
0100
0001
,
0010
0000
0100
1000
0010
0000
0100
0001
,
1000
0000
1000
0100
0010
0001
0100
0010
,
1000
0000
0100
0010
0001
0000
0100
0010
,
1000
0100
0010
0001
0100
0000
0100
0000
,
0010
0100
0000
0000
1001
0000
0100
0000
,
0010
0100
0000
0000
1000
0001
0210
0000
,
0300
0002
1000
0003
0001
1000
0010
0100
,
0001
0010
0100
1000
0001
0100
0001
0000
,
0010
0001
0000
0000
0100
0000
0010
0000
,
1000
0001
0100
0010
,
2002
3003
0010
1000
,
0010
1000
0001
0100
,
0001
0100
0001
0100
0010
0000
0100
0000
,
0001
0100
0010
0100
,
0001
0100
0001
0000
1000
0000
0100
0000
,
1000
0000
0100
0000
1001
0000
0000
1100
,
0000
0110
0010
0100
,
1000
0100
0010
0100
,
1000
0100
1000
0000
0001
0000
0100
0000
,
0001
0000
0100
0000
1001
0000
0000
1010
,
0000
0110
0010
0100
,
0001
0100
0010
0100
,
0001
0100
0001
0000
1000
0000
0100
0000
,
1000
0000
0100
0000
1100
0000
0000
0011
,
0000
0110
0010
0100
,
1000
0100
0010
0100
,
1000
0100
1000
0000
0001
0010
0001
0000
,
1000
0000
0001
1000
0010
0000
0100
0000
,
1001
0000
0010
0001
,
1000
0100
1000
0000
0001
0000
0010
0000
,
0100
1000
0100
0000
0010
0000
0001
0000
,
1000
0001
1000
0000
0010
1000
0000
1000
,
0010
1010
0010
1000
,
0001
0100
0001
0000
1000
0000
0010
0000
,
0100
0001
0100
0000
0010
0000
1000
0000
,
0001
1000
0001
0000
0010
0001
0000
0001
,
0010
0011
0010
0001
,
1000
0100
0010
0000
0001
0000
0010
0000
,
0100
1000
0001
0000
0010
0000
0001
0000
,
1000
0001
0100
0000
0010
1000
0000
1000
,
0010
0000
0110
0000
0010
1000
0010
0000
,
1010
0000
1001
0000
0010
0001
0010
0000
,
0011
0000
1001
0000
0100
1000
0100
0000
,
0010
0001
0010
0000
0001
0100
0001
0000
,
1000
0010
1000
0001
0010
0000
0100
0000
,
1100
0000
1000
0110
,
0000
0011
0000
0001
,
0100
0001
1001
0000
,
1100
0000
0010
0100
,
0101
0000
0001
0110
,
0000
1010
0000
1000
,
0100
1000
1001
0000
,
0101
0000
0000
0000
0010
0000
0001
0010
,
0100
0000
1000
1100
,
0000
0000
0011
0000
0000
0000
1000
0010
,
0100
0101
0110
0000
,
1010
0000
0000
0000
0010
0000
1000
0100
,
0010
0000
0001
0101
,
0000
0000
1010
0000
0000
0000
0001
0010
,
0100
1100
0110
0000
,
0011
0000
0000
0000
0110
0000
0001
1000
,
0100
0000
0000
0000
0100
0000
1000
0001
,
0100
0000
0110
0000
0000
0000
0010
1000
,
0010
1001
1100
0000
,
0011
0000
0000
0000
0110
0000
1000
0001
,
0100
0000
0000
0000
0100
0000
0001
1000
,
0010
0000
0110
0000
0000
0000
0010
0001
,
0010
1001
0101
0000
,
1010
0000
0000
0000
1001
0000
0001
0100
,
0010
0000
1000
0000
1001
0000
1000
0100
,
0010
0000
0001
0000
0110
0000
0010
0001
,
0010
0100
0110
0010
,
1100
0000
0001
0000
1000
0000
0001
0100
,
0010
0000
1000
0000
0110
0000
0010
0100
,
0010
0000
1100
0000
1000
0100
0010
0001
,
0010
0100
1000
0000
0010
0100
0001
0000
,
1000
0010
0100
0000
2002
0000
0000
0000
,
0000
0000
0000
0000
,
0000
0000
0000
0000
,
0000
0000
0000
0000
0000
0000
3003
0000
0000
0000
0000
0000
0100
0000
0000
0000
1000
0000
0000
0000
0000
0010
0000
0000
0000
0000
0000
0000
0000
0000
0000
0000
0000
0001
0000
0000
1001
0000
0000
0000
0000
0000
0000
0000
0000
0100
0000
0000
,
0100
0000
0000
0000
0001
0000
0000
0000
0000
0010
0000
0000
0010
0000
0000
0000
0001
0000
0000
0000
0000
0100
0000
0000
0000
0000
0000
0000
0000
0000
0000
0000
0000
1000
0000
0000
1001
0000
0000
0000
0000
0000
0000
0000
0000
0010
0000
0000
,
0010
0000
0000
0000
1000
0000
0000
0000
0000
0100
0000
0000
0010
0000
0000
0000
0000
0000
0000
0000
0000
0000
0000
0000
0001
0000
0000
0000
0000
0000
0000
0000
0000
0000
0000
0000
0010
0000
0000
0000
0000
0000
0000
0000
0000
0000
0000
0000
,
0001
0000
0100
0001
0010
0000
1000
0100
,
1000
0010
1000
0010
,
1000
0000
0001
0000
0100
0000
0001
0100
,
0001
0000
1000
0000
0001
0000
0010
0100
,
1000
0000
0001
0000
1000
0000
0010
0100
,
0001
0000
0010
0000
0100
0000
1000
0001
,
1000
0000
0001
1000
0010
0000
0100
0001
,
1000
0000
0001
0000
1000
0100
1000
0000
,
1000
0100
1000
0000
0001
0100
0001
0000
,
0001
0100
0001
0000
1000
0001
1000
0000
,
1000
0100
1000
0000
0001
1000
0001
0000
,
0001
0100
0010
0000
0100
0001
0100
0000
,
0010
1000
0010
0000
0100
0001
0100
0000
,
0010
1000
0001
0000
0010
0001
0010
0000
,
0001
0100
0001
0000
1000
0010
1000
0000
,
0001
0100
0010
1000
0010
1000
0010
1000
,
0001
0000
0010
0001
0010
0001
0010
0001
,
1000
0000
0010
1000
0010
0100
0001
1000
,
0100
0000
0010
0001
0010
0100
1000
0001
,
0100
0000
0010
1000
0001
0010
0100
0000
,
1000
0100
0010
0001
1000
0010
0100
0000
,
0001
0100
0010
1000
0100
0010
0001
0100
,
0010
1000
0100
0010
0001
0100
0010
1000
,
0001
0100
0001
0000
0000
1010
0000
0000
,
1001
0000
0101
0000
0000
0010
1000
0000
,
1010
0000
1001
0000
0000
0100
0001
0000
,
0101
0000
1001
0000
0000
0010
0001
0000
,
0011
0000
1001
0000
0000
0100
1000
0000
,
1100
0000
1001
0000
0000
0010
1000
0000
,
1010
0000
0010
0100
0000
0001
0100
0000
,
1001
0000
0010
0001
0000
0001
0100
0000
,
0110
2002
0000
0000
,
0000
0000
0000
0000
,
0000
0000
0000
0000
,
3003
0000
0000
0000
;

//---------------dance-single - ----------------
#NOTES:
     dance-single:
     :
     Beginner:
     6:
     0.001109,0.121194,0.003883,0.007766,0.000000,2.000000,1.000000,1.000000,2.000000,0.000000,0.000000,0.001109,0.121194,0.003883,0.007766,0.000000,2.000000,1.000000,1.000000,2.000000,0.000000,0.000000:
// measure 0
0000
0000
0000
0000
,  // measure 1
0000
0000
0000
0000
,  // measure 2
0000
0000
0000
0000
,  // measure 3
0000
0000
0000
0000
,  // measure 4
0000
0000
0000
0000
,  // measure 5
0000
0000
0000
0000
,  // measure 6
0000
0000
0000
0000
,  // measure 7
0000
0000
0000
0000
,  // measure 8
0000
0000
0000
0000
,  // measure 9
0000
0000
0000
0000
,  // measure 10
0000
0000
0000
0000
,  // measure 11
0000
0000
0000
0000
,  // measure 12
0000
0000
0000
0000
,  // measure 13
0000
0000
0000
0000
,  // measure 14
0000
0000
0000
0000
,  // measure 15
0000
0000
0000
0000
,  // measure 16
0000
0000
0000
0000
,  // measure 17
0000
0000
0000
0000
,  // measure 18
0000
0000
0000
0000
,  // measure 19
0000
0000
0000
0000
,  // measure 20
0000
0000
0000
0000
,  // measure 21
0000
0000
0000
0000
,  // measure 22
0000
0000
0000
0000
,  // measure 23
0000
0000
0000
0000
,  // measure 24
0000
0000
0000
0000
,  // measure 25
0000
0000
0000
0000
,  // measure 26
0000
0000
0000
0000
,  // measure 27
0000
0000
0000
0000
,  // measure 28
0000
0000
0000
0000
,  // measure 29
0000
0000
0000
0000
,  // measure 30
0000
0000
0000
0000
,  // measure 31
0000
0000
0000
0000
,  // measure 32
0000
0000
0000
0000
,  // measure 33
0000
0000
0000
0000
,  // measure 34
0000
0000
0000
0000
,  // measure 35
0000
0000
0000
0000
,  // measure 36
0000
0000
0000
0000
,  // measure 37
0000
0000
0000
0000
,  // measure 38
0000
0000
0000
0000
,  // measure 39
0000
0000
0000
0000
,  // measure 40
0000
0000
0000
0000
,  // measure 41
0000
0000
0000
0000
,  // measure 42
0000
0000
0000
0000
,  // measure 43
0000
0000
0000
0000
,  // measure 44
0000
0000
0000
0000
,  // measure 45
0000
0000
0000
0000
,  // measure 46
0000
0000
0000
0000
,  // measure 47
0000
0000
0000
0000
,  // measure 48
0000
0000
0000
0000
,  // measure 49
0000
0000
0000
0000
,  // measure 50
0000
0000
0000
0000
,  // measure 51
0000
0000
0000
0000
,  // measure 52
0000
0000
0000
0000
,  // measure 53
0000
0000
0000
0000
,  // measure 54
0000
0000
0000
0000
,  // measure 55
0000
0000
0000
0000
,  // measure 56
0000
0000
0000
0000
,  // measure 57
0000
0000
0000
0000
,  // measure 58
0000
0000
0000
0000
,  // measure 59
0000
0000
0000
0000
,  // measure 60
0000
0000
0000
0000
,  // measure 61
0000
0000
0000
0000
,  // measure 62
0000
0000
0000
0000
,  // measure 63
0000
0000
0000
0000
,  // measure 64
0000
0000
0000
0000
,  // measure 65
0000
0000
0000
0000
,  // measure 66
0000
0000
0000
0000
,  // measure 67
0000
0000
0000
0000
,  // measure 68
0000
0000
0000
0000
,  // measure 69
0000
0000
0000
0000
,  // measure 70
0000
0000
0000
0000
,  // measure 71
0000
0000
0000
0000
,  // measure 72
0000
0000
0000
0000
,  // measure 73
0000
0000
0000
0000
,  // measure 74
0000
0000
0000
0000
,  // measure 75
0000
0000
0000
0000
,  // measure 76
0000
0000
0000
0000
,  // measure 77
0000
0000
0000
0000
,  // measure 78
0000
0000
0000
0000
,  // measure 79
0000
0000
0000
0000
,  // measure 80
0000
0000
0000
0000
,  // measure 81
0000
0000
0000
0000
,  // measure 82
0000
0000
0000
0000
,  // measure 83
0000
0000
0000
0000
,  // measure 84
0000
0000
0000
0000
,  // measure 85
0000
0000
0000
0000
,  // measure 86
0000
0000
0000
0000
,  // measure 87
0000
0000
0000
0000
,  // measure 88
0000
0000
0000
0000
,  // measure 89
0000
0000
0000
0000
,  // measure 90
0000
0000
0000
0000
,  // measure 91
0000
0000
0000
0000
,  // measure 92
0000
0000
0000
0000
,  // measure 93
0000
0000
0000
0000
,  // measure 94
0000
0000
0000
0000
,  // measure 95
0000
0000
0000
0000
,  // measure 96
0000
0000
0000
0000
,  // measure 97
0000
0000
0000
0000
,  // measure 98
0000
0000
0000
0000
,  // measure 99
0000
0000
0000
0000
,  // measure 100
0000
0000
0000
0000
,  // measure 101
0000
0000
0000
0000
,  // measure 102
0000
0000
0000
0000
,  // measure 103
0000
0000
0000
0000
,  // measure 104
0000
0000
0000
0000
,  // measure 105
0000
0000
0000
0000
,  // measure 106
0000
0000
0000
0000
,  // measure 107
0000
0000
0000
0000
,  // measure 108
0000
0000
0000
0000
,  // measure 109
0000
0000
0000
0000
,  // measure 110
0000
0000
0000
0000
,  // measure 111
0000
0000
0000
0000
,  // measure 112
0000
0000
0000
0000
,  // measure 113
0000
0000
0000
0000
,  // measure 114
0000
0000
0000
0000
,  // measure 115
0000
0000
0000
0000
,  // measure 116
0000
0000
0000
0000
,  // measure 117
0000
0000
0000
0000
,  // measure 118
0000
0000
0000
0000
,  // measure 119
0000
0000
0000
0000
,  // measure 120
0000
0000
0000
0000
,  // measure 121
0000
0000
0000
0000
,  // measure 122
0000
0000
0000
0000
,  // measure 123
0000
0000
0000
0000
,  // measure 124
0000
0000
0000
0000
,  // measure 125
0000
0000
0000
0000
,  // measure 126
0000
0000
0000
0000
,  // measure 127
0000
0000
0000
0000
,  // measure 128
0000
0000
0000
0000
,  // measure 129
0000
0000
0000
0000
,  // measure 130
0000
0000
0000
0000
,  // measure 131
0000
0000
0000
0000
,  // measure 132
0000
0000
0000
0000
,  // measure 133
0000
0000
0000
0000
,  // measure 134
0000
0000
0000
0000
,  // measure 135
0000
0000
0000
0000
,  // measure 136
0000
0000
0000
0000
,  // measure 137
0000
0000
0000
0000
,  // measure 138
0000
0000
0000
0000
,  // measure 139
0000
0000
0000
0000
,  // measure 140
0000
0000
0000
0000
,  // measure 141
0000
0000
0000
0000
,  // measure 142
0000
0000
0000
0000
,  // measure 143
0000
0000
0000
0000
,  // measure 144
0000
0000
0000
0000
,  // measure 145
0000
0000
0000
0000
,  // measure 146
0000
0000
0000
0000
,  // measure 147
0000
0000
0000
0000
,  // measure 148
0000
0000
0000
0000
,  // measure 149
0000
0000
0000
0000
,  // measure 150
0000
0000
0000
0000
,  // measure 151
0000
0000
0000
0000
,  // measure 152
0000
0000
0000
0000
,  // measure 153
0000
0000
0000
0000
,  // measure 154
0000
0000
0000
0000
,  // measure 155
0000
0000
0000
0000
,  // measure 156
0000
0000
0000
0000
,  // measure 157
0000
0000
0000
0000
,  // measure 158
0000
0000
0000
0000
,  // measure 159
0000
0000
0000
0000
,  // measure 160
0000
0000
0000
0000
,  // measure 161
0000
0000
0000
0000
,  // measure 162
0000
0000
0000
0000
,  // measure 163
0000
0000
0000
0000
,  // measure 164
0000
0000
0000
0000
,  // measure 165
0000
0000
0000
0000
,  // measure 166
0000
0000
0000
0000
,  // measure 167
0000
0000
0000
0000
,  // measure 168
0000
0000
0000
0000
,  // measure 169
0000
0000
0000
0000
,  // measure 170
0000
0000
0000
0000
,  // measure 171
0000
0000
0000
0000
,  // measure 172
0000
0000
0000
0000
,  // measure 173
0000
0000
0000
0000
,  // measure 174
0000
0000
0000
0000
,  // measure 175
0000
0000
0000
0000
,  // measure 176
0000
0000
0000
0000
,  // measure 177
0000
0000
0000
0000
,  // measure 178
0000
0000
0000
0000
,  // measure 179
0000
0000
0000
0000
,  // measure 180
0000
0000
0000
0000
,  // measure 181
0000
0000
0000
0000
,  // measure 182
0000
0000
0000
0000
,  // measure 183
0000
0000
0000
0000
,  // measure 184
0000
0000
0000
0000
,  // measure 185
0000
0000
0000
0000
,  // measure 186
0000
0000
0000
0000
,  // measure 187
0000
0000
0000
0000
,  // measure 188
0000
0000
0000
0000
,  // measure 189
0000
0000
0000
0000
,  // measure 190
0000
0000
0000
0000
,  // measure 191
0000
0000
0000
0000
,  // measure 192
0000
0000
0000
0000
,  // measure 193
0000
0000
0000
0000
,  // measure 194
0000
0000
0000
0000
,  // measure 195
0000
0000
0000
0000
,  // measure 196
0000
0000
0000
0000
,  // measure 197
0000
0000
0000
0000
,  // measure 198
0000
0000
0000
0000
,  // measure 199
0000
0000
0000
0000
,  // measure 200
0000
0000
0000
0000
,  // measure 201
0000
0000
0000
0000
,  // measure 202
0000
0000
0000
0000
,  // measure 203
0000
0000
0000
0000
,  // measure 204
0000
0000
0000
0000
,  // measure 205
0000
0000
0000
0000
,  // measure 206
0000
0000
0000
0000
,  // measure 207
0000
0000
0000
0000
,  // measure 208
0000
0000
0000
0000
,  // measure 209
0000
0000
0000
0000
,  // measure 210
0000
0000
0000
0000
,  // measure 211
0000
0000
0000
0000
,  // measure 212
0000
0000
0000
0000
,  // measure 213
0000
0000
0000
0000
,  // measure 214
0000
0000
0000
0000
,  // measure 215
0000
0000
0000
0000
,  // measure 216
0000
0000
0000
0000
,  // measure 217
0000
0000
0000
0000
,  // measure 218
0000
0000
0000
0000
,  // measure 219
0000
0000
0000
0000
,  // measure 220
0000
0000
0000
0000
,  // measure 221
0000
0000
0000
0000
,  // measure 222
0000
0000
0000
0000
,  // measure 223
0000
0000
0000
0000
,  // measure 224
0000
0000
0000
0000
,  // measure 225
0000
0000
0000
0000
,  // measure 226
0000
0000
0000
0000
,  // measure 227
0000
0000
0000
0000
,  // measure 228
0000
0000
0000
0000
,  // measure 229
0000
0000
0000
0000
,  // measure 230
0000
0000
0000
0000
,  // measure 231
0000
0000
0000
0000
,  // measure 232
0000
0000
0000
0000
,  // measure 233
0000
0000
0000
0000
,  // measure 234
0000
0000
0000
0000
,  // measure 235
0000
0000
0000
0000
,  // measure 236
0000
0000
0000
0000
,  // measure 237
0000
0000
0000
0000
,  // measure 238
0000
0000
0000
0000
,  // measure 239
0000
0000
0000
0000
,  // measure 240
0000
0000
0000
0000
,  // measure 241
0000
0000
0000
0000
,  // measure 242
0000
0000
0000
0000
,  // measure 243
0000
0000
0000
0000
,  // measure 244
0000
0000
0000
0000
,  // measure 245
0000
0000
0000
0000
,  // measure 246
0000
0000
0000
0000
,  // measure 247
0000
0000
0000
0000
,  // measure 248
0000
0000
0000
0000
,  // measure 249
0000
0000
0000
0000
,  // measure 250
0000
0000
0000
0000
,  // measure 251
0000
0000
0000
0000
,  // measure 252
0000
0000
0000
0000
,  // measure 253
0000
0000
0000
0000
,  // measure 254
0000
0000
0000
0000
,  // measure 255
0000
0000
0000
0000
,  // measure 256
0000
0000
0000
0000
,  // measure 257
0000
0000
0000
0000
,  // measure 258
0000
0000
0000
0000
,  // measure 259
0000
0000
0000
0000
,  // measure 260
0000
0000
0000
0000
,  // measure 261
0000
0000
0000
0000
,  // measure 262
0000
0000
0000
0000
,  // measure 263
0000
0000
0000
0000
,  // measure 264
0000
0000
0000
0000
,  // measure 265
0000
0000
0000
0000
,  // measure 266
0000
0000
0000
0000
,  // measure 267
0000
0000
0000
0000
,  // measure 268
0000
0000
0000
0000
,  // measure 269
0000
0000
0000
0000
,  // measure 270
0000
0000
0000
0000
,  // measure 271
0000
0000
0000
0000
,  // measure 272
0000
0000
0000
0000
,  // measure 273
0000
0000
0000
0000
,  // measure 274
0000
0000
0000
0000
,  // measure 275
0000
0000
0000
0000
,  // measure 276
0000
0000
0000
0000
,  // measure 277
0000
0000
0000
0000
,  // measure 278
0000
0000
0000
0000
,  // measure 279
0000
0000
0000
0000
,  // measure 280
0000
0000
0000
0000
,  // measure 281
0000
0000
0000
0000
,  // measure 282
0000
0000
0000
0000
,  // measure 283
0000
0000
0000
0000
,  // measure 284
0000
0000
0000
0000
,  // measure 285
0000
0000
0000
0000
,  // measure 286
0000
0000
0000
0000
,  // measure 287
0000
0000
0000
0000
,  // measure 288
0000
0000
0000
0000
,  // measure 289
0000
0000
0000
0000
,  // measure 290
0000
0000
0000
0000
,  // measure 291
0000
0000
0000
0000
,  // measure 292
0000
0000
0000
0000
,  // measure 293
0000
0000
0000
0000
,  // measure 294
0000
0000
0000
0000
,  // measure 295
0000
0000
0000
0000
,  // measure 296
0000
0000
0000
0000
,  // measure 297
0000
0000
0000
0000
,  // measure 298
0000
0000
0000
0000
,  // measure 299
0000
0000
0000
0000
,  // measure 300
0000
0000
0000
0000
,  // measure 301
0000
0000
0000
0000
,  // measure 302
0000
0000
0000
0000
,  // measure 303
0000
0000
0000
0000
,  // measure 304
0000
0000
0000
0000
,  // measure 305
0000
0000
0000
0000
,  // measure 306
0000
0000
0000
0000
,  // measure 307
0000
0000
0000
0000
,  // measure 308
0000
0000
0000
0000
,  // measure 309
0000
2002
0000
0000
,  // measure 310
0000
0000
0000
0000
,  // measure 311
0000
0000
0000
0000
,  // measure 312
0000
3003
0000
0000
0000
0000
0000
0000
;
