#TITLE:El Chavo del 8;
#SUBTITLE:;
#ARTIST:Chespirito;
#TITLETRANSLIT:;
#SUBTITLETRANSLIT:;
#ARTISTTRANSLIT:;
#GENRE:;
#CREDIT:;
#BANNER:chespirito - el chavo del 8.png;
#BACKGROUND:chespirito - el chavo del 8-bg.png;
#LYRICSPATH:;
#CDTITLE:DDRTM.PNG;
#MUSIC:chespirito - el chavo del 8.mp3;
#OFFSET:0.320000;
#SAMPLESTART:11.320007;
#SAMPLELENGTH:15.000000;
#SELECTABLE:YES;
#BPMS:0.000000=94.279999
;
#STOPS:
;
#BGCHANGES:;
#KEYSOUNDS:;
#ATTACKS:;

//---------------dance-single - ----------------
#NOTES:
     dance-single:
     :
     Hard:
     10:
     0.562178,0.567837,0.526597,0.056929,0.323786,553.000000,479.000000,74.000000,8.000000,0.000000,0.000000,0.562178,0.567837,0.526597,0.056929,0.323786,553.000000,479.000000,74.000000,8.000000,0.000000,0.000000:
0000
0000
0000
0000
1001
0010
0010
0010
,
1001
0100
0100
0100
1001
0010
1001
0100
,
1001
1100
0101
0000
1001
0100
0010
0100
,
1001
0010
0100
0010
1001
0110
1000
0110
,
0001
1010
0022
0033
1000
0100
0010
0001
,
0001
0000
0010
0000
0100
0000
1000
0000
0001
0010
0100
1000
0010
0000
0001
0000
,
0100
0000
0000
0000
1000
0000
0000
0000
0001
1000
0000
0000
0000
0000
0000
0000
0001
0000
0000
0000
0010
0000
0000
0000
0100
0000
0000
0000
1000
0000
0000
0000
,
1000
0000
0100
0000
0010
0000
0001
0000
1000
0100
0010
0001
0100
0000
0010
0000
,
1000
0001
0000
0000
0000
0220
0000
0000
0330
0000
0000
0000
0000
0000
0000
0000
1001
0000
0000
0000
0010
0000
0000
0000
0010
0000
0000
0000
0100
0000
0000
0000
,
1001
0100
0100
0010
1001
0010
1001
0100
,
1001
0100
1001
0110
0001
0010
0100
1000
,
1000
0000
0010
0000
0100
0000
0001
0000
1000
0100
0010
0001
0010
0000
0110
0000
,
1001
0000
0000
0000
0110
0000
0000
0000
1000
0001
0000
0000
0000
0000
0000
0000
0110
0000
0000
0000
1000
0000
0000
0000
0101
0000
0000
0000
0010
0000
0000
0000
,
1100
0000
0110
0000
0011
0000
1000
0000
0001
1000
0010
0100
1001
0000
0110
0000
,
0001
1000
0000
0000
0000
0000
0000
0000
0000
0000
0000
0000
0000
0000
0000
0000
0001
0000
0000
0000
0010
0000
0000
0000
0100
0000
0000
0000
0010
0000
0000
0000
,
1000
0000
0001
0000
1000
0001
0100
0010
1000
0000
0001
0000
1000
0000
0010
0000
,
0001
0100
1000
0001
0100
0010
0001
0100
1000
0000
0100
0000
0001
0000
0010
0000
,
1000
0000
0100
0000
0001
0100
1000
0010
0001
0000
1000
0000
0001
0010
0100
0010
,
0001
0000
0110
0000
1001
0000
0000
2002
3003
0000
0000
0000
0110
0000
0000
0000
,
1000
0000
0001
0000
0110
0000
0000
0000
1000
0100
0010
0100
1000
0001
0010
0000
,
0000
0101
1100
0000
1000
0100
0010
0001
,
0001
0000
0010
0000
0100
0000
1000
0000
0100
1000
0001
0010
1000
0000
0001
0000
,
0100
0000
0000
0000
1000
0000
0000
0000
0001
0100
0000
0000
0000
0000
0000
0000
0001
0000
0000
0000
0010
0000
0000
0000
0100
0000
0000
0000
1000
0000
0000
0000
,
1000
0000
0100
0000
0010
0000
0001
0000
0010
0001
1000
0100
0001
0000
1000
0000
,
0010
0000
0000
0000
0001
0000
0000
0000
1000
0010
0000
0000
0000
0000
0000
0000
1001
0000
0000
0000
0100
0000
0000
0000
0100
0000
0000
0000
0010
0000
0000
0000
,
1001
0010
0010
0100
1001
0100
1001
0010
,
1001
0010
1001
0110
1000
0100
0010
0001
,
0001
0000
0010
0000
0100
0000
1000
0000
0100
1000
0001
0010
1000
0000
0001
0000
,
0100
0000
0000
0000
1000
0000
0000
0000
0001
0100
0000
0000
0000
0000
0000
0000
1000
0000
0000
0000
0000
0000
0000
0000
0001
0000
0000
0000
0000
0000
0000
0000
,
1000
0010
0100
1000
0001
0000
1000
0000
0100
0000
0001
1000
0100
0010
0001
0000
,
0100
0000
0001
1000
0001
1000
0001
0000
0010
0000
0000
0000
0100
0000
0000
0000
,
0001
0010
0100
1000
0010
0000
0001
0000
1000
0000
0100
0010
1000
0000
0100
0000
,
0001
0000
0010
0000
0100
1000
0001
0010
0100
0000
0000
0000
0010
0000
0000
0000
,
0100
1000
0010
0001
0100
0000
0010
0000
0100
0000
1000
0001
0100
0010
0001
0000
,
1100
0000
0010
0100
0010
0100
0010
0000
0100
0000
0000
0000
0001
0000
0000
0000
,
1000
0001
0100
0010
1000
0000
0011
0000
1010
0000
2002
0000
0000
0000
0000
0000
,
0000
0000
0000
0000
3003
0000
0110
0000
1001
0000
1000
0001
0010
0100
1000
0000
,
0001
0000
0110
0000
1100
0101
0011
1010
,
1100
0000
1001
0000
0101
0000
0000
0000
0101
0000
1000
0001
0000
0000
0110
0000
,
0000
0110
1001
0000
0001
0010
1000
0100
,
0100
0000
1000
0000
0010
0000
0001
0000
0010
0001
0100
1000
0001
0000
0100
0000
,
0010
0000
0000
0000
0001
0000
0000
0000
0100
0010
0000
0000
0000
0000
0000
0000
0001
0000
0000
0000
0010
0000
0000
0000
1000
0000
0000
0000
0100
0000
0000
0000
,
0100
0000
1000
0000
0010
0000
0001
0000
0010
0001
0100
1000
0001
0000
0100
0000
,
0010
0000
0000
0000
0001
0000
0000
0000
0100
0010
0000
0000
0000
0000
0000
0000
1100
0000
0000
0000
0010
0000
0000
0000
0001
0000
0000
0000
1000
0000
0000
0000
,
0011
0100
1000
0010
0101
0010
1100
0001
,
1010
0100
0011
0110
0100
1000
0001
0010
,
0010
0000
0001
0000
1000
0000
0100
0000
1000
0100
0010
0001
0100
0000
0010
0000
,
1000
0000
0000
0000
0100
0000
0000
0000
0010
1000
0000
0000
0000
0000
0000
0000
0100
0000
0000
0000
1000
0000
0000
0000
0001
0000
0000
0000
0010
0000
0000
0000
,
0010
0000
0001
0000
1000
0000
0100
0000
1000
0100
0010
0001
0100
0000
0010
0000
,
1000
0000
0000
0000
0100
0000
0000
0000
0010
1000
0000
0000
0000
0000
0000
0000
1000
0000
0000
0000
0001
0000
0000
0000
1000
0100
0000
0000
0001
0010
0000
0000
,
0000
0000
0000
0000
1000
0000
0000
0000
0001
0010
0000
0000
1000
0100
0000
0000
0001
0000
0000
0000
0010
0000
0100
0000
0010
0000
0000
0000
1001
0000
0000
0000
,
0000
0000
0000
0000
1001
0000
0000
0000
0110
0000
0000
0000
0010
0001
0000
0000
0100
1000
0000
0000
0010
0000
0000
0000
0010
0000
0000
0000
0010
0100
0000
0000
,
0100
0010
0000
0000
1000
0000
0000
0000
1000
0000
0000
0000
0001
0100
0000
0000
1000
0010
0000
0000
0001
0000
0000
0000
0001
0000
0000
0000
0010
0100
0000
0000
,
0100
0010
0000
0000
0000
0000
0000
0000
0000
0000
0000
0000
0001
0100
0000
0000
1000
0010
0000
0000
0001
0000
0000
0000
0001
0000
0000
0000
1000
0001
0000
0000
,
0001
1000
0000
0000
0000
0000
0000
0000
0000
0000
0000
0000
0010
0001
0000
0000
0100
1000
0000
0000
0010
0000
0000
0000
0010
0000
0000
0000
0010
0001
0000
0000
,
0010
1000
0000
0000
0000
0000
0000
0000
0000
0000
0000
0000
0000
0000
0000
0000
0000
0000
0000
0000
0000
0000
0000
0000
0000
0000
0000
0000
0000
0000
0000
0000
;

//---------------dance-single - ----------------
#NOTES:
     dance-single:
     :
     Easy:
     3:
     0.250083,0.313112,0.263298,0.056929,0.007116,246.000000,209.000000,37.000000,8.000000,0.000000,0.000000,0.250083,0.313112,0.263298,0.056929,0.007116,246.000000,209.000000,37.000000,8.000000,0.000000,0.000000:
0000
0000
1000
0010
,
0001
0100
0001
1000
,
0001
0001
1000
0010
,
0001
0100
0001
1000
,
0000
0000
0202
0303
1000
0000
0010
0000
,
0001
0100
0001
0010
,
0100
1001
0001
0100
,
1000
0010
1000
0100
,
1001
0000
0000
0000
0000
0220
0000
0000
0330
0000
0000
0000
0000
0000
0000
0000
0001
0000
0000
0000
0000
0000
0000
0000
0010
0000
0000
0000
0000
0000
0000
0000
,
1000
0100
0001
1000
,
0001
1000
0001
0100
,
1000
0100
1000
0010
,
1001
1000
0010
0100
,
1100
0011
0001
1000
,
1001
0000
0001
0100
,
1000
0001
1000
0100
,
0001
0100
1000
0001
,
1000
0001
1000
0001
,
1000
0000
0000
0000
1001
0000
0000
2002
3003
0000
0000
0000
0110
0000
0000
0000
,
1000
0110
1000
1000
,
0000
0001
1000
0000
1000
0000
0010
0000
,
0001
0100
0100
1000
,
0100
0001
0001
0100
,
1000
0010
0010
0001
,
0010
1000
1001
0100
,
1001
0010
1000
0001
,
1000
0001
1000
0010
,
0001
0100
0100
1000
,
0100
0001
1000
0001
,
1000
0001
0100
0100
,
0100
0001
0010
0100
,
0001
0010
1000
1000
,
0001
0100
0100
0010
,
0100
0010
0100
0010
,
1100
0010
0100
0001
,
1000
0000
1000
0000
0000
2002
0000
0000
,
0000
3003
1001
0010
,
0001
0110
1100
0011
,
1100
0000
0101
0000
0101
0000
0000
0110
,
0000
1001
0001
1000
,
0100
0010
0010
0001
,
0010
0100
0001
1000
,
0100
0010
0010
0001
,
0010
0100
1100
0001
,
0011
1000
0101
1100
,
1010
0011
0100
0001
,
0010
1000
1000
0100
,
1000
0010
0100
0001
,
0010
1000
1000
0100
,
1000
0010
1001
1001
,
0000
1001
1001
0010
,
0000
0110
0100
0010
,
0100
1000
1000
0001
,
0100
0000
1000
0010
,
0001
0000
0100
0010
,
1001
0000
0000
0000
;

//---------------dance-single - ----------------
#NOTES:
     dance-single:
     :
     Medium:
     7:
     0.415788,0.391389,0.135207,0.056929,0.007116,409.000000,390.000000,19.000000,8.000000,0.000000,0.000000,0.415788,0.391389,0.135207,0.056929,0.007116,409.000000,390.000000,19.000000,8.000000,0.000000,0.000000:
0000
0000
0000
0000
1000
0100
0100
0100
,
0001
0010
0010
0010
0001
0100
1000
0010
,
0001
0010
1000
0000
1000
0010
0100
0010
,
0001
0100
0010
0100
1000
0010
0001
0010
,
1000
0001
2200
3300
0001
0010
0100
1000
,
1000
0100
0010
0001
1000
0010
0100
1000
,
0010
0001
1000
0000
1000
0100
0010
0001
,
0001
0010
0100
1000
0001
0100
0010
0100
,
0001
0000
0000
0000
0000
0220
0000
0000
0330
0000
0000
0000
0000
0000
0000
0000
0001
0000
0000
0000
0100
0000
0000
0000
0100
0000
0000
0000
0010
0000
0000
0000
,
1000
0010
0010
0100
0001
0100
1000
0010
,
0001
0010
1000
0100
1000
0100
0010
0001
,
0001
0100
0010
1000
0001
0100
0100
0010
,
0001
0110
1000
0000
0100
0001
0010
0100
,
0001
0010
0100
0001
1000
0100
0001
0010
,
1000
0000
0000
0000
1000
0100
0010
0100
,
0001
1000
0001
0010
0001
1000
0001
0100
,
1000
0001
0010
1000
0001
0010
1000
0100
,
0001
0010
1000
0001
1000
0001
1000
0010
,
1000
0000
0110
0000
1001
0000
0000
2002
3003
0000
0000
0000
0110
0000
0000
0000
,
0001
1000
0110
0000
0001
0100
0001
0100
,
0000
1010
0011
0000
0001
0010
0100
1000
,
1000
0100
0010
0001
0010
1000
0001
1000
,
0010
0001
1000
0000
1000
0100
0010
0001
,
0001
0010
0100
1000
0100
0001
1000
0001
,
0100
1000
0001
0000
1000
0010
0010
0100
,
0001
0100
0100
0010
1000
0010
0001
0100
,
1000
0100
0001
0010
0001
0010
0100
1000
,
1000
0100
0010
0001
0010
1000
0001
1000
,
0010
0001
1000
0000
0001
0000
1000
0000
,
0001
0010
1000
0001
0010
1000
0010
1000
,
0010
1000
1000
1000
0100
0000
0010
0000
,
1000
0010
0100
1000
0001
0010
0001
0010
,
1000
0100
0010
1000
0010
0000
0100
0000
,
0010
0100
0010
0100
0010
0001
0010
1000
,
0011
0100
0100
0100
0010
0000
1000
0000
,
0001
0010
0001
1000
0001
2002
0000
0000
,
0000
0000
3003
0110
0001
0001
0100
0001
,
1000
0000
0110
0000
0001
1000
0100
0001
,
0010
1000
0010
0000
1000
0001
0000
0110
,
0000
0010
0001
0000
1000
0100
0001
0010
,
0010
0001
0100
1000
0100
0010
1000
0010
,
0100
1000
0010
0000
1000
0100
0001
0010
,
0010
0001
0100
1000
0100
0010
1000
0010
,
0100
1000
0010
0000
0011
0100
1000
0001
,
1100
0010
0001
0100
1000
0100
0011
1000
,
0100
0010
1000
0100
0010
0001
1000
0100
,
0100
1000
0001
0010
0001
0100
0010
0100
,
0001
0010
0100
0000
0010
0001
1000
0100
,
0100
1000
0001
0010
0001
0100
0010
0100
,
0001
0010
0100
0000
0001
1000
0001
1000
,
0000
0001
1000
0001
1000
0100
0100
1000
,
0000
0001
0010
0100
0010
0100
0100
0100
,
0010
0001
0001
1000
0001
1000
1000
0100
,
0010
0000
0000
1000
0001
1000
1000
0001
,
1000
0000
0000
0100
0010
0100
1000
0001
,
0110
0000
0000
0000
;

//---------------dance-single - ----------------
#NOTES:
     dance-single:
     :
     Beginner:
     1:
     0.148423,0.215264,0.192137,0.014232,0.000000,146.000000,119.000000,27.000000,2.000000,0.000000,0.000000,0.148423,0.215264,0.192137,0.014232,0.000000,146.000000,119.000000,27.000000,2.000000,0.000000,0.000000:
0000
0000
1000
0000
,
0001
0000
0010
0010
,
0010
0000
1000
0000
,
0001
0000
0100
0100
,
0000
1000
1000
0000
,
0001
0000
0001
0000
,
0010
0000
0001
0000
,
1000
0000
1000
0000
,
0110
0000
0001
0000
,
1000
0000
0100
0100
,
0100
0000
1001
0000
,
1000
0000
1000
0000
,
1001
0000
0010
0000
,
0110
0000
0000
1001
,
1001
0000
0001
0000
,
1000
0000
1000
0000
,
0001
0000
1000
0000
,
0001
0000
1000
0000
,
1001
1001
0000
0110
,
0000
0110
0000
0100
,
0000
0010
0000
0000
1000
0000
0000
0000
,
0001
0000
0100
0000
,
0100
0000
0001
0000
,
1000
0000
0010
0000
,
0010
0000
1001
0000
,
1001
0000
1001
1001
,
1001
0000
1000
0000
,
0001
0000
0001
0001
,
0001
0000
1000
0000
,
0001
0000
0100
0100
,
0100
0100
0000
0000
0010
0000
0000
0000
,
0001
0000
1000
0000
,
0001
0000
0100
0000
,
0010
0000
0100
0000
,
0110
0000
0001
0000
,
1000
0000
2002
0000
,
0000
3003
1001
0000
,
0110
0000
0010
0000
,
0100
0000
0001
0000
,
0000
1000
0000
0000
0001
0000
0000
0000
,
0100
0000
0010
0000
,
0010
0000
0001
0000
,
0100
0000
0010
0000
,
0001
0000
1001
0000
,
0010
0000
0100
0100
,
0100
0000
0100
0000
,
0010
0000
1000
0000
,
1000
0000
0100
0000
,
0010
0000
1000
0000
,
0001
0000
1001
1001
,
0000
1001
1001
0000
,
0000
0110
0000
0010
,
0000
1000
0000
0001
,
0000
0010
0000
1001
,
0000
0100
0000
0010
,
1001
0000
0000
0000
;

//---------------dance-solo - ----------------
#NOTES:
     dance-solo:
     :
     Hard:
     10:
     0.564211,0.568805,0.533713,0.056929,0.323786,555.000000,480.000000,75.000000,8.000000,0.000000,0.000000,0.564211,0.568805,0.533713,0.056929,0.323786,555.000000,480.000000,75.000000,8.000000,0.000000,0.000000:
// measure 0
000000
000000
000000
000000
100100
001000
001000
001000
,  // measure 1
100100
010000
010000
010000
100100
001000
100100
010000
,  // measure 2
100100
110000
010100
000000
100100
010000
001000
010000
,  // measure 3
100100
001000
010000
001000
100100
011000
100000
011000
,  // measure 4
000100
010100
000220
000330
010000
001000
000100
000010
,  // measure 5
000010
000000
000100
000000
001000
000000
010000
000000
000010
000100
001000
010000
000100
000000
000010
000000
,  // measure 6
001000
000000
000000
000000
010000
000000
000000
000000
000010
010000
000000
000000
000000
000000
000000
000000
000010
000000
000000
000000
000100
000000
000000
000000
001000
000000
000000
000000
010000
000000
000000
000000
,  // measure 7
010000
000000
001000
000000
000100
000000
000010
000000
010000
001000
000100
000010
001000
000000
000100
000000
,  // measure 8
010000
000010
000000
000000
000000
000220
000000
000000
000330
000000
000000
000000
000000
000000
000000
000000
001001
000000
000000
000000
000010
000000
000000
000000
000010
000000
000000
000000
000100
000000
000000
000000
,  // measure 9
001001
000100
000100
000010
001001
000010
001001
000100
,  // measure 10
001001
000100
001001
000110
000001
000010
000100
001000
,  // measure 11
001000
000000
000010
000000
000100
000000
000001
000000
001000
000100
000010
000001
000010
000000
000110
000000
,  // measure 12
001001
000000
000000
000000
001100
000000
000000
000000
010000
000010
000000
000000
000000
000000
000000
000000
001100
000000
000000
000000
010000
000000
000000
000000
001010
000000
000000
000000
000100
000000
000000
000000
,  // measure 13
011000
000000
001100
000000
000110
000000
010000
000000
000010
010000
000100
001000
010010
000000
001100
000000
,  // measure 14
000010
010000
000000
000000
000000
000000
000000
000000
000000
000000
000000
000000
000000
000000
000000
000000
000010
000000
000000
000000
000100
000000
000000
000000
001000
000000
000000
000000
000100
000000
000000
000000
,  // measure 15
010000
000000
000010
000000
010000
000010
001000
000100
010000
000000
000010
000000
010000
000000
000100
000000
,  // measure 16
000010
001000
100000
000100
010000
001000
000100
010000
100000
000000
010000
000000
000100
000000
001000
000000
,  // measure 17
100000
000000
010000
000000
000100
010000
100000
001000
000100
000000
100000
000000
000100
001000
010000
001000
,  // measure 18
000100
000000
011000
000000
100100
000000
000000
200200
300300
000000
000000
000000
011000
000000
000000
000000
,  // measure 19
100000
000000
000100
000000
011000
000000
000000
000000
100000
010000
001000
010000
100000
000100
001000
000000
,  // measure 20
000000
001010
011000
000000
010000
001000
000100
000010
,  // measure 21
000010
000000
000100
000000
001000
000000
010000
000000
001000
010000
000010
000100
010000
000000
000010
000000
,  // measure 22
001000
000000
000000
000000
010000
000000
000000
000000
000010
001000
000000
000000
000000
000000
000000
000000
000010
000000
000000
000000
000100
000000
000000
000000
001000
000000
000000
000000
010000
000000
000000
000000
,  // measure 23
010000
000000
001000
000000
000100
000000
000010
000000
000100
000010
010000
001000
000010
000000
010000
000000
,  // measure 24
000100
000000
000000
000000
000001
000000
000000
000000
001000
000010
000000
000000
000000
000000
000000
000000
001001
000000
000000
000000
000100
000000
000000
000000
000100
000000
000000
000000
000010
000000
000000
000000
,  // measure 25
001001
000010
000010
000100
001001
000100
001001
000010
,  // measure 26
001001
000010
001001
000110
001000
000100
000010
000001
,  // measure 27
000001
000000
000010
000000
000100
000000
001000
000000
000100
001000
000001
000010
001000
000000
000001
000000
,  // measure 28
000100
000000
000000
000000
010000
000000
000000
000000
000010
001000
000000
000000
000000
000000
000000
000000
010000
000000
000000
000000
000000
000000
000000
000000
000010
000000
000000
000000
000000
000000
000000
000000
,  // measure 29
010000
000100
001000
010000
000010
000000
010000
000000
001000
000000
000010
010000
001000
000100
000010
000000
,  // measure 30
001000
000000
000010
010000
000010
010000
000010
000000
000100
000000
000000
000000
001000
000000
000000
000000
,  // measure 31
000010
000100
001000
010000
000100
000000
000010
000000
010000
000000
001000
000100
010000
000000
001000
000000
,  // measure 32
000010
000000
001000
000000
010000
100000
000100
001000
010000
000000
000000
000000
001000
000000
000000
000000
,  // measure 33
010000
100000
001000
000100
010000
000000
001000
000000
010000
000000
100000
000100
010000
001000
000100
000000
,  // measure 34
110000
000000
001000
010000
001000
010000
001000
000000
010000
000000
000000
000000
000100
000000
000000
000000
,  // measure 35
100000
000100
010000
001000
100000
000000
001100
000000
101000
000000
200200
000000
000000
000000
000000
000000
,  // measure 36
000000
000000
000000
000000
300300
000000
011000
000000
100100
000000
100000
000100
001000
010000
100000
000000
,  // measure 37
000100
000000
011000
000000
110000
010100
001100
101000
,  // measure 38
110000
000000
100100
000000
010100
000000
000000
000000
010100
000000
100000
000100
000000
000000
011000
000000
,  // measure 39
000000
011000
100100
000000
000100
001000
100000
010000
,  // measure 40
010000
000000
010000
000000
000100
000000
000010
000000
000100
000010
001000
010000
000010
000000
001000
000000
,  // measure 41
000100
000000
000000
000000
000010
000000
000000
000000
001000
000100
000000
000000
000000
000000
000000
000000
000010
000000
000000
000000
000100
000000
000000
000000
010000
000000
000000
000000
001000
000000
000000
000000
,  // measure 42
001000
000000
010000
000000
000100
000000
000010
000000
000100
000010
001000
010000
000010
000000
001000
000000
,  // measure 43
000100
000000
000000
000000
000010
000000
000000
000000
001000
000100
000000
000000
000000
000000
000000
000000
011000
000000
000000
000000
000100
000000
000000
000000
000010
000000
000000
000000
010000
000000
000000
000000
,  // measure 44
000110
000100
001000
000010
000101
000010
001100
000001
,  // measure 45
001010
000100
000011
000110
000100
001000
000001
000010
,  // measure 46
000010
000000
000001
000000
001000
000000
000100
000000
001000
000100
000010
000001
000100
000000
000010
000000
,  // measure 47
001000
000000
000000
000000
000100
000000
000000
000000
000010
001000
000000
000000
000000
000000
000000
000000
000100
000000
000000
000000
001000
000000
000000
000000
000001
000000
000000
000000
000010
000000
000000
000000
,  // measure 48
000010
000000
000010
000000
010000
000000
001000
000000
010000
001000
000100
000010
001000
000000
000100
000000
,  // measure 49
010000
000000
000000
000000
001000
000000
000000
000000
000100
010000
000000
000000
000000
000000
000000
000000
010000
000000
000000
000000
000010
000000
000000
000000
010000
001000
000000
000000
000010
000100
000000
000000
,  // measure 50
000000
000000
000000
000000
010000
000000
000000
000000
000010
000100
000000
000000
010000
001000
000000
000000
000010
000000
000000
000000
000100
000000
001000
000000
000100
000000
000000
000000
010010
000000
000000
000000
,  // measure 51
000000
000000
000000
000000
010010
000000
000000
000000
001100
000000
000000
000000
000100
000010
000000
000000
001000
010000
000000
000000
000100
000000
000000
000000
000100
000000
000000
000000
000100
001000
000000
000000
,  // measure 52
001000
000100
000000
000000
100000
000000
000000
000000
100000
000000
000000
000000
000100
010000
000000
000000
100000
001000
000000
000000
000100
000000
000000
000000
000100
000000
000000
000000
001000
010000
000000
000000
,  // measure 53
010000
001000
000000
000000
000000
000000
000000
000000
000000
000000
000000
000000
000100
010000
000000
000000
100000
001000
000000
000000
000100
000000
000000
000000
000100
000000
000000
000000
100000
000100
000000
000000
,  // measure 54
000100
100000
000000
000000
000000
000000
000000
000000
000000
000000
000000
000000
001000
000100
000000
000000
010000
100000
000000
000000
001000
000000
000000
000000
001000
000000
000000
000000
001000
000100
000000
000000
,  // measure 55
001000
100000
000000
000000
100100
000000
000000
000000
000000
000000
000000
000000
000000
000000
000000
000000
000000
000000
000000
000000
000000
000000
000000
000000
000000
000000
000000
000000
000000
000000
000000
000000
;

//---------------dance-solo - ----------------
#NOTES:
     dance-solo:
     :
     Medium:
     7:
     0.416804,0.392279,0.135207,0.056929,0.007116,410.000000,391.000000,19.000000,8.000000,0.000000,0.000000,0.416804,0.392279,0.135207,0.056929,0.007116,410.000000,391.000000,19.000000,8.000000,0.000000,0.000000:
// measure 0
000000
000000
000000
000000
100000
010000
010000
010000
,  // measure 1
000100
001000
001000
001000
000100
010000
100000
001000
,  // measure 2
000100
001000
100000
000000
100000
001000
010000
001000
,  // measure 3
000100
010000
001000
010000
100000
001000
000100
001000
,  // measure 4
100000
000010
022000
033000
000010
000100
001000
010000
,  // measure 5
010000
001000
000100
000010
010000
000100
001000
010000
,  // measure 6
000100
000010
010000
000000
010000
001000
000100
000010
,  // measure 7
000010
000100
001000
010000
000010
001000
000100
001000
,  // measure 8
000010
000000
000000
000000
000000
000220
000000
000000
000330
000000
000000
000000
000000
000000
000000
000000
000001
000000
000000
000000
000100
000000
000000
000000
000100
000000
000000
000000
000010
000000
000000
000000
,  // measure 9
001000
000010
000010
000100
000001
000100
001000
000010
,  // measure 10
000001
000010
001000
000100
001000
000100
000010
000001
,  // measure 11
000001
000100
000010
001000
000001
000100
000100
000010
,  // measure 12
000001
001100
010000
000000
001000
000010
000100
001000
,  // measure 13
000010
000100
001000
000010
010000
001000
000010
000100
,  // measure 14
010000
000000
000000
000000
010000
001000
000100
001000
,  // measure 15
000010
010000
000010
000100
000010
010000
000010
001000
,  // measure 16
010000
000100
001000
100000
000100
001000
100000
010000
,  // measure 17
000100
001000
100000
000100
100000
000100
100000
001000
,  // measure 18
100000
000000
011000
000000
100100
000000
000000
200200
300300
000000
000000
000000
011000
000000
000000
000000
,  // measure 19
000100
100000
011000
000000
000100
010000
000100
010000
,  // measure 20
000000
010100
000110
000000
000010
000100
001000
010000
,  // measure 21
010000
001000
000100
000010
000100
010000
000010
010000
,  // measure 22
000100
000010
010000
000000
010000
001000
000100
000010
,  // measure 23
000010
000100
001000
010000
001000
000010
010000
000010
,  // measure 24
001000
001000
000001
000000
001000
000010
000010
000100
,  // measure 25
000001
000100
000100
000010
001000
000010
000001
000100
,  // measure 26
001000
000100
000001
000010
000001
000010
000100
001000
,  // measure 27
001000
000100
000010
000001
000010
001000
000001
001000
,  // measure 28
000010
000010
010000
000000
000010
000000
010000
000000
,  // measure 29
000010
000100
010000
000010
000100
010000
000100
010000
,  // measure 30
000100
010000
010000
010000
001000
000000
000100
000000
,  // measure 31
010000
000100
001000
010000
000010
000100
000010
000100
,  // measure 32
010000
010000
001000
100000
001000
000000
010000
000000
,  // measure 33
001000
010000
001000
010000
001000
000100
001000
100000
,  // measure 34
001100
010000
010000
010000
001000
000000
100000
000000
,  // measure 35
000100
001000
000100
100000
000100
200200
000000
000000
,  // measure 36
000000
000000
300300
011000
000100
000100
010000
000100
,  // measure 37
100000
000000
011000
000000
000100
100000
010000
000100
,  // measure 38
001000
100000
001000
000000
100000
000100
000000
011000
,  // measure 39
000000
001000
000100
000000
100000
010000
000100
001000
,  // measure 40
001000
000010
001000
010000
001000
000100
010000
000100
,  // measure 41
001000
010000
000100
000000
010000
001000
000010
000100
,  // measure 42
000100
000010
001000
010000
001000
000100
010000
000100
,  // measure 43
001000
010000
000100
000000
000110
001000
010000
000010
,  // measure 44
011000
000010
000001
000100
001000
000100
000011
001000
,  // measure 45
000100
000010
001000
000100
000010
000001
001000
000100
,  // measure 46
000100
001000
000001
000010
000001
000100
000010
000100
,  // measure 47
000001
000010
000100
000000
000010
000001
001000
000100
,  // measure 48
000100
010000
000010
000100
000010
001000
000100
001000
,  // measure 49
000010
000100
001000
000000
000010
010000
000010
010000
,  // measure 50
000000
000010
010000
000010
010000
001000
001000
010000
,  // measure 51
000000
000010
000100
001000
000100
001000
001000
001000
,  // measure 52
000100
000100
000100
100000
000100
100000
100000
010000
,  // measure 53
001000
000000
000000
100000
000100
100000
100000
000100
,  // measure 54
100000
000000
000000
010000
001000
010000
100000
000100
,  // measure 55
010000
100100
000000
000000
000000
000000
000000
000000
;

//---------------dance-solo - ----------------
#NOTES:
     dance-solo:
     :
     Easy:
     3:
     0.250083,0.313823,0.263298,0.056929,0.007116,246.000000,209.000000,37.000000,8.000000,0.000000,0.000000,0.250083,0.313823,0.263298,0.056929,0.007116,246.000000,209.000000,37.000000,8.000000,0.000000,0.000000:
// measure 0
000000
000000
100000
001000
,  // measure 1
000100
010000
000100
100000
,  // measure 2
000100
000100
100000
001000
,  // measure 3
000100
010000
000100
100000
,  // measure 4
000000
000000
002020
003030
010000
000000
000100
000000
,  // measure 5
000010
001000
000010
000100
,  // measure 6
001000
010010
000010
001000
,  // measure 7
010000
000100
010000
001000
,  // measure 8
010010
000000
000000
000000
000000
000220
000000
000000
000330
000000
000000
000000
000000
000000
000000
000000
000001
000000
000000
000000
000000
000000
000000
000000
000010
000000
000000
000000
000000
000000
000000
000000
,  // measure 9
001000
000100
000001
001000
,  // measure 10
000001
001000
000001
000100
,  // measure 11
001000
000100
001000
000010
,  // measure 12
001001
010000
000100
001000
,  // measure 13
011000
000110
000010
010000
,  // measure 14
010010
000000
000010
001000
,  // measure 15
010000
000010
010000
001000
,  // measure 16
000010
010000
100000
000100
,  // measure 17
100000
000100
100000
000100
,  // measure 18
100000
000000
000000
000000
100100
000000
000000
200200
300300
000000
000000
000000
011000
000000
000000
000000
,  // measure 19
100000
011000
100000
100000
,  // measure 20
000000
000010
010000
000000
010000
000000
000100
000000
,  // measure 21
000010
001000
001000
010000
,  // measure 22
001000
000010
000010
001000
,  // measure 23
010000
000100
000100
000010
,  // measure 24
000100
001000
001001
000100
,  // measure 25
001001
000010
001000
000001
,  // measure 26
001000
000001
001000
000010
,  // measure 27
000001
000100
000100
001000
,  // measure 28
000100
000010
010000
000010
,  // measure 29
010000
000010
001000
001000
,  // measure 30
001000
000010
000100
001000
,  // measure 31
000010
000100
010000
010000
,  // measure 32
000010
010000
010000
001000
,  // measure 33
010000
001000
010000
001000
,  // measure 34
110000
001000
010000
000100
,  // measure 35
100000
000000
100000
000000
000000
200200
000000
000000
,  // measure 36
000000
300300
100100
001000
,  // measure 37
000100
011000
110000
001100
,  // measure 38
110000
000000
010100
000000
010100
000000
000000
011000
,  // measure 39
000000
100100
000100
100000
,  // measure 40
010000
000100
000100
000010
,  // measure 41
000100
001000
000010
010000
,  // measure 42
001000
000100
000100
000010
,  // measure 43
000100
001000
011000
000010
,  // measure 44
000110
001000
000101
001100
,  // measure 45
001010
000011
000100
000001
,  // measure 46
000010
001000
001000
000100
,  // measure 47
001000
000010
000100
000001
,  // measure 48
000010
010000
010000
001000
,  // measure 49
010000
000100
010010
010010
,  // measure 50
000000
010010
010010
000100
,  // measure 51
000000
001100
001000
000100
,  // measure 52
001000
100000
100000
000100
,  // measure 53
010000
000000
100000
001000
,  // measure 54
000100
000000
010000
001000
,  // measure 55
000000
100100
000000
000000
000000
000000
000000
000000
;

//---------------dance-solo - ----------------
#NOTES:
     dance-solo:
     :
     Beginner:
     1:
     0.150456,0.215753,0.199253,0.014232,0.003558,148.000000,120.000000,28.000000,2.000000,0.000000,0.000000,0.150456,0.215753,0.199253,0.014232,0.003558,148.000000,120.000000,28.000000,2.000000,0.000000,0.000000:
// measure 0
000000
000000
100000
000000
,  // measure 1
000100
000000
001000
001000
,  // measure 2
001000
000000
100000
000000
,  // measure 3
000100
000000
010000
010000
,  // measure 4
000000
010000
010000
000000
,  // measure 5
000010
000000
000010
000000
,  // measure 6
000100
000000
000010
000000
,  // measure 7
010000
000000
010000
000000
,  // measure 8
001100
000000
000001
000000
,  // measure 9
001000
000000
000100
000100
,  // measure 10
000100
000000
001001
000000
,  // measure 11
001000
000000
001000
000000
,  // measure 12
001001
000000
000100
000000
,  // measure 13
001100
000000
000000
010010
,  // measure 14
010010
000000
000010
000000
,  // measure 15
010000
000000
010000
000000
,  // measure 16
000010
000000
100000
000000
,  // measure 17
000100
000000
100000
000000
,  // measure 18
100100
000000
000000
000000
100100
000000
000000
100100
000000
000000
000000
000000
011000
000000
000000
000000
,  // measure 19
000000
011000
000000
010000
,  // measure 20
000000
000100
000000
000000
010000
000000
000000
000000
,  // measure 21
000010
000000
001000
000000
,  // measure 22
001000
000000
000010
000000
,  // measure 23
010000
000000
000100
000000
,  // measure 24
000100
000000
001001
000000
,  // measure 25
001001
000000
001001
001001
,  // measure 26
001001
000000
001000
000000
,  // measure 27
000001
000000
000001
000001
,  // measure 28
000001
000000
010000
000000
,  // measure 29
000010
000000
001000
001000
,  // measure 30
001000
001000
000000
000000
000100
000000
000000
000000
,  // measure 31
000010
000000
010000
000000
,  // measure 32
000010
000000
010000
000000
,  // measure 33
001000
000000
010000
000000
,  // measure 34
011000
000000
000100
000000
,  // measure 35
100000
000000
200200
000000
,  // measure 36
000000
300300
100100
000000
,  // measure 37
011000
000000
001000
000000
,  // measure 38
010000
000000
000100
000000
,  // measure 39
000000
100000
000000
000000
000100
000000
000000
000000
,  // measure 40
010000
000000
000100
000000
,  // measure 41
000100
000000
000010
000000
,  // measure 42
001000
000000
000100
000000
,  // measure 43
000010
000000
010010
000000
,  // measure 44
000100
000000
000100
000100
,  // measure 45
000100
000000
000100
000000
,  // measure 46
000010
000000
001000
000000
,  // measure 47
001000
000000
000100
000000
,  // measure 48
000010
000000
010000
000000
,  // measure 49
000010
000000
010010
010010
,  // measure 50
000000
010010
010010
000000
,  // measure 51
000000
001100
000000
000100
,  // measure 52
000000
100000
000000
000100
,  // measure 53
000000
001000
000000
100100
,  // measure 54
000000
010000
000000
001000
,  // measure 55
000000
100100
000000
000000
000000
000000
000000
000000
;
