#TITLE:True...;
#SUBTITLE:(Trance Sunrise Mix);
#ARTIST:小坂りゆ;
#TITLETRANSLIT:;
#SUBTITLETRANSLIT:;
#ARTISTTRANSLIT:Riyu Kosaka;
#GENRE:;
#CREDIT:;
#BANNER:true... (Trance Sunrise Mix).png;
#BACKGROUND:true... (Trance Sunrise Mix)-bg.png;
#LYRICSPATH:;
#CDTITLE:;
#MUSIC:True... (Trance Sunrise Mix).mp3;
#OFFSET:-1.784000;
#SAMPLESTART:91.250000;
#SAMPLELENGTH:15.000000;
#SELECTABLE:YES;
#DISPLAYBPM:140.000000;
#BPMS:0.000000=140.000000
;
#STOPS:
;
#BGCHANGES:;
#KEYSOUNDS:;
#ATTACKS:;

//---------------dance-single - ----------------
#NOTES:
     dance-single:
     :
     Beginner:
     2:
     0.092764,0.280880,0.042283,0.012081,0.000000,215.000000,201.000000,14.000000,4.000000,0.000000,0.000000,0.092764,0.280880,0.042283,0.012081,0.000000,215.000000,201.000000,14.000000,4.000000,0.000000,0.000000:
// measure 0
0000
0000
0000
0000
,  // measure 1
0000
0000
0000
0000
,  // measure 2
0000
0000
0000
0000
,  // measure 3
0000
0000
0010
0010
,  // measure 4
0010
0000
0100
0100
,  // measure 5
0100
0000
0100
0100
,  // measure 6
0100
0000
0001
0001
,  // measure 7
0001
0000
1000
1000
,  // measure 8
1000
0000
0010
0010
,  // measure 9
0010
0000
1000
1000
,  // measure 10
1000
0000
0001
0001
,  // measure 11
0001
0000
0100
0100
,  // measure 12
0100
0000
0010
0010
,  // measure 13
0010
0000
0100
0100
,  // measure 14
0100
0000
0010
0010
,  // measure 15
0010
0000
0100
0100
,  // measure 16
0100
0000
1000
1000
,  // measure 17
1000
0000
0010
0010
,  // measure 18
0010
0000
0001
0001
,  // measure 19
0001
0000
0100
0100
,  // measure 20
0100
0000
0001
0001
,  // measure 21
0001
0001
0001
0000
,  // measure 22
1000
1000
1000
1000
,  // measure 23
1000
0000
0001
0001
,  // measure 24
0001
0000
0100
0100
,  // measure 25
0100
0100
0100
0000
,  // measure 26
0010
0010
0010
0010
,  // measure 27
0010
0010
0010
0000
,  // measure 28
1000
1000
1000
1000
,  // measure 29
0000
1000
1000
1000
,  // measure 30
1000
0000
0001
0001
,  // measure 31
0001
0000
0001
0001
,  // measure 32
0001
0000
1000
1000
,  // measure 33
1000
0000
0001
0001
,  // measure 34
0001
0000
0100
0100
,  // measure 35
0100
0000
0010
0010
,  // measure 36
0010
0000
1000
1000
,  // measure 37
1000
0000
0001
0001
,  // measure 38
0001
0000
0100
0100
,  // measure 39
0100
0000
0010
0010
,  // measure 40
0010
0000
1000
1000
,  // measure 41
1000
0000
0001
0001
,  // measure 42
0001
0000
0010
0010
,  // measure 43
0010
0000
0100
0100
,  // measure 44
0100
0000
1001
1001
,  // measure 45
0000
0010
0010
0000
,  // measure 46
1001
1001
0000
1000
,  // measure 47
1000
0000
1000
1000
,  // measure 48
1000
0000
0110
0110
,  // measure 49
0000
0001
0001
0000
,  // measure 50
1000
1000
0000
0010
,  // measure 51
0010
0000
2002
0000
,  // measure 52
0000
3003
0000
0100
,  // measure 53
0100
0000
0010
0010
,  // measure 54
0010
0000
1000
1000
,  // measure 55
1000
0000
0001
0001
,  // measure 56
0001
0000
0100
0100
,  // measure 57
0100
0000
1000
1000
,  // measure 58
1000
0000
0001
0001
,  // measure 59
0001
0000
0010
0010
,  // measure 60
0010
0000
0110
0110
,  // measure 61
0000
1000
1000
0000
,  // measure 62
0110
0110
0000
0000
,  // measure 63
0100
0100
0100
0100
,  // measure 64
0100
0000
1001
1001
,  // measure 65
0000
0010
0010
0000
,  // measure 66
0100
0100
0000
0001
,  // measure 67
0001
0000
0220
0000
,  // measure 68
0000
0000
0000
0000
,  // measure 69
0330
0000
0010
0010
,  // measure 70
0010
0000
0100
0100
,  // measure 71
0100
0000
0010
0010
,  // measure 72
0010
0010
0000
0000
,  // measure 73
0000
0000
0000
0000
,  // measure 74
0000
0000
0000
0000
,  // measure 75
0000
0000
0000
0000
,  // measure 76
0000
0000
0000
0000
,  // measure 77
0000
0000
0000
0000
,  // measure 78
0000
0000
0000
0000
,  // measure 79
0000
0000
0000
0000
,  // measure 80
0000
0000
0000
0000
,  // measure 81
0000
0000
0000
0000
,  // measure 82
0000
0000
0000
0000
,  // measure 83
0000
0000
0000
0000
,  // measure 84
0000
0000
0000
0000
,  // measure 85
0000
0000
0000
0000
,  // measure 86
0000
0000
0000
0000
,  // measure 87
0000
0000
0000
0000
,  // measure 88
0000
0000
0000
0000
,  // measure 89
0000
0000
0000
0000
,  // measure 90
0000
0000
0000
0000
,  // measure 91
0000
0000
0000
0000
,  // measure 92
0000
0000
0000
0000
,  // measure 93
0000
0000
0000
0000
,  // measure 94
0000
0000
0000
0000
,  // measure 95
0000
0000
0000
0000
,  // measure 96
0000
0000
0000
0000
,  // measure 97
0000
0000
0000
0000
,  // measure 98
0000
0000
0000
0000
,  // measure 99
0000
0000
0000
0000
,  // measure 100
0000
0000
0000
0000
,  // measure 101
0000
0000
0000
0000
,  // measure 102
0000
0000
0000
0000
,  // measure 103
0000
0000
0000
0000
,  // measure 104
0000
0000
0000
0000
,  // measure 105
0000
0000
0000
0000
,  // measure 106
0000
0000
0000
0000
,  // measure 107
0000
0000
0000
0000
,  // measure 108
0000
0000
0000
0000
,  // measure 109
0000
0000
0000
0000
,  // measure 110
0000
0000
0000
0000
,  // measure 111
0000
0000
0000
0000
,  // measure 112
0000
0000
0000
0000
,  // measure 113
0000
0000
0000
0000
,  // measure 114
0000
0000
0000
0000
,  // measure 115
0000
0000
0000
0000
,  // measure 116
0000
0000
0000
0000
,  // measure 117
0000
0000
0000
0000
,  // measure 118
0000
0000
0000
0000
,  // measure 119
0000
0000
0000
0000
,  // measure 120
0000
0000
0000
0000
,  // measure 121
0000
0000
0000
0000
,  // measure 122
0000
0000
0000
0000
,  // measure 123
0000
0000
0000
0000
,  // measure 124
0000
0000
0000
0000
,  // measure 125
0000
0000
0000
0000
,  // measure 126
0000
0000
0000
0000
,  // measure 127
0000
0000
0000
0000
,  // measure 128
0000
0000
0000
0000
,  // measure 129
0000
0000
0000
0000
,  // measure 130
0000
0000
0000
0000
,  // measure 131
0000
0000
0000
0000
,  // measure 132
0000
0000
0000
0000
,  // measure 133
0000
0000
0000
0000
,  // measure 134
0000
0000
0000
0000
,  // measure 135
0000
0000
0000
0000
,  // measure 136
0000
0000
0000
0000
,  // measure 137
0000
0000
0000
0000
,  // measure 138
0000
0000
0000
0000
,  // measure 139
0000
0000
0000
0000
,  // measure 140
0000
0000
0000
0000
,  // measure 141
0000
0000
0000
0000
,  // measure 142
0000
0000
0000
0000
,  // measure 143
0000
0000
0000
0000
,  // measure 144
0000
0000
0000
0000
,  // measure 145
0000
0000
0000
0000
,  // measure 146
0000
0000
0000
0000
,  // measure 147
0000
0000
0000
0000
,  // measure 148
0000
0000
0000
0000
,  // measure 149
0000
0000
0000
0000
,  // measure 150
0000
0000
0000
0000
,  // measure 151
0000
0000
0000
0000
,  // measure 152
0000
0000
0000
0000
,  // measure 153
0000
0000
0000
0000
,  // measure 154
0000
0000
0000
0000
,  // measure 155
0000
0000
0000
0000
,  // measure 156
0000
0000
0000
0000
,  // measure 157
0000
0000
0000
0000
,  // measure 158
0000
0000
0000
0000
,  // measure 159
0000
0000
0000
0000
,  // measure 160
0000
0000
0000
0000
,  // measure 161
0000
0000
0000
0000
,  // measure 162
0000
0000
0000
0000
,  // measure 163
0000
0000
0000
0000
,  // measure 164
0000
0000
0000
0000
,  // measure 165
0000
0000
0000
0000
,  // measure 166
0000
0000
0000
0000
,  // measure 167
0000
0000
0000
0000
,  // measure 168
0000
0000
0000
0000
,  // measure 169
0000
0000
0000
0000
,  // measure 170
0000
0000
0000
0000
,  // measure 171
0000
0000
0000
0000
,  // measure 172
0000
0000
0000
0000
,  // measure 173
0000
0000
0000
0000
,  // measure 174
0010
0000
0000
0000
,  // measure 175
0000
0000
0000
0000
,  // measure 176
0000
0000
0000
0000
,  // measure 177
0000
0000
0000
0000
,  // measure 178
0000
0000
0000
0000
,  // measure 179
0000
0000
0000
0000
,  // measure 180
0000
0000
0000
0000
,  // measure 181
0000
0000
0000
0000
,  // measure 182
0000
0000
0000
0000
,  // measure 183
0000
0000
0000
0000
,  // measure 184
0000
0000
0000
0000
,  // measure 185
0000
0000
0000
0000
,  // measure 186
0010
0000
0000
0000
;

//---------------dance-single - ----------------
#NOTES:
     dance-single:
     :
     Easy:
     4:
     0.084135,0.337056,0.027182,0.018121,0.000000,195.000000,186.000000,9.000000,6.000000,0.000000,0.000000,0.084135,0.337056,0.027182,0.018121,0.000000,195.000000,186.000000,9.000000,6.000000,0.000000,0.000000:
// measure 0
0000
0000
0000
0000
,  // measure 1
0000
0000
0000
0000
,  // measure 2
0000
0000
0000
0000
,  // measure 3
0000
0000
1000
0000
,  // measure 4
0100
0000
0001
0000
,  // measure 5
0100
0000
1000
0000
,  // measure 6
0100
0000
0100
0000
,  // measure 7
0100
0000
0001
0000
,  // measure 8
0100
0000
1000
0000
,  // measure 9
0100
0000
0100
0000
,  // measure 10
0100
0000
1000
1000
,  // measure 11
1000
0000
0001
0000
,  // measure 12
0100
0000
1000
0000
,  // measure 13
0100
0000
0010
0010
,  // measure 14
0001
0001
0100
0100
,  // measure 15
0100
0000
1001
0000
,  // measure 16
0100
0000
0001
0000
,  // measure 17
0100
0000
1000
0000
,  // measure 18
0100
0000
0001
0001
,  // measure 19
0001
0000
1001
0000
,  // measure 20
1001
0000
1000
0000
,  // measure 21
1000
0000
0001
0000
,  // measure 22
0100
0000
0010
0010
,  // measure 23
0010
0000
1000
0000
,  // measure 24
0100
0000
0001
0000
,  // measure 25
0100
0000
1000
1000
,  // measure 26
0010
0010
0100
0001
,  // measure 27
0100
0000
0002
0003
,  // measure 28
0100
0000
2000
3000
,  // measure 29
0100
0000
0020
0030
,  // measure 30
0100
0000
0020
0030
,  // measure 31
0100
0000
0001
0000
,  // measure 32
0100
0000
1000
0000
,  // measure 33
0100
0000
0001
0100
,  // measure 34
1000
0100
0001
0001
,  // measure 35
0001
0000
0000
1001
,  // measure 36
0100
0001
0100
1000
,  // measure 37
0100
0001
0100
1000
,  // measure 38
0000
0100
0000
0001
,  // measure 39
0000
0100
0000
0010
,  // measure 40
0010
0010
0000
0100
,  // measure 41
0100
0000
0000
0001
,  // measure 42
0000
1000
0000
0010
,  // measure 43
1000
0100
0000
0001
,  // measure 44
0000
0100
0100
0000
,  // measure 45
1000
1000
0100
0000
,  // measure 46
0010
0000
0001
0000
,  // measure 47
1000
1000
0100
0000
,  // measure 48
0001
0100
1000
0100
,  // measure 49
0001
0100
1000
0100
,  // measure 50
0001
0100
1000
0001
,  // measure 51
0000
1000
1000
0200
,  // measure 52
0000
0000
0300
0010
,  // measure 53
0000
0100
1000
0100
,  // measure 54
0001
0100
1000
0000
,  // measure 55
0100
0000
0001
0000
,  // measure 56
0100
0000
0010
0010
,  // measure 57
0010
0000
0100
0100
,  // measure 58
0000
0000
0001
0000
,  // measure 59
1000
0000
0010
1000
,  // measure 60
0100
0000
0001
0000
,  // measure 61
0100
0100
0000
1000
,  // measure 62
1000
0100
0000
0010
,  // measure 63
0000
0001
0000
1000
,  // measure 64
1000
0100
0000
0001
,  // measure 65
0100
1000
0100
0001
,  // measure 66
0100
1000
0100
0001
,  // measure 67
0100
1000
1000
1000
,  // measure 68
0200
0000
0000
0300
,  // measure 69
0010
0001
0100
1000
,  // measure 70
0100
0001
0010
1000
,  // measure 71
0010
0001
0100
1000
,  // measure 72
1001
1001
1001
0000
,  // measure 73
0000
0000
0000
0000
,  // measure 74
0000
0000
0000
0000
,  // measure 75
0000
0000
0000
0000
,  // measure 76
0000
0000
0000
0000
,  // measure 77
0000
0000
0000
0000
,  // measure 78
0000
0000
0000
0000
,  // measure 79
0000
0000
0000
0000
,  // measure 80
0000
0000
0000
0000
,  // measure 81
0000
0000
0000
0000
,  // measure 82
0000
0000
0000
0000
,  // measure 83
0000
0000
0000
0000
,  // measure 84
0000
0000
0000
0000
,  // measure 85
0000
0000
0000
0000
,  // measure 86
0000
0000
0000
0000
,  // measure 87
0000
0000
0000
0000
,  // measure 88
0000
0000
0000
0000
,  // measure 89
0000
0000
0000
0000
,  // measure 90
0000
0000
0000
0000
,  // measure 91
0000
0000
0000
0000
,  // measure 92
0000
0000
0000
0000
,  // measure 93
0000
0000
0000
0000
,  // measure 94
0000
0000
0000
0000
,  // measure 95
0000
0000
0000
0000
,  // measure 96
0000
0000
0000
0000
,  // measure 97
0000
0000
0000
0000
,  // measure 98
0000
0000
0000
0000
,  // measure 99
0000
0000
0000
0000
,  // measure 100
0000
0000
0000
0000
,  // measure 101
0000
0000
0000
0000
,  // measure 102
0000
0000
0000
0000
,  // measure 103
0000
0000
0000
0000
,  // measure 104
0000
0000
0000
0000
,  // measure 105
0000
0000
0000
0000
,  // measure 106
0000
0000
0000
0000
,  // measure 107
0000
0000
0000
0000
,  // measure 108
0000
0000
0000
0000
,  // measure 109
0000
0000
0000
0000
,  // measure 110
0000
0000
0000
0000
,  // measure 111
0000
0000
0000
0000
,  // measure 112
0000
0000
0000
0000
,  // measure 113
0000
0000
0000
0000
,  // measure 114
0000
0000
0000
0000
,  // measure 115
0000
0000
0000
0000
,  // measure 116
0000
0000
0000
0000
,  // measure 117
0000
0000
0000
0000
,  // measure 118
0000
0000
0000
0000
,  // measure 119
0000
0000
0000
0000
,  // measure 120
0000
0000
0000
0000
,  // measure 121
0000
0000
0000
0000
,  // measure 122
0000
0000
0000
0000
,  // measure 123
0000
0000
0000
0000
,  // measure 124
0000
0000
0000
0000
,  // measure 125
0000
0000
0000
0000
,  // measure 126
0000
0000
0000
0000
,  // measure 127
0000
0000
0000
0000
,  // measure 128
0000
0000
0000
0000
,  // measure 129
0000
0000
0000
0000
,  // measure 130
0000
0000
0000
0000
,  // measure 131
0000
0000
0000
0000
,  // measure 132
0000
0000
0000
0000
,  // measure 133
0000
0000
0000
0000
,  // measure 134
0000
0000
0000
0000
,  // measure 135
0000
0000
0000
0000
,  // measure 136
0000
0000
0000
0000
,  // measure 137
0000
0000
0000
0000
,  // measure 138
0000
0000
0000
0000
,  // measure 139
0000
0000
0000
0000
,  // measure 140
0000
0000
0000
0000
,  // measure 141
0000
0000
0000
0000
,  // measure 142
0000
0000
0000
0000
,  // measure 143
0000
0000
0000
0000
,  // measure 144
0000
0000
0000
0000
,  // measure 145
0000
0000
0000
0000
,  // measure 146
0000
0000
0000
0000
,  // measure 147
0000
0000
0000
0000
,  // measure 148
0000
0000
0000
0000
,  // measure 149
0000
0000
0000
0000
,  // measure 150
0000
0000
0000
0000
,  // measure 151
0000
0000
0000
0000
,  // measure 152
0000
0000
0000
0000
,  // measure 153
0000
0000
0000
0000
,  // measure 154
0000
0000
0000
0000
,  // measure 155
0000
0000
0000
0000
,  // measure 156
0000
0000
0000
0000
,  // measure 157
0000
0000
0000
0000
,  // measure 158
0000
0000
0000
0000
,  // measure 159
0000
0000
0000
0000
,  // measure 160
0000
0000
0000
0000
,  // measure 161
0000
0000
0000
0000
,  // measure 162
0000
0000
0000
0000
,  // measure 163
0000
0000
0000
0000
,  // measure 164
0000
0000
0000
0000
,  // measure 165
0000
0000
0000
0000
,  // measure 166
0000
0000
0000
0000
,  // measure 167
0000
0000
0000
0000
,  // measure 168
0000
0000
0000
0000
,  // measure 169
0000
0000
0000
0000
,  // measure 170
0000
0000
0000
0000
,  // measure 171
0000
0000
0000
0000
,  // measure 172
0000
0000
0000
0000
,  // measure 173
0000
0000
0000
0000
,  // measure 174
1001
0000
0000
0000
,  // measure 175
0000
0000
0000
0000
,  // measure 176
0000
0000
0000
0000
,  // measure 177
0000
0000
0000
0000
,  // measure 178
0000
0000
0000
0000
,  // measure 179
0000
0000
0000
0000
,  // measure 180
0000
0000
0000
0000
,  // measure 181
0000
0000
0000
0000
,  // measure 182
0000
0000
0000
0000
,  // measure 183
0000
0000
0000
0000
,  // measure 184
0000
0000
0000
0000
,  // measure 185
0000
0000
0000
0000
,  // measure 186
1001
0000
0000
0000
;

//---------------dance-single - ----------------
#NOTES:
     dance-single:
     :
     Medium:
     7:
     0.126418,0.477496,0.102687,0.066445,0.012081,293.000000,259.000000,34.000000,22.000000,0.000000,1.000000,0.126418,0.477496,0.102687,0.066445,0.012081,293.000000,259.000000,34.000000,22.000000,0.000000,1.000000:
// measure 0
0000
0000
0000
0000
,  // measure 1
0000
0000
0000
0000
,  // measure 2
0000
0000
0000
0000
,  // measure 3
0000
0000
0001
0001
,  // measure 4
1000
1000
0010
0010
,  // measure 5
1000
0100
1001
0100
,  // measure 6
0010
0001
0100
0000
1001
0000
0001
0000
,  // measure 7
1000
1000
0010
0010
,  // measure 8
1000
0100
1001
0100
,  // measure 9
0010
0001
0100
0000
1001
0000
0100
0000
,  // measure 10
0001
1000
0100
0000
1001
0000
0100
0000
,  // measure 11
1001
0100
0001
1000
,  // measure 12
0010
0100
1001
0100
,  // measure 13
0001
0100
1001
0100
,  // measure 14
1000
0100
0001
0001
,  // measure 15
1000
1000
0010
0010
,  // measure 16
0010
1000
0100
0000
0010
0000
1001
0000
,  // measure 17
1001
1001
0100
1001
,  // measure 18
1001
1001
0010
0100
,  // measure 19
0110
1001
0010
0100
,  // measure 20
2002
3003
0010
0100
,  // measure 21
1000
0100
0010
0100
,  // measure 22
0001
0100
0010
0100
,  // measure 23
1000
0100
0010
0100
,  // measure 24
0001
0100
1001
0100
,  // measure 25
0010
1000
0100
0000
1001
0000
0100
0000
,  // measure 26
0010
0001
0100
0000
1000
0100
1000
0000
,  // measure 27
0001
0100
0001
0000
0010
0000
1000
0000
,  // measure 28
0010
1000
0100
0000
0002
0000
0003
0100
,  // measure 29
0010
0000
0000
0000
2000
0000
3000
0100
,  // measure 30
0010
0000
0000
0000
0002
0000
0003
0100
,  // measure 31
0001
0000
0000
0000
2000
0000
3000
0100
,  // measure 32
1000
0000
0010
0010
,  // measure 33
0100
0100
1000
1000
,  // measure 34
0100
0100
0001
0100
,  // measure 35
1000
0000
0000
0000
0100
0000
0000
0000
0010
0000
0001
0000
0000
0001
0000
0001
,  // measure 36
0000
0000
1001
0100
,  // measure 37
0010
1000
0100
0000
1001
0000
0100
0000
,  // measure 38
0010
0001
0100
0000
1000
0000
0100
0000
,  // measure 39
0001
0100
0000
0000
,  // measure 40
1000
0000
0000
0000
1000
0000
0001
0000
0000
0000
1000
0000
0000
0100
0000
0000
,  // measure 41
0200
0000
0000
0300
,  // measure 42
0100
0001
0100
1000
,  // measure 43
0100
0001
0100
1000
,  // measure 44
0001
0000
0000
0001
0000
0000
0002
0000
0000
0000
0000
0000
0003
0000
0000
0000
,  // measure 45
2000
0000
0000
3000
,  // measure 46
0200
0000
0000
0300
,  // measure 47
1000
0100
0001
0100
,  // measure 48
1000
0000
0000
0000
1000
0000
0100
0000
0000
0000
0001
0000
0000
0001
0000
0000
,  // measure 49
0002
0000
0000
0003
,  // measure 50
0010
0100
0001
0100
,  // measure 51
2000
3000
0010
0100
,  // measure 52
0002
0000
0000
0003
,  // measure 53
0220
0000
1331
0000
0100
0000
0010
1000
,  // measure 54
0100
0000
1001
0000
0100
0000
0010
0001
,  // measure 55
0100
1000
0100
0001
,  // measure 56
0100
0000
0000
0000
1000
0000
0001
0000
0000
0000
1000
0000
0000
0100
0000
0000
,  // measure 57
0200
0000
0000
0300
,  // measure 58
0100
0001
0100
1000
,  // measure 59
0100
0001
0100
1000
,  // measure 60
0001
0000
0000
0001
0000
0000
0002
0000
0000
0000
0000
0000
0003
0000
0000
0000
,  // measure 61
2000
0000
0000
3000
,  // measure 62
0200
0000
0000
0300
,  // measure 63
1000
0100
0001
0100
,  // measure 64
1000
0000
0000
0000
1000
0000
0100
0000
0000
0000
0001
0000
0000
0001
0000
0000
,  // measure 65
0002
0000
0000
0003
,  // measure 66
0010
0100
0001
0100
,  // measure 67
2000
3000
0010
0100
,  // measure 68
0002
0000
0000
0003
,  // measure 69
0110
0110
1001
1001
,  // measure 70
0110
0110
1001
1001
,  // measure 71
1000
0100
0001
0000
1000
0100
0001
0100
,  // measure 72
1000
0010
0010
0010
0000
0000
0000
0000
,  // measure 73
0000
0000
0000
0000
,  // measure 74
0000
0000
0000
0000
,  // measure 75
0000
0000
0000
0000
,  // measure 76
0000
0000
0000
0000
,  // measure 77
0000
0000
0000
0000
,  // measure 78
0000
0000
0000
0000
,  // measure 79
0000
0000
0000
0000
,  // measure 80
0000
0000
0000
0000
,  // measure 81
0000
0000
0000
0000
,  // measure 82
0000
0000
0000
0000
,  // measure 83
0000
0000
0000
0000
,  // measure 84
0000
0000
0000
0000
,  // measure 85
0000
0000
0000
0000
,  // measure 86
0000
0000
0000
0000
,  // measure 87
0000
0000
0000
0000
,  // measure 88
0000
0000
0000
0000
,  // measure 89
0000
0000
0000
0000
,  // measure 90
0000
0000
0000
0000
,  // measure 91
0000
0000
0000
0000
,  // measure 92
0000
0000
0000
0000
,  // measure 93
0000
0000
0000
0000
,  // measure 94
0000
0000
0000
0000
,  // measure 95
0000
0000
0000
0000
,  // measure 96
0000
0000
0000
0000
,  // measure 97
0000
0000
0000
0000
,  // measure 98
0000
0000
0000
0000
,  // measure 99
0000
0000
0000
0000
,  // measure 100
0000
0000
0000
0000
,  // measure 101
0000
0000
0000
0000
,  // measure 102
0000
0000
0000
0000
,  // measure 103
0000
0000
0000
0000
,  // measure 104
0000
0000
0000
0000
,  // measure 105
0000
0000
0000
0000
,  // measure 106
0000
0000
0000
0000
,  // measure 107
0000
0000
0000
0000
,  // measure 108
0000
0000
0000
0000
,  // measure 109
0000
0000
0000
0000
,  // measure 110
0000
0000
0000
0000
,  // measure 111
0000
0000
0000
0000
,  // measure 112
0000
0000
0000
0000
,  // measure 113
0000
0000
0000
0000
,  // measure 114
0000
0000
0000
0000
,  // measure 115
0000
0000
0000
0000
,  // measure 116
0000
0000
0000
0000
,  // measure 117
0000
0000
0000
0000
,  // measure 118
0000
0000
0000
0000
,  // measure 119
0000
0000
0000
0000
,  // measure 120
0000
0000
0000
0000
,  // measure 121
0000
0000
0000
0000
,  // measure 122
0000
0000
0000
0000
,  // measure 123
0000
0000
0000
0000
,  // measure 124
0000
0000
0000
0000
,  // measure 125
0000
0000
0000
0000
,  // measure 126
0000
0000
0000
0000
,  // measure 127
0000
0000
0000
0000
,  // measure 128
0000
0000
0000
0000
,  // measure 129
0000
0000
0000
0000
,  // measure 130
0000
0000
0000
0000
,  // measure 131
0000
0000
0000
0000
,  // measure 132
0000
0000
0000
0000
,  // measure 133
0000
0000
0000
0000
,  // measure 134
0000
0000
0000
0000
,  // measure 135
0000
0000
0000
0000
,  // measure 136
0000
0000
0000
0000
,  // measure 137
0000
0000
0000
0000
,  // measure 138
0000
0000
0000
0000
,  // measure 139
0000
0000
0000
0000
,  // measure 140
0000
0000
0000
0000
,  // measure 141
0000
0000
0000
0000
,  // measure 142
0000
0000
0000
0000
,  // measure 143
0000
0000
0000
0000
,  // measure 144
0000
0000
0000
0000
,  // measure 145
0000
0000
0000
0000
,  // measure 146
0000
0000
0000
0000
,  // measure 147
0000
0000
0000
0000
,  // measure 148
0000
0000
0000
0000
,  // measure 149
0000
0000
0000
0000
,  // measure 150
0000
0000
0000
0000
,  // measure 151
0000
0000
0000
0000
,  // measure 152
0000
0000
0000
0000
,  // measure 153
0000
0000
0000
0000
,  // measure 154
0000
0000
0000
0000
,  // measure 155
0000
0000
0000
0000
,  // measure 156
0000
0000
0000
0000
,  // measure 157
0000
0000
0000
0000
,  // measure 158
0000
0000
0000
0000
,  // measure 159
0000
0000
0000
0000
,  // measure 160
0000
0000
0000
0000
,  // measure 161
0000
0000
0000
0000
,  // measure 162
0000
0000
0000
0000
,  // measure 163
0000
0000
0000
0000
,  // measure 164
0000
0000
0000
0000
,  // measure 165
0000
0000
0000
0000
,  // measure 166
0000
0000
0000
0000
,  // measure 167
0000
0000
0000
0000
,  // measure 168
0000
0000
0000
0000
,  // measure 169
0000
0000
0000
0000
,  // measure 170
0000
0000
0000
0000
,  // measure 171
0000
0000
0000
0000
,  // measure 172
0000
0000
0000
0000
,  // measure 173
0000
0000
0000
0000
,  // measure 174
1001
0000
0000
0000
,  // measure 175
0000
0000
0000
0000
,  // measure 176
0000
0000
0000
0000
,  // measure 177
0000
0000
0000
0000
,  // measure 178
0000
0000
0000
0000
,  // measure 179
0000
0000
0000
0000
,  // measure 180
0000
0000
0000
0000
,  // measure 181
0000
0000
0000
0000
,  // measure 182
0000
0000
0000
0000
,  // measure 183
0000
0000
0000
0000
,  // measure 184
0000
0000
0000
0000
,  // measure 185
0000
0000
0000
0000
,  // measure 186
1001
0000
0000
0000
;

//---------------dance-single - ----------------
#NOTES:
     dance-single:
     :
     Hard:
     11:
     0.515163,0.589056,0.223496,0.268799,0.305042,1194.000000,1120.000000,74.000000,89.000000,0.000000,0.000000,0.515163,0.589056,0.223496,0.268799,0.305042,1194.000000,1120.000000,74.000000,89.000000,0.000000,0.000000:
// measure 0
0000
0000
0000
0000
,  // measure 1
0000
0000
0000
0000
,  // measure 2
0000
0000
0000
0000
,  // measure 3
0000
0000
0000
0000
1000
0001
0100
0000
,  // measure 4
0001
0010
0100
0000
0001
0100
0100
1000
,  // measure 5
0100
0110
0001
1010
,  // measure 6
0010
0001
0001
0010
0001
1000
0100
0000
,  // measure 7
0010
0001
0100
0000
0010
1000
0100
0010
,  // measure 8
0001
0110
0001
0101
,  // measure 9
0010
1000
0001
0010
0100
0000
1100
0000
,  // measure 10
0010
0001
0100
0010
1000
0000
0101
0000
,  // measure 11
1000
0000
0110
0000
0001
0010
0100
1000
,  // measure 12
0010
0100
0001
0000
0010
0000
1100
0000
,  // measure 13
0001
0010
0100
1000
0001
0000
0110
0000
,  // measure 14
1000
0010
0100
0001
0010
0000
1100
0000
,  // measure 15
0001
0000
0110
0000
1000
0100
0001
0100
,  // measure 16
1000
0000
0000
0000
0110
0000
0000
0000
1001
0000
0000
0100
0010
0000
0001
0000
,  // measure 17
0100
0000
1000
0000
0100
0000
0001
0000
0110
0000
0000
0001
1000
0000
0100
0000
,  // measure 18
0010
0000
0001
0000
0100
0000
0001
0000
1010
0000
0000
0010
0100
0000
0001
0000
,  // measure 19
0010
0000
0100
0000
1000
0000
0001
0000
0110
0000
0000
1000
0100
0000
0010
0000
,  // measure 20
0001
0000
0100
0000
0001
0000
0000
0000
1100
0000
0000
0001
0100
0000
0010
0000
,  // measure 21
0000
0000
1000
0000
0000
0000
0100
0000
1001
0000
0000
0100
0001
0000
0010
0000
,  // measure 22
0000
0100
0000
0001
0200
0000
0300
0010
,  // measure 23
0000
0000
1000
0000
0000
0000
0100
0000
0010
0000
0000
0001
0100
0000
0010
0000
,  // measure 24
0000
0000
1000
0000
0000
0000
0100
0000
1001
0000
0000
0010
0100
0000
0001
0000
,  // measure 25
0000
0000
1000
0000
0000
0000
0010
0000
0110
0000
0000
0001
0100
0000
0010
0000
,  // measure 26
0000
0000
0100
0000
0000
0000
1000
0000
0101
0000
0000
0010
1000
0000
0001
0000
,  // measure 27
0000
0000
0001
0000
0000
0000
0100
0000
1001
0000
0000
0010
0100
0000
0001
0000
,  // measure 28
0000
1000
0000
1000
0100
0010
0001
0100
,  // measure 29
0010
1000
0100
0000
1000
0010
0100
0001
,  // measure 30
0010
0100
1000
0000
0001
0100
1000
0100
,  // measure 31
0001
1000
0100
0000
0010
0001
0100
1000
,  // measure 32
0100
0001
0010
0000
0001
0100
0001
1000
,  // measure 33
0010
0100
0001
0000
0010
1000
0100
0001
,  // measure 34
0100
1000
0010
0000
0100
0001
0010
0100
,  // measure 35
1000
0010
0001
0010
1000
0100
0010
0001
,  // measure 36
0200
0000
0000
0000
0301
1000
0001
1000
0000
0000
0000
1000
0100
0000
0000
0100
,  // measure 37
0001
0000
0000
0001
0100
0000
0000
0100
1000
0000
0000
1000
0010
0000
0000
0010
,  // measure 38
0001
0000
0000
0001
0010
0000
0000
0010
1000
0000
0000
1000
0100
0000
0000
0100
,  // measure 39
0010
0000
0000
0010
0001
0000
0000
0001
0010
0000
0000
0010
1000
0000
0000
1000
,  // measure 40
0010
0000
0000
0010
0001
0000
0000
0001
0100
0000
0000
0100
1000
0000
0000
1000
,  // measure 41
0100
0000
0000
0100
0001
0000
0000
0001
0010
0000
0000
0010
0100
0000
0000
0100
,  // measure 42
1000
0000
0000
1000
0001
0000
0000
0001
1000
0000
0000
1000
0010
0000
0000
0010
,  // measure 43
0100
0000
0000
0100
0001
0000
0000
0000
1000
0000
0000
1000
0000
0000
2000
0000
,  // measure 44
0000
0000
3000
0000
0010
1000
0001
0010
,  // measure 45
0100
1000
0002
0000
0103
0010
1000
0100
,  // measure 46
0010
0100
2000
0000
3010
0100
0001
0010
,  // measure 47
0100
1000
0002
0000
0013
0100
1000
0001
,  // measure 48
0100
0001
2000
0000
3010
0100
0002
0000
,  // measure 49
0013
0100
2000
0000
3010
0100
0001
0010
,  // measure 50
0100
1000
0002
0000
0013
0100
1000
0010
,  // measure 51
0100
0001
0010
0100
1000
0010
0100
0001
,  // measure 52
0010
0000
0000
0000
1000
0001
1000
0001
0000
0000
0000
0100
0010
0000
0000
0010
,  // measure 53
1000
0000
0000
1000
0010
0000
0000
0010
0100
0000
0000
0100
0001
0000
0000
0001
,  // measure 54
1000
0000
0000
1000
0001
0000
0000
0001
0100
0000
0000
0100
0010
0000
0000
0010
,  // measure 55
0001
0000
0000
0001
1000
0000
0000
1000
0001
0000
0000
0001
0100
0000
0000
0100
,  // measure 56
0001
0000
0000
0001
1000
0000
0000
1000
0010
0000
0000
0010
0100
0000
0000
0100
,  // measure 57
0010
0000
0000
0010
1000
0000
0000
1000
0001
0000
0000
0001
0010
0000
0000
0010
,  // measure 58
0100
0000
0000
0100
1000
0000
0000
1000
0100
0000
0000
0100
0001
0000
0000
0001
,  // measure 59
0010
0000
0000
0010
1000
0000
0000
0000
0100
0000
0000
0100
0000
0000
0200
0000
,  // measure 60
0000
0000
0300
0000
0100
1000
1000
0100
,  // measure 61
0001
0010
0002
0000
1003
0010
0010
1000
,  // measure 62
0100
1000
2000
0000
3010
0001
0010
0010
,  // measure 63
0010
1000
0002
0000
0103
1000
0010
0001
,  // measure 64
0010
0001
2000
0000
3001
0100
0002
0000
,  // measure 65
0103
0001
2000
0000
3000
0100
0100
0010
,  // measure 66
0010
1000
0002
0000
0003
0010
1000
0100
,  // measure 67
0100
1000
0010
0100
0010
0100
0001
0010
,  // measure 68
1000
0001
1000
0001
1000
0001
1000
0001
1000
0000
0100
0000
0010
0000
0001
0000
,  // measure 69
1000
0100
0010
0001
0001
0010
0100
1000
,  // measure 70
0001
0010
0100
1000
0010
0100
0001
1000
,  // measure 71
0100
0010
1000
0001
1000
0110
0110
0000
,  // measure 72
0000
0000
0001
0011
,  // measure 73
1000
0100
0001
1000
0010
0000
0110
0000
,  // measure 74
1000
0001
0010
1000
0100
0000
0011
0000
,  // measure 75
0100
0000
1010
0000
0001
1000
0010
0100
,  // measure 76
1000
0010
0001
0000
1000
0000
0110
0000
,  // measure 77
0001
1000
0010
0100
0001
0000
1010
0000
,  // measure 78
0100
1000
0010
0001
1000
0000
0110
0000
,  // measure 79
0001
0000
1010
0000
0100
0010
0001
0010
,  // measure 80
0100
0000
0000
0000
1010
0000
0000
0000
0101
0000
0000
0010
1000
0000
0001
0000
,  // measure 81
0010
0000
0100
0000
0010
0000
0001
0000
1010
0000
0000
0001
0100
0000
0010
0000
,  // measure 82
1000
0000
0001
0000
0010
0000
0001
0000
1100
0000
0000
1000
0010
0000
0001
0000
,  // measure 83
1000
0000
0010
0000
0100
0000
0001
0000
1010
0000
0000
0100
0010
0000
1000
0000
,  // measure 84
0001
0000
0010
0000
0001
0000
0000
0000
0110
0000
0000
0001
0010
0000
1000
0000
,  // measure 85
0000
0000
0100
0000
0000
0000
0010
0000
0101
0000
0000
0010
0001
0000
1000
0000
,  // measure 86
0000
0010
0000
0001
0010
0100
0001
1000
,  // measure 87
0010
0100
0001
0010
1000
1000
0010
1000
,  // measure 88
0010
0000
0000
0000
0001
0100
0001
0100
0001
0000
0000
0100
0010
0000
0000
0010
,  // measure 89
0001
0000
0000
0001
0010
0000
0000
0010
0100
0000
0000
0100
1000
0000
0000
1000
,  // measure 90
0001
0000
0000
0001
1000
0000
0000
1000
0100
0000
0000
0100
0010
0000
0000
0010
,  // measure 91
1000
0000
0000
1000
0001
0000
0000
0001
1000
0000
0000
1000
0100
0000
0000
0100
,  // measure 92
1000
0000
0000
1000
0001
0000
0000
0001
0010
0000
0000
0010
0100
0000
0000
0100
,  // measure 93
0010
0000
0000
0010
0001
0000
0000
0001
1000
0000
0000
1000
0010
0000
0000
0010
,  // measure 94
0100
0000
0000
0100
0001
0000
0000
0001
0100
0000
0000
0100
1000
0000
0000
1000
,  // measure 95
0010
0000
0000
0010
0001
0000
0000
0000
0100
0000
0000
0100
0000
0000
0200
0000
,  // measure 96
0000
0000
0300
0000
1000
0100
0001
1000
,  // measure 97
0010
0100
0002
0000
0013
1000
0100
0010
,  // measure 98
1000
0010
0200
0000
1300
0010
0001
1000
,  // measure 99
0010
0100
0002
0000
1003
0010
0100
0001
,  // measure 100
0010
0001
0200
0000
1300
0010
0002
0000
,  // measure 101
1003
0010
0200
0000
1300
0010
0001
1000
,  // measure 102
0010
0100
0002
0000
1003
0010
0100
1000
,  // measure 103
0010
0001
1000
0010
0100
1000
0010
0001
,  // measure 104
1000
0000
2002
0000
,  // measure 105
0000
0000
3003
0220
,  // measure 106
0000
0000
0330
2020
,  // measure 107
0000
0000
0000
3030
,  // measure 108
2200
0000
0000
0000
0000
3300
0000
0202
,  // measure 109
0000
0000
0000
0000
,  // measure 110
0000
0000
0000
0000
0000
0000
0000
0000
0303
0000
0000
0000
0000
0220
0000
0000
,  // measure 111
0000
0000
0000
0000
0000
0330
0000
1000
,  // measure 112
0001
0000
1000
0000
0010
0000
0100
0010
0000
0000
0000
0000
0000
0000
0001
1000
,  // measure 113
0001
0000
0100
0000
0010
0000
0100
0010
0000
0000
0000
0000
0000
0000
0001
0010
,  // measure 114
0001
1000
0010
0200
0000
0010
0000
0310
,  // measure 115
0000
0000
1100
0000
0000
0000
0101
0000
0000
0000
0110
0000
0000
0000
0100
0010
,  // measure 116
0100
0000
0001
0000
1000
0000
0100
0010
0000
0000
0000
0000
0000
0000
1000
0100
,  // measure 117
1000
0000
0001
0000
0010
0000
0100
1000
0000
0000
0000
0000
0000
0000
0100
0010
,  // measure 118
0100
0000
0010
0000
0010
0000
0100
0020
0000
0000
0000
0000
0100
0000
0000
0000
,  // measure 119
0100
0000
0100
0000
0130
0000
0000
0100
,  // measure 120
0010
0000
0010
0000
0010
0000
0100
0010
0000
0000
0000
0000
0000
0000
0001
0100
,  // measure 121
0001
0000
0010
0000
1000
0000
0010
1000
0000
0000
0000
0000
0000
0000
1000
0001
,  // measure 122
1000
0000
0001
0000
0001
0000
1000
0002
0000
0000
0100
0000
0000
0000
0103
0000
,  // measure 123
0000
0000
0100
0000
0010
0000
0001
0000
0000
0000
1000
0000
0100
0000
0010
0100
,  // measure 124
0010
0000
0001
0000
0100
0000
0001
0100
0000
0000
0000
0000
0000
0000
0001
1000
,  // measure 125
0001
0000
0010
0000
0001
0000
0010
0100
0000
0000
0000
0000
0000
0000
0100
0001
,  // measure 126
0100
0100
1000
1000
0000
0001
0220
0000
,  // measure 127
0000
0330
1001
0110
,  // measure 128
1001
0000
0000
0000
0010
1000
0010
1000
0010
0000
0000
1000
0100
0000
0000
0100
,  // measure 129
0010
0000
0000
0010
0100
0000
0000
0100
1000
0000
0000
1000
0001
0000
0000
0001
,  // measure 130
0010
0000
0000
0010
0001
0000
0000
0001
1000
0000
0000
1000
0100
0000
0000
0100
,  // measure 131
0001
0000
0000
0001
0010
0000
0000
0010
0001
0000
0000
0001
1000
0000
0000
1000
,  // measure 132
0001
0000
0000
0001
0010
0000
0000
0010
0100
0000
0000
0100
1000
0000
0000
1000
,  // measure 133
0100
0000
0000
0100
0010
0000
0000
0010
0001
0000
0000
0001
0100
0000
0000
0100
,  // measure 134
1000
0000
0000
1000
0010
0000
0000
0010
1000
0000
0000
1000
0001
0000
0000
0001
,  // measure 135
0100
0000
0000
0100
0010
0000
0000
0000
1000
0000
0000
1000
0000
0000
2000
0000
,  // measure 136
0000
0000
3000
0000
0001
1000
0010
0001
,  // measure 137
0100
1000
0020
0000
0130
0001
1000
0100
,  // measure 138
0001
0100
2000
0000
3001
0100
0010
0001
,  // measure 139
0100
1000
0020
0000
0031
0100
1000
0010
,  // measure 140
0100
0010
2000
0000
3001
0100
0020
0000
,  // measure 141
0031
0100
2000
0000
3001
0100
0010
0001
,  // measure 142
0100
1000
0020
0000
0031
0100
1000
0001
,  // measure 143
0100
0010
0001
0100
1000
0001
0100
0010
,  // measure 144
0001
0000
0000
0000
1000
0010
1000
0010
1000
0000
0000
0100
0001
0000
0000
0001
,  // measure 145
1000
0000
0000
1000
0001
0000
0000
0001
0100
0000
0000
0100
0010
0000
0000
0010
,  // measure 146
1000
0000
0000
1000
0010
0000
0000
0010
0100
0000
0000
0100
0001
0000
0000
0001
,  // measure 147
0010
0000
0000
0010
1000
0000
0000
1000
0010
0000
0000
0010
0100
0000
0000
0100
,  // measure 148
0010
0000
0000
0010
1000
0000
0000
1000
0001
0000
0000
0001
0100
0000
0000
0100
,  // measure 149
0001
0000
0000
0001
1000
0000
0000
1000
0010
0000
0000
0010
0001
0000
0000
0001
,  // measure 150
0100
0000
0000
0100
1000
0000
0000
1000
0100
0000
0000
0100
0010
0000
0000
0010
,  // measure 151
0001
0000
0000
0001
1000
0000
0000
0000
0100
0000
0000
0100
0000
0000
0200
0000
,  // measure 152
0000
0000
0300
0000
0100
1000
1000
0100
,  // measure 153
0010
0001
0020
0000
1030
0001
0001
1000
,  // measure 154
0100
1000
2000
0000
3001
0010
0001
0001
,  // measure 155
0001
1000
0020
0000
0130
1000
0001
0010
,  // measure 156
0001
0010
2000
0000
3010
0100
0020
0000
,  // measure 157
0130
0010
2000
0000
3000
0100
0100
0001
,  // measure 158
0001
1000
0020
0000
0030
0001
1000
0100
,  // measure 159
0100
1000
0001
0100
0001
0100
0010
0001
,  // measure 160
1000
0010
1000
0010
1000
0010
1000
0010
2000
0000
0000
0000
0100
0000
0000
0000
,  // measure 161
0001
0100
3002
0100
,  // measure 162
1000
0100
1000
0023
,  // measure 163
1000
0001
1000
0001
,  // measure 164
0230
0000
0000
0000
0300
0000
0000
0000
1100
0000
0000
0101
0000
0000
2002
0000
,  // measure 165
0000
0000
0000
0000
3003
0000
0000
0000
0101
0000
0000
1100
0000
0000
2002
0000
,  // measure 166
0000
0000
3003
0020
,  // measure 167
0001
1000
0100
0001
,  // measure 168
0100
1000
0001
0230
,  // measure 169
1000
0001
0010
0302
,  // measure 170
0010
1000
0010
0203
,  // measure 171
1000
1000
0001
0320
,  // measure 172
1000
0000
0000
0000
0031
0000
0000
0000
1010
0000
0000
0011
0000
0000
0220
0000
,  // measure 173
0000
0000
0000
0000
0330
0000
0000
0000
0011
0000
0000
1010
0000
0000
0220
0000
,  // measure 174
0000
0000
0330
2010
,  // measure 175
0001
0010
3001
0210
,  // measure 176
0010
0310
2001
0010
,  // measure 177
0100
0001
3100
0020
,  // measure 178
0100
1000
1030
0002
,  // measure 179
0100
0010
0100
2000
,  // measure 180
0000
0000
0000
0000
3003
0000
0000
0000
0110
0000
0000
0110
0000
0000
0220
0000
,  // measure 181
0000
0000
0000
0000
0330
0000
0000
0000
1001
0000
0000
1001
0000
0000
2002
0000
,  // measure 182
0000
0000
3003
0200
,  // measure 183
0001
0001
1000
0320
,  // measure 184
1000
1000
0001
0230
,  // measure 185
0010
0010
0310
1001
;

//---------------dance-double - ----------------
#NOTES:
     dance-double:
     :
     Easy:
     4:
     0.053932,0.067615,0.000000,0.006040,0.000000,125.000000,125.000000,0.000000,2.000000,0.000000,0.000000,0.053932,0.067615,0.000000,0.006040,0.000000,125.000000,125.000000,0.000000,2.000000,0.000000,0.000000:
00000000
00000000
00000000
00000000
,
00000000
00000000
00000000
00000000
,
00000000
00000000
00000000
00000000
,
00000000
00000000
00000000
00000000
,
10000000
00000000
01000000
00000000
,
00010000
00000000
00001000
00000000
,
00010000
00000000
01000000
00000000
,
00010000
00001000
00000100
00000000
,
00000001
00000000
00000100
00000000
,
00001000
00000000
00000100
00000000
,
00001000
00010000
01000000
00000000
,
10000000
00000000
00100000
00100000
,
00100000
10000000
01000000
00010000
,
00001000
00010000
01000000
10000000
,
00100000
10000000
01000000
00010000
,
00001000
00001000
00010000
00000100
,
00001000
00001000
00000010
00000100
,
00000001
00000001
00000010
00000100
,
00001000
00001000
00010000
00100000
,
01000000
00000000
01000000
00000000
,
10000000
00000000
01000000
01000000
,
00010000
00000000
00001000
00001000
,
00000100
00000000
00000001
00000000
,
00000100
00001000
00010000
00000000
,
10000000
00000000
01000000
00000000
,
00010000
00000000
00001000
00000000
,
00000100
00000000
00000001
00000000
,
00000010
00000000
00000100
00000100
,
00001000
00000000
00000100
00000000
,
00010000
00000000
00001000
00000000
,
00100000
00100000
01000000
01000000
,
10000000
10000000
10000000
00000000
,
10000000
01000000
00100000
00010000
,
00001000
00010000
00001000
00000100
,
00000001
00000001
00000010
00000010
,
00000100
00001000
00000001
00000100
,
00000100
00000000
00000000
00000000
,
00001000
00000000
00010000
00000000
,
00100000
00000000
10000000
00000000
,
01000000
00010000
00001000
00000000
,
00000010
00000000
00000100
00000000
,
00001000
00010000
01000000
00000000
,
00100000
00000000
01000000
00000000
,
00010000
00001000
00000100
00000000
,
00000001
00000000
00000000
00000000
,
00000100
00000000
00001000
00000000
,
00010000
01000000
10000000
00000000
,
00100000
10000000
01000000
00000000
,
00020000
00000000
00000000
00030000
,
00002000
00000000
00000000
00003000
;

//---------------dance-double - ----------------
#NOTES:
     dance-double:
     :
     Medium:
     9:
     0.106571,0.120205,0.072485,0.021142,0.000000,247.000000,223.000000,24.000000,7.000000,0.000000,0.000000,0.106571,0.120205,0.072485,0.021142,0.000000,247.000000,223.000000,24.000000,7.000000,0.000000,0.000000:
00000000
00000000
00000000
00000000
,
00000000
00000000
00000000
00000000
,
00000010
00000001
00000100
00001000
,
00010000
01000000
10000000
10000000
,
11000000
00100000
00001000
00010000
,
00001000
00000000
00000100
00000000
00000001
00001000
00000100
00000000
,
00010000
00001000
00000100
00000000
00001000
00010000
01000000
00000000
,
10000000
00010000
00100000
00011000
,
00000010
00001000
00000100
00000000
00000001
00000000
00000101
00000000
,
00001000
00000001
00000100
00000000
00001000
00000000
00011000
00000000
,
00100000
00010000
01000000
00000000
00100000
10000000
01000000
00000000
,
00010000
00000000
00001000
00000000
00001000
00000100
00000001
00000000
,
00000001
00000100
00001000
00010000
,
01000000
10000000
00010000
01000000
,
10000000
01000000
00010000
00001000
,
00000100
00000001
00001000
00000100
,
00000101
00000000
00001000
00000000
00001000
00000100
00000001
00000000
,
00000001
00000100
00001000
00000000
00001000
00010000
01000000
00000000
,
01000000
10000000
00100000
00000000
00100000
10000000
01000000
00000000
,
01000000
00010000
00001000
00000000
00001000
00000100
00000001
00000000
,
00001001
00000000
00000100
00000000
00001000
00010000
01000000
00000000
,
00011000
00000000
01000000
00000000
00010000
10000000
01000000
00000000
,
10010000
01000000
00011000
00000100
,
00001001
00000100
00011000
01000000
,
00100000
10000000
01000000
10000000
00010000
00000000
01010000
00000000
,
00001000
00010000
00001000
00000100
00000001
00000000
00001100
00000000
,
00000010
00000001
00000100
00001000
00010000
00000000
00010100
00000000
,
00001000
00010000
01000000
10000000
00100000
00000000
01010000
00000000
,
00100000
10000000
01000000
10000000
00010000
00000000
11000000
00000000
,
00010000
00001000
00000010
00000001
00000100
00000000
00001100
00000000
,
00000001
00000100
00001000
00000000
00001000
00010000
01000000
00000000
,
01000000
00010000
00001000
00000000
00011000
00000000
00010100
00000000
,
00000110
00000000
00000001
00000000
00000001
00001000
00000100
00000000
,
00010000
00000000
00001000
00000000
00001000
00010000
01000000
00000000
,
10000000
01000000
00010000
01000000
,
10000000
00000000
01000000
00000000
01000000
00010000
00001000
00000000
,
00001000
00000000
00000100
00000000
00000001
00000010
00000100
00000000
,
00000100
00010000
00001000
01000000
,
00100000
00100000
10000000
10000000
,
01000000
00000000
00010000
00000000
00001000
00000100
00000001
00000000
,
00001001
00000100
00011000
01000000
,
10010000
01000000
00011000
00000100
,
00000002
00000003
00000200
00000300
,
00001000
00010000
02000000
03000000
,
20000000
30000000
00200000
00300000
,
00010000
00001000
00000010
00000001
,
00000001
00001000
00000100
00000000
00010000
00001000
01000000
00000000
,
00100000
10000000
01000000
00010000
00001000
00010000
01000000
00000000
,
00020000
00000000
00000000
00030000
,
00002000
00000000
00000000
00003000
;

//---------------dance-double - ----------------
#NOTES:
     dance-double:
     :
     Hard:
     12:
     0.136773,0.142743,0.084566,0.042283,0.016611,317.000000,289.000000,28.000000,14.000000,0.000000,0.000000,0.136773,0.142743,0.084566,0.042283,0.016611,317.000000,289.000000,28.000000,14.000000,0.000000,0.000000:
00000000
00000000
00000000
00000000
,
00000000
00000000
00000000
00000000
,
00000010
00010000
00001000
00000000
00100000
00001000
00010000
00000000
,
00000010
00010000
00001000
00000100
00001000
00010000
01000000
00000000
,
10010000
00000000
01000000
00000000
11000000
00010000
00001000
00000000
,
00011000
00000000
00000100
00000000
00000101
00000010
00001000
00000000
,
00001001
00000100
00000010
00000000
00010010
00001000
00010000
00000000
,
00100000
10000000
01000000
00010000
00001000
00010000
01000000
00000000
,
10010000
00000000
01000000
00000000
00101000
00010000
00001000
00000000
,
00010010
00000000
00001000
00000000
00000011
00000100
00000010
00000000
,
00000001
00000100
00001000
00000000
00010000
00001000
00000100
00000000
,
00000001
00000010
00000001
00000100
00001000
00010000
01000000
00000000
,
20020000
30030000
10010000
01010000
,
02002000
03003000
00011000
00010010
,
00002020
00003030
00001010
00001001
,
00000202
00000303
00001000
00010000
,
01000000
00000000
10010000
00000000
00100000
10000000
01000000
00000000
,
00010000
00000000
00011000
00000000
00000010
00001000
00000100
00000000
,
00000002
00000000
00000003
00000100
00000000
00001000
00000000
00010000
,
02000000
00000000
03000000
00000000
10000000
00100000
00010000
00000000
,
00011000
00000000
01000000
00000000
01000000
00010000
00001000
00000000
,
00011000
00000000
00000100
00000000
00000100
00001000
00010000
00000000
,
00100000
10000000
01000000
00000000
00100000
00010000
01000000
00000000
,
00001000
00010000
00001000
00000100
00000001
00000010
00000100
00000000
,
00000001
00000000
00000010
00000100
00000000
00000001
00000100
00001000
,
00010000
00000000
01000000
10000000
00000000
00100000
00010000
00001000
,
00010000
00000000
00001000
00000100
00000000
00000001
00000010
00000100
,
00001000
00000001
00000100
00001000
00000000
00010000
01000000
10000000
,
00100000
00000000
10000000
01000000
00000000
00100000
00010000
00000000
,
00001000
00000000
00000100
00000001
00000000
00000010
00000100
00000001
,
00000100
00001000
00000010
00000100
00001000
00010000
01000000
10000000
,
00100000
00010000
00100000
10000000
02000000
00000000
03000000
00000000
,
00100000
10000000
01000000
00010000
00001000
00010000
01000000
00010000
,
00001000
00000000
00000100
00000000
00000001
00000000
00000010
00000000
00000100
00000000
00001000
00000000
00000001
00000000
00000100
00001000
,
00010000
01000000
10000000
00100000
00010000
00100000
10000000
01000000
,
00010000
00000000
00001000
00000000
00000010
00000000
00000001
00000000
00000100
00000000
00001000
00000000
00010000
00000000
00001000
00000100
,
00000001
00000000
00000010
00000000
00000100
00000000
00001000
00000000
00000010
00000100
00000001
00000000
00000100
00000000
00001000
00000000
,
00010000
00000000
01000000
00000000
00100000
00000000
00010000
00000000
10000000
00000000
01000000
00000000
00010000
00000000
00001000
00010000
,
00001000
00000100
00000001
00000010
00000100
00010000
00001000
00010000
,
01000000
00000000
10000000
00000000
00100000
00000000
00010000
00000000
00001000
00010000
00001000
00000000
00100000
00000000
01000000
00000000
,
10000000
00100000
01000000
00010000
00100000
01000000
00010000
00001000
,
00000100
00000000
00000001
00000000
00000010
00000000
00000100
00000000
00001000
00000000
00000001
00000000
00000100
00000000
00001000
00010000
,
00001000
00010000
01000000
10000000
00100000
00010000
00001000
00010000
,
00001000
00000000
00000100
00000000
00000001
00000000
00000010
00000000
00000100
00000000
00001000
00000000
00000010
00000000
00000000
00001000
,
00010000
00000000
00000000
00000000
01000000
00000000
00010000
10000000
00000000
00000000
01000000
00000000
00100000
00000000
00000000
00000000
,
00011000
00000000
00000000
00000000
00000100
00000000
00000001
00001000
00000010
00000000
00000000
00000000
00000100
00000000
00000000
00000000
,
00001001
00000000
00000000
00000000
00000100
00000000
00001000
00010000
00000000
00000000
01000000
00000000
10000000
00000000
00000000
00000000
,
10010000
00000000
00000000
00000000
00100000
00000000
00001000
00010000
00000000
00000000
00000010
00000000
00000100
00000000
00000000
00000000
,
00002020
00000000
00000000
00003030
,
00020000
00000000
00000000
00030000
;
