#TITLE:Memeshikute;
#SUBTITLE:;
#ARTIST:Golden Bomber;
#TITLETRANSLIT:Memeshikute;
#SUBTITLETRANSLIT:;
#ARTISTTRANSLIT:Golden Bomber;
#GENRE:;
#CREDIT:;
#BANNER:Memeshikute.png;
#BACKGROUND:Memeshikute-bg.png;
#LYRICSPATH:Memeshikute.lrc;
#CDTITLE:;
#MUSIC:Golden Bomber - Memeshikute.mp3;
#OFFSET:0.314000;
#SAMPLESTART:58.993992;
#SAMPLELENGTH:15.000000;
#SELECTABLE:YES;
#DISPLAYBPM:143.000000;
#BPMS:0.000000=143.425995
,4.000000=143.001007
;
#STOPS:
;
#BGCHANGES:0.750=Golden Bomber - Memeshikute.avi=1.000=0=0=1===CrossFade_Fastest==,
99999=-nosongbg-=1.000=0=0=0 // don't automatically add -songbackground-
;
#KEYSOUNDS:;
#ATTACKS:;

//---------------dance-single - ----------------
#NOTES:
     dance-single:
     :
     Beginner:
     1:
     0.129441,0.199609,0.064148,0.000000,0.000000,226.000000,210.000000,16.000000,0.000000,0.000000,0.000000,0.129441,0.199609,0.064148,0.000000,0.000000,226.000000,210.000000,16.000000,0.000000,0.000000,0.000000:
0000
0000
0000
0000
,
0000
0000
0000
0000
,
0000
0000
0001
0000
,
0000
0000
1000
0000
,
0000
0000
0001
0000
,
0000
0000
1000
0000
,
0000
0000
0010
0000
,
0000
0000
0100
0000
,
0000
0000
0010
0000
,
0000
0000
0100
0000
,
0000
0000
0001
0000
,
0000
0000
0001
0000
,
0000
0000
1000
0000
,
0000
0000
1000
0000
,
0000
0000
0001
0000
,
0000
0000
0001
0000
,
0000
0000
1000
0000
,
0000
0000
1000
0000
,
0000
0000
0010
0000
,
0010
0000
0010
0000
,
0000
0000
0001
0000
,
0001
0000
0001
0000
,
0000
0000
0100
0000
,
0100
0000
0100
0000
,
0000
0000
1000
0000
,
1000
0000
1000
0000
,
0000
0000
0001
0000
,
0001
0000
1000
0000
,
1000
0000
0001
0000
,
0001
0000
1000
0000
,
1000
0000
0001
0000
,
0001
0000
1000
0000
,
1000
0000
0001
0000
,
0001
0000
1000
0000
,
1000
0000
0001
0000
,
0000
0000
1001
0000
,
0000
0000
0010
0000
,
0010
0000
1001
0000
,
0000
0000
0010
0000
,
0010
0000
1001
0000
,
0000
0000
0010
0000
,
0010
0000
0001
0000
,
0001
0000
1000
0000
,
0000
0000
1000
0000
,
0000
0000
0001
0000
,
0000
0000
1000
0000
,
0000
0000
0001
0000
,
0000
0000
0100
0000
,
0000
0000
0010
0000
,
0000
0000
0100
0000
,
0000
0000
0010
0000
,
0000
0000
0110
0000
,
0000
0000
1001
0000
,
0000
0000
1000
0000
,
0000
0000
1000
0000
,
0000
0000
0001
0000
,
0000
0000
0001
0000
,
0000
0000
1000
0000
,
0000
0000
1000
0000
,
0000
0000
0001
0000
,
0000
0000
0001
0000
,
0000
0000
0100
0000
,
0100
0000
0100
0000
,
0000
0000
1000
0000
,
1000
0000
1000
0000
,
0000
0000
0010
0000
,
0010
0000
0010
0000
,
0000
0000
0001
0000
,
0001
0000
0001
0000
,
0000
0000
1000
0000
,
1000
0000
0001
0000
,
0001
0000
1000
0000
,
1000
0000
0001
0000
,
0001
0000
1000
0000
,
1000
0000
0001
0000
,
0001
0000
1000
0000
,
1000
0000
0001
0000
,
0001
0000
1000
0000
,
0000
0000
1001
0000
,
0000
0000
0100
0000
,
0100
0000
1001
0000
,
0000
0000
0100
0000
,
0100
0000
1001
0000
,
0000
0000
0100
0000
,
0100
0000
1000
0000
,
1000
0000
0001
0000
,
0000
0000
1000
0000
,
0000
0000
0001
0000
,
0000
0000
1000
0000
,
0000
0000
0010
0000
,
0000
0000
0100
0000
,
0000
0000
0001
0000
,
0000
0000
0100
0000
,
0000
0000
0001
0000
,
0000
0000
0100
0000
,
0000
0000
1000
0000
,
0000
0000
1001
0000
,
0000
0000
0110
0000
,
0000
0000
0110
0000
,
0000
0000
1001
0000
,
0000
0000
1000
0000
,
0100
0000
0001
0000
,
0100
0000
1000
0000
,
0010
0000
0001
0000
,
0010
0000
1000
0000
,
0000
0000
1001
0000
,
0000
0000
0010
0000
,
0010
0000
0100
0000
,
0100
0000
0010
0000
,
0010
0000
0100
0000
,
0100
0000
0010
0000
,
0010
0000
0100
0000
,
0100
0000
0010
0000
,
0010
0000
0100
0000
,
0100
0000
0100
0000
,
0100
0000
0010
0000
,
0010
0000
0100
0000
,
0100
0000
0010
0000
,
0010
0000
0100
0000
,
0100
0000
0010
0000
,
0010
0000
0100
0000
,
0100
0000
0010
0000
,
0010
0000
0100
0000
,
0000
0000
1001
0000
,
0000
0000
0100
0000
,
0100
0000
1001
0000
,
0000
0000
0100
0000
,
0100
0000
1001
0000
,
0000
0000
0100
0000
,
0100
0000
1000
0000
,
1000
0000
0010
0000
,
0000
0000
1000
0000
,
0000
0000
0001
0000
,
0000
0000
1000
0000
,
0010
0000
0001
0000
,
0001
0000
1000
0000
,
1000
0000
0100
0000
,
0100
0000
0001
0001
,
0001
0000
1000
1000
,
1000
0000
0001
0001
,
0001
0000
1000
1000
,
1000
0000
0000
0000
0001
0000
0000
0001
,
0000
0001
0000
0000
;

//---------------dance-single - ----------------
#NOTES:
     dance-single:
     :
     Easy:
     4:
     0.237117,0.289666,0.040092,0.012028,0.000000,414.000000,404.000000,10.000000,3.000000,0.000000,0.000000,0.237117,0.289666,0.040092,0.012028,0.000000,414.000000,404.000000,10.000000,3.000000,0.000000,0.000000:
0000
0000
0000
0000
,
0000
0000
0000
0000
,
0000
0000
1000
0000
,
0100
0000
0001
0000
,
0100
0000
1000
0000
,
0010
0000
0001
0000
,
0010
0000
1000
0010
,
1000
0000
0001
0010
,
0001
0000
1000
0100
,
1000
0000
0001
0100
,
0001
0000
1000
0000
,
0010
0000
0100
0000
,
0001
0000
0001
0000
,
0010
0000
0100
0000
,
1000
0000
0010
0000
,
1000
0000
0001
0000
,
0010
0000
0010
0000
,
0001
0000
1000
0000
,
0010
0000
1000
0100
,
1000
0100
1000
0000
,
0100
0000
0001
0100
,
0001
0100
0001
0000
,
0100
0000
1000
0001
,
1000
0001
1000
0000
,
0001
0000
2000
0000
,
0000
3000
0010
0010
,
0010
0000
0001
1000
,
0001
0001
1000
0001
,
1000
1000
0001
1000
,
0001
0001
1000
0001
,
1000
1001
0001
1000
,
0001
0001
1000
0001
,
1000
1000
0001
1000
,
0001
0001
1000
0001
,
1000
1000
0001
0000
,
1000
0000
0000
0000
0010
0000
0000
0010
,
0000
0000
0001
0001
,
0100
0000
0000
0000
0010
0000
0000
0010
,
0000
0000
1000
1000
,
0100
0000
0000
0000
0010
0000
0000
0010
,
0000
0000
0001
0001
,
0100
0100
1000
1000
,
0010
0010
0001
0000
,
1000
0000
0001
0000
,
0010
0000
1000
0000
,
0010
0000
0001
0000
,
0100
0000
1000
0000
,
0100
0000
0001
0100
,
0001
0000
1000
0100
,
1000
0000
0001
0010
,
0001
0000
1000
0010
,
1000
0000
1000
0100
,
0001
0000
0001
0100
,
1000
0000
0001
0000
,
0100
0000
0010
0000
,
1000
0000
1000
0000
,
0100
0000
0010
0000
,
0001
0000
0100
0000
,
0001
0000
1000
0000
,
0100
0000
0100
0000
,
1000
0000
0001
0000
,
0100
0000
0001
0010
,
0001
0010
0001
0000
,
0010
0000
1000
0010
,
1000
0010
1000
0000
,
0010
0000
0001
1000
,
0001
1000
0001
0000
,
1000
0000
0002
0000
,
0000
0003
0100
0010
,
0100
0000
1000
0001
,
1000
1000
0001
1000
,
0001
0001
1000
0001
,
1000
1000
0001
1000
,
0001
1001
1000
0001
,
1000
1000
0001
1000
,
0001
0001
1000
0001
,
1000
1000
0001
1000
,
0001
0001
1000
0000
,
0001
0000
0000
0000
0100
0000
0000
0100
,
0000
0000
1000
1000
,
0010
0000
0000
0000
0100
0000
0000
0100
,
0000
0000
0001
0001
,
0010
0000
0000
0000
0100
0000
0000
0100
,
0000
0000
1000
1000
,
0010
0010
0001
0001
,
0100
0100
1000
0000
,
0001
0000
0100
0000
,
1000
0000
0001
0000
,
1000
0000
0100
0000
,
0010
0000
0001
0000
,
0010
0000
0100
0010
,
0100
0000
0001
0010
,
0001
0000
0100
1000
,
0100
0000
0001
1000
,
0001
0000
0010
1000
,
0010
0000
0100
0001
,
0100
0000
1000
0100
,
0001
0100
1000
0000
,
0110
0000
0001
0010
,
1000
0010
0001
0000
,
0110
0000
1000
0000
,
1100
0000
0001
0000
,
0101
0000
0100
0000
,
0110
0000
0001
0000
,
1001
0000
1000
0100
,
0010
0001
0010
0100
,
1000
0000
0010
0100
,
0010
0010
0100
0010
,
0100
0100
0010
0100
,
0010
0010
0100
0010
,
0100
0110
0010
0100
,
0010
0010
0100
0010
,
0100
0100
0010
0100
,
0010
0010
0100
0010
,
0100
0100
0100
0010
,
0100
0100
0010
0100
,
0010
0010
0100
0010
,
0100
0100
0010
0100
,
0010
0110
0100
0010
,
0100
0100
0010
0100
,
0010
0010
0100
0010
,
0100
0100
0010
0100
,
0010
0010
0100
0000
,
0010
0000
0000
0000
0100
0000
0000
0100
,
0000
0000
1000
1000
,
0001
0000
0000
0000
0100
0000
0000
0100
,
0000
0000
0010
0010
,
0001
0000
0000
0000
0100
0000
0000
0100
,
0000
0000
1000
1000
,
0001
0001
0010
0010
,
0100
0100
1000
0000
,
0010
0000
0000
0000
0010
0000
0000
0010
,
0000
0010
0010
0000
,
0100
0000
0001
0000
,
0100
0000
1000
0000
,
0100
0000
0001
0000
,
0010
0000
1000
0000
,
0010
0000
0001
0010
,
0001
0000
1000
0010
,
1000
0000
0001
0100
,
0001
0000
1000
0100
,
1000
0000
0000
0000
0001
0000
0000
1000
,
0000
0000
0001
0002
0000
0000
0000
0000
,
0000
0000
0000
0000
,
0000
0000
0003
0000
;

//---------------dance-single - ----------------
#NOTES:
     dance-single:
     :
     Medium:
     7:
     0.344220,0.376566,0.040092,0.084194,0.000000,601.000000,591.000000,10.000000,21.000000,0.000000,0.000000,0.344220,0.376566,0.040092,0.084194,0.000000,601.000000,591.000000,10.000000,21.000000,0.000000,0.000000:
0000
0000
0000
0000
,
0000
0000
0000
0000
,
0000
0000
0001
1000
,
0100
0010
0002
0100
,
1000
0103
1000
0001
,
0100
0010
2000
0100
,
0001
3100
0010
0010
,
0001
0100
0001
0000
0010
0000
0010
0000
,
1000
0100
1000
0000
0010
0000
0010
0000
,
0001
0100
0001
0000
0010
0000
1000
0000
,
0100
1000
0001
0010
,
0100
0010
1000
0010
,
0100
0010
0001
0100
,
1000
0100
0010
0001
,
0100
0010
1000
0010
,
0100
0010
0001
0010
,
0100
0010
1000
0100
,
0001
0100
0010
1000
,
0100
0010
0100
1000
,
0010
0001
0010
0000
,
0010
0001
1000
0000
0100
0000
0001
0000
,
0010
1000
0010
0000
,
0010
1000
0001
0000
2000
0000
0010
0000
,
0001
3100
0002
0010
,
1000
0103
2000
0000
,
0002
3003
0010
0100
,
0010
1001
1000
1000
,
0010
1000
0100
0000
0001
0000
0001
0000
,
0010
0001
0100
0000
0010
0000
0010
0000
,
0100
0010
0100
0000
0010
0000
1000
0000
,
0001
0110
1000
1000
,
0001
0100
0001
0000
0010
0000
0010
0000
,
0100
1000
0100
0000
0010
0000
0001
0000
,
0100
1000
0010
0001
,
0100
1000
0010
0000
,
0100
0000
0000
0000
0001
0000
0010
0001
,
0000
0010
0000
0000
0100
0000
1000
0000
,
0010
0000
0001
0000
0100
0000
0001
0100
,
0000
0001
0000
0000
0010
0000
1000
0000
,
0100
0000
0001
0000
0100
0000
0010
0100
,
0000
0010
0000
0000
0100
0000
1000
0000
,
0010
0001
0100
0001
,
0010
1000
0001
0000
,
1000
0000
1000
0001
,
0010
0100
2000
0010
,
0001
3010
0001
1000
,
0010
0100
0002
0010
,
1000
0013
0100
0100
,
1000
0010
1000
0000
0100
0000
0100
0000
,
0001
0010
0001
0000
0100
0000
0100
0000
,
1000
0010
1000
0000
0100
0000
0001
0000
,
0010
0000
0001
0000
1000
0100
1000
0000
,
0001
0100
0001
0000
1000
0001
1000
0000
,
0100
0010
0100
0000
1000
0000
0100
0000
,
0010
0100
0001
0100
,
0010
0100
1000
0010
,
0001
0010
0100
1000
,
0010
0100
0001
0100
,
0010
0100
1000
0100
,
0010
0100
0001
0010
,
1000
0010
0100
0001
,
0010
0100
0010
0001
,
0100
1000
0100
0000
,
0100
1000
0001
0000
0010
0000
1000
0000
,
0100
0001
0100
0000
,
0100
0001
1000
0000
0002
0000
0100
0000
,
1000
0013
2000
0100
,
0001
3010
0002
0000
,
2000
3003
0100
0010
,
0100
1001
0001
0001
,
0100
0001
0010
0000
1000
0000
1000
0000
,
0100
1000
0010
0000
0100
0000
0100
0000
,
0010
0100
0010
0000
0100
0000
0001
0000
,
1000
0110
0001
0001
,
1000
0010
1000
0000
0100
0000
0100
0000
,
0010
0001
0010
0000
0100
0000
1000
0000
,
0010
0001
0100
1000
,
0010
0001
0100
0000
,
0010
0000
0000
0000
1000
0000
0100
1000
,
0000
0100
0000
0000
0010
0000
0001
0000
,
0100
0000
1000
0000
0010
0000
1000
0010
,
0000
1000
0000
0000
0100
0000
0001
0000
,
0010
0000
1000
0000
0010
0000
0100
0010
,
0000
0100
0000
0000
0010
0000
0001
0000
,
0100
1000
0010
1000
,
0100
0001
1000
0000
,
1000
0000
1000
0010
,
0001
0100
2000
0001
,
0010
3001
0010
1000
,
0001
0100
0020
0001
,
1000
0031
0100
0100
,
1000
0001
1000
0000
0100
0000
0100
0000
,
0010
0001
0010
0000
0100
0000
0100
0000
,
1000
0001
1000
0000
0100
0000
0010
0000
,
0001
0000
0010
0000
0001
0010
0001
0000
,
1000
0010
1000
0000
0001
1000
0001
0000
,
0010
0100
0010
0000
1000
1000
1000
0000
,
0001
0001
0001
0000
0010
0010
0010
0000
,
0100
0100
0100
0000
1000
0000
1100
0000
,
0001
0000
0101
0000
1000
0100
1000
0000
,
0001
0100
0001
0000
0010
0000
1000
0000
,
0010
1000
0010
0000
0001
0000
0010
0000
,
0001
0010
0001
0000
0100
0000
0010
0000
,
0100
0010
0100
0000
1000
0000
0001
0000
,
1000
0001
1000
0000
2002
0000
0000
0000
,
0000
3003
0220
0000
,
0000
0330
0100
0100
,
1000
0100
0001
0000
0010
0000
0010
0000
,
1000
0010
0001
0000
1000
0000
1000
0000
,
0001
1000
0001
0000
1000
0000
0100
0000
,
0010
1001
0100
0100
,
0010
0001
0010
0000
1000
0000
1000
0000
,
0001
0100
0001
0000
1000
0000
0010
0000
,
0001
0100
1000
0010
,
0001
0100
0010
0010
,
0001
0010
1000
0000
0100
0000
0100
0000
,
0001
0100
1000
0000
0001
0000
0001
0000
,
1000
0001
1000
0000
0001
0000
0010
0000
,
0100
1001
0010
0010
,
0100
1000
0100
0000
0001
0000
0001
0000
,
1000
0010
1000
0000
0001
0000
0100
0000
,
1000
0010
0001
0100
,
1000
0010
0001
0000
,
1000
0000
0000
0000
1000
0000
0100
1000
,
0000
0100
0000
0000
0001
0000
0010
0000
,
0100
0000
1000
0000
0001
0000
1000
0001
,
0000
1000
0000
0000
0100
0000
0010
0000
,
0001
0000
1000
0000
0001
0000
0100
0001
,
0000
0100
0000
0000
0001
0000
0010
0000
,
0100
1000
0001
1000
,
0100
0010
1000
0000
,
0010
0000
0000
0000
0001
0000
1000
0001
,
0000
1000
0100
0000
0010
0000
0100
0000
,
0010
0010
1000
0001
,
0100
0010
2000
0100
,
0001
3100
0001
1000
,
0100
0010
0002
0100
,
1000
0103
0010
0010
,
1000
0100
1000
0000
0010
0000
0010
0000
,
0001
0100
0001
0000
0010
0000
0010
0000
,
1000
0100
1000
0000
0010
0000
0001
0000
,
0100
0000
1000
0000
0010
0000
0100
0010
,
0000
0100
0010
0020
0000
0000
0000
0000
,
0000
0000
0000
0000
,
0000
0000
0030
0000
;

//---------------dance-single - ----------------
#NOTES:
     dance-single:
     :
     Hard:
     11:
     0.497143,0.666232,0.228526,0.080184,0.218503,868.000000,811.000000,57.000000,20.000000,0.000000,0.000000,0.497143,0.666232,0.228526,0.080184,0.218503,868.000000,811.000000,57.000000,20.000000,0.000000,0.000000:
0000
0000
0000
0000
,
0000
0000
0000
0000
,
0000
0000
1000
0001
,
0010
0001
0100
0000
2100
0000
0010
0000
,
0001
3010
0001
1000
,
0010
1000
0100
0000
0102
0000
0010
0000
,
1000
0000
0013
0000
0100
1000
0100
0000
,
1000
0010
1000
0000
0010
0001
0010
0000
,
0001
0100
0001
0000
0100
1000
0100
0000
,
1000
0010
1000
0000
0010
0001
0010
0000
,
0001
0100
0001
0000
1000
0000
0100
0000
,
0010
0100
1000
0000
0001
0000
0100
0000
,
0010
0100
0001
0000
1000
0000
0010
0000
,
0100
0010
1000
0000
0001
0010
0100
0000
,
1000
0010
0100
0000
0001
0000
0100
0000
,
0010
0100
0001
0000
1000
0000
0100
0000
,
0010
0100
1000
0000
0001
0000
0010
0000
,
0100
0010
0001
0000
1000
0010
0100
0000
,
0001
0010
0100
0000
0010
0000
0001
0000
,
0100
0001
1000
0001
0100
0000
0010
0000
,
0100
0001
1000
0000
0010
0000
1000
0000
,
0100
1000
0001
1000
0100
0000
0010
0000
,
0100
1000
0001
0000
0020
0000
0001
0000
,
0100
0031
0200
0010
,
1000
0310
2000
0000
,
0002
0000
0000
0000
3003
0000
0000
0000
0100
0000
0000
0010
0000
0000
0100
0000
,
0010
0000
0000
0000
1001
0000
0000
0000
0101
0000
0000
0100
0001
0000
0000
0001
,
0100
0000
0001
0000
0100
0000
0000
0000
1100
0000
0000
0100
1000
0000
0000
1000
,
0100
0000
1000
0000
0100
0000
0000
0000
0110
0000
0000
0010
0100
0000
0000
0100
,
0010
0100
0010
0000
0001
1000
0010
0100
,
0001
0000
0000
0000
1100
0000
0000
0000
1010
0000
0000
0010
1000
0000
0000
1000
,
0010
0000
1000
0000
0010
0000
0000
0000
0011
0000
0000
0010
0001
0000
0000
0001
,
0010
0001
0010
0000
0100
1000
0100
0000
,
0010
0001
0010
0000
0100
0000
1000
0000
,
0010
0001
0100
0000
,
0010
0000
0000
0000
0000
0000
0000
0000
1000
0001
1000
0001
1000
0000
0100
0010
,
0100
0010
0100
0000
0000
0000
0000
0000
0010
0000
0000
0000
0001
0000
0000
0000
,
0100
0000
0000
0000
1000
0000
0000
0000
0010
0100
0010
0100
0010
0000
1000
0001
,
1000
0001
1000
0000
0000
0000
0000
0000
0100
0000
0000
0000
0001
0000
0000
0000
,
0010
0000
0000
0000
1000
0000
0000
0000
0010
1000
0010
1000
0010
0000
0100
0001
,
0100
0001
0100
0000
0000
0000
0000
0000
0010
0000
0000
0000
0001
0000
0000
0000
,
0100
1000
0010
1000
,
0100
0001
1000
0000
,
0001
0000
0000
0000
0000
0000
0000
0000
1000
0100
1000
0100
1000
0000
0001
0100
,
0001
0100
0001
0000
0100
0010
0100
0010
0100
0000
0000
0000
0010
0000
0000
0000
,
0100
0000
0000
0100
0000
0000
0100
0000
0001
0000
0000
0000
1000
0000
0000
0000
,
0010
1000
0100
0000
0102
0000
0010
0000
,
1000
0013
1000
0001
,
0010
0001
0100
0000
2100
0000
0010
0000
,
0001
0000
3010
0000
0100
0001
0100
0000
,
0001
0010
0001
0000
0010
1000
0010
0000
,
1000
0100
1000
0000
0100
0001
0100
0000
,
0001
0010
0001
0000
0010
1000
0010
0000
,
1000
0001
1000
0100
0010
0000
0001
0000
,
0010
0000
0100
0010
0001
0000
1000
0000
,
0010
0000
0100
0010
1000
0000
0001
0000
,
0100
0000
0010
0100
0001
0000
1000
0100
,
0010
0000
0001
0100
0010
0000
1000
0000
,
0010
0000
0100
0010
1000
0000
0001
0000
,
0010
0000
0100
0010
0001
0000
1000
0000
,
0100
0000
0010
0100
1000
0000
0001
0100
,
0010
0000
1000
0100
0010
0000
0100
0000
,
1000
0000
0010
1000
0001
1000
0010
0000
,
0100
0000
0010
1000
0001
0000
0001
0000
,
0010
0001
1000
0001
0010
0000
0100
0000
,
0010
0001
1000
0000
0200
0000
1000
0000
,
0010
1300
0020
0100
,
0001
0130
0002
0000
,
2000
0000
0000
0000
3003
0000
0000
0000
0010
0000
0000
0100
0000
0000
0010
0000
,
0100
0000
0000
0000
1001
0000
0000
0000
1010
0000
0000
0010
1000
0000
0000
1000
,
0010
0000
1000
0000
0010
0000
0000
0000
0011
0000
0000
0010
0001
0000
0000
0001
,
0010
0000
0001
0000
0010
0000
0000
0000
0110
0000
0000
0100
0010
0000
0000
0010
,
0100
0010
0100
0000
1000
0001
0100
0010
,
1000
0000
0000
0000
0011
0000
0000
0000
0101
0000
0000
0100
0001
0000
0000
0001
,
0100
0000
0001
0000
0100
0000
0000
0000
1100
0000
0000
0100
1000
0000
0000
1000
,
0100
1000
0100
0000
0010
0001
0010
0000
,
0100
1000
0100
0000
0010
0000
0001
0000
,
0100
1000
0010
0000
,
0100
0000
0000
0000
0000
0000
0000
0000
0001
1000
0001
1000
0001
0000
0010
0100
,
0010
0100
0010
0000
0000
0000
0000
0000
0100
0000
0000
0000
1000
0000
0000
0000
,
0010
0000
0000
0000
0001
0000
0000
0000
0100
0010
0100
0010
0100
0000
0001
1000
,
0001
1000
0001
0000
0000
0000
0000
0000
0010
0000
0000
0000
1000
0000
0000
0000
,
0100
0000
0000
0000
0001
0000
0000
0000
0100
0001
0100
0001
0100
0000
0010
1000
,
0010
1000
0010
0000
0000
0000
0000
0000
0100
0000
0000
0000
1000
0000
0000
0000
,
0010
0001
0100
0001
,
0010
1000
0001
0000
,
1000
0000
0000
0000
0000
0000
0000
0000
0001
0010
0001
0010
0001
0000
1000
0010
,
1000
0010
1000
0000
0010
0100
0010
0100
0010
0000
0000
0000
0100
0000
0000
0000
,
0010
0000
0000
0010
0000
0000
0010
0000
1000
0000
0000
0000
0001
0000
0000
0000
,
0100
0001
0010
0000
2010
0000
0100
0000
,
0001
3100
0001
1000
,
0100
1000
0010
0000
0012
0000
0100
0000
,
1000
0000
0103
0000
0010
1000
0010
0000
,
1000
0100
1000
0000
0100
0001
0100
0000
,
0001
0010
0001
0000
0010
1000
0010
0000
,
1000
0100
1000
0000
0100
0001
0100
0000
,
0001
0000
0010
0000
1000
0000
0000
0000
0001
0100
0001
0100
0000
0001
0000
0000
,
0000
1000
0100
1000
0100
0000
1000
0000
0001
0010
0001
0010
0000
0001
0000
0000
,
0000
1000
0010
1000
0010
0000
1000
0000
0001
0000
0000
0000
1000
0000
0000
0000
,
0001
0010
0100
1000
1001
0000
0100
0000
,
0010
0000
0110
0000
1001
0000
1000
0010
,
0100
0001
1001
0000
0101
0000
0001
0100
,
0001
0100
0101
0000
1100
0000
1000
0100
,
1000
0100
1100
0000
1001
0000
0001
1000
,
0001
1000
1001
0000
0110
0000
0010
0100
,
0010
0100
0110
0000
0220
0000
0000
0000
,
0000
0000
0000
0000
0330
0000
0000
0000
0011
0000
0000
0001
0010
0000
0000
0010
,
0001
0000
0010
0000
0001
0000
0000
0000
0101
0000
0000
0001
0100
0000
0000
0100
,
0001
0000
0100
0000
0001
0000
0000
0000
1001
0000
0000
1000
0001
0000
0000
0001
,
1000
0001
1000
0000
0010
0100
1000
0001
,
0010
0000
0000
0000
0101
0000
0000
0000
1100
0000
0000
1000
0100
0000
0000
0100
,
1000
0000
0100
0000
1000
0000
0000
0000
1010
0000
0000
1000
0010
0000
0000
0010
,
1000
0010
1000
0000
0001
0100
0001
0000
,
1000
0010
1000
0000
0001
0000
0100
0000
,
1000
0000
0000
0000
0010
0000
0000
0000
1100
0000
0000
1000
0100
0000
0000
0100
,
1000
0000
0100
0000
1000
0000
0000
0000
1010
0000
0000
1000
0010
0000
0000
0010
,
1000
0000
0010
0000
1000
0000
0000
0000
1001
0000
0000
0001
1000
0000
0000
1000
,
0001
1000
0001
0000
0100
0010
0001
1000
,
0100
0000
0000
0000
1010
0000
0000
0000
0011
0000
0000
0001
0010
0000
0000
0010
,
0001
0000
0010
0000
0001
0000
0000
0000
0101
0000
0000
0001
0100
0000
0000
0100
,
0001
0100
0001
0000
1000
0010
1000
0000
,
0001
0100
0001
0000
1000
0000
0010
0000
,
0001
0100
1000
0000
,
0001
0000
0000
0000
0000
0000
0000
0000
1000
0100
1000
0100
1000
0000
0001
0100
,
0001
0100
0001
0000
0000
0000
0000
0000
1000
0000
0000
0000
1010
0000
0000
0000
,
0001
0000
0000
0000
0011
0000
0000
0000
0001
0010
0001
0010
0001
0000
1000
0010
,
1000
0010
1000
0000
0000
0000
0000
0000
0100
0000
0000
0000
0110
0000
0000
0000
,
0010
0000
0000
0000
0110
0000
0000
0000
0100
0010
0100
0010
0100
0000
1000
0001
,
1000
0001
1000
0000
0000
0000
0000
0000
1000
0000
0000
0000
1100
0000
0000
0000
,
1000
0100
0001
0000
0001
0000
0101
0000
,
0001
0100
1000
0000
0110
0000
1001
0000
,
0010
0000
0100
0000
0110
0000
0000
0000
0001
1000
0001
1000
0001
0000
0010
0100
,
0010
0100
0010
0000
1000
0001
1000
0001
1000
0000
0000
0000
0000
0000
0000
0000
,
0010
0000
0000
0010
0000
0000
1000
0000
0001
0000
0000
0000
1000
0000
0000
0000
,
1000
0001
0100
0000
1200
0000
0010
0000
,
0001
1300
0001
0100
,
0001
1000
0010
0000
2100
0000
0010
0000
,
0100
0000
3001
0000
0100
0010
1000
0000
,
1000
0010
0001
0000
1000
0001
1000
0000
,
1000
0001
0100
0000
1000
0100
0001
0000
,
0010
1000
0001
0000
1000
0001
0010
0000
,
0010
0001
1000
0000
1000
0010
0001
0010
,
0100
1000
0010
2002
0000
0000
0000
0000
,
0000
0000
0000
0000
,
0000
0000
3003
0000
;

//---------------dance-single - ----------------
#NOTES:
     dance-single:
     :
     Challenge:
     10:
     0.319019,0.521399,0.172397,0.324747,0.000000,557.000000,514.000000,43.000000,81.000000,984.000000,0.000000,0.319019,0.521399,0.172397,0.324747,0.000000,557.000000,514.000000,43.000000,81.000000,984.000000,0.000000:
0000
0000
0000
0000
,
0000
0000
0000
0000
,
0000
0000
0000
0000
0010
MMMM
0010
MMMM
,
0010
MMMM
0010
MMMM
0010
MMMM
0010
MMMM
,
0010
MMMM
0010
MMMM
0010
MMMM
0010
MMMM
,
0010
MMMM
0010
MMMM
0010
MMMM
0010
MMMM
,
0010
MMMM
0010
MMMM
2100
0000
0100
0000
,
3100
0001
2000
0100
,
3002
0100
2003
0000
,
3001
1000
2002
0000
,
0000
0000
3003
MMMM
0100
0000
0001
0000
,
0100
1000
0100
0001
,
0100
2000
0100
3002
,
0100
2003
0100
3002
,
0100
1003
0010
0001
,
0010
1000
0010
0001
,
0010
2000
0010
3002
,
0010
2003
0010
3002
,
0013
MMMM
1200
1000
,
1000
1000
1000
1000
,
1000
1300
0201
0001
,
0001
0001
0001
0001
,
0001
0301
0200
0000
,
0000
0000
0000
0000
,
0000
0300
0010
1000
,
0001
0100
0010
0010
,
0020
0000
0130
MMMM
0001
MMMM
1000
MMMM
,
0001
MMMM
0001
MMMM
1000
MMMM
0001
MMMM
,
1000
MMMM
1000
MMMM
0001
MMMM
1000
MMMM
,
0001
MMMM
0001
MMMM
1000
MMMM
0001
MMMM
,
0200
0000
0310
MMMM
0001
MMMM
1000
MMMM
,
0001
MMMM
0001
MMMM
1000
MMMM
0001
MMMM
,
1000
MMMM
1000
MMMM
0001
MMMM
1000
MMMM
,
0001
MMMM
0001
MMMM
1000
MMMM
0001
MMMM
,
1000
MMMM
1000
MMMM
0001
MMMM
1000
MMMM
,
0001
MMMM
0001
MMMM
1000
0100
MMMM
0002
,
0100
0000
0100
0100
,
0100
0000
0103
0000
0001
0100
MMMM
2000
,
0100
0000
0100
0100
,
0100
0000
3100
0000
1000
0100
MMMM
0002
,
0100
0000
0100
0100
,
0100
0103
1000
0001
,
0010
1000
0100
MMMM
,
1001
0000
0000
0000
0100
MMMM
0100
MMMM
,
0100
MMMM
0100
MMMM
0100
MMMM
0100
MMMM
,
0100
MMMM
0100
MMMM
0100
MMMM
0100
MMMM
,
0100
MMMM
0100
MMMM
0100
MMMM
0100
MMMM
,
0100
MMMM
0100
MMMM
0012
0000
0010
0000
,
0013
1000
0002
0010
,
2003
0010
3002
0000
,
1003
0001
2002
0000
,
0000
0000
3003
MMMM
0001
0000
1000
0000
,
2002
0000
0000
3003
MMMM
2002
0000
0000
,
0000
3003
MMMM
0000
0010
0000
1000
0000
,
0010
0001
0010
1000
,
0010
0002
0010
2003
,
0010
3002
0010
2003
,
0010
3001
0100
1000
,
0100
0001
0100
1000
,
0100
0002
0100
2003
,
0100
3002
0100
2003
,
3100
MMMM
0021
0001
,
0001
0001
0001
0001
,
0001
0031
1020
1000
,
1000
1000
1000
1000
,
1000
1030
0020
0000
,
0000
0000
0000
0000
,
0000
0030
0100
0001
,
1000
0010
0100
0100
,
0200
0000
0310
MMMM
1000
MMMM
0001
MMMM
,
1000
MMMM
1000
MMMM
0001
MMMM
1000
MMMM
,
0001
MMMM
0001
MMMM
1000
MMMM
0001
MMMM
,
1000
MMMM
1000
MMMM
0001
MMMM
1000
MMMM
,
0020
0000
0130
MMMM
1000
MMMM
0001
MMMM
,
1000
MMMM
1000
MMMM
0001
MMMM
1000
MMMM
,
0001
MMMM
0001
MMMM
1000
MMMM
0001
MMMM
,
1000
MMMM
1000
MMMM
0001
MMMM
1000
MMMM
,
0001
MMMM
0001
MMMM
1000
MMMM
0001
MMMM
,
1000
MMMM
1000
MMMM
0001
0010
MMMM
2000
,
0010
0000
0010
0010
,
0010
0000
3010
0000
1000
0010
MMMM
0002
,
0010
0000
0010
0010
,
0010
0000
0013
0000
0001
0010
MMMM
2000
,
0010
0000
0010
0010
,
0010
3010
0001
1000
,
0100
0001
0010
MMMM
,
1001
0000
0000
0000
1000
MMMM
0100
MMMM
,
1000
MMMM
0100
MMMM
0001
MMMM
1000
MMMM
,
0010
MMMM
0010
MMMM
0100
MMMM
0100
MMMM
,
0001
MMMM
0100
MMMM
1000
MMMM
0001
MMMM
,
0100
MMMM
0100
MMMM
1020
0000
1000
0000
,
1030
0100
0020
1000
,
0032
0100
0023
0000
,
0031
0010
0022
0000
,
0000
0000
0033
MMMM
2020
0000
0000
0000
,
0000
0000
0000
3030
MMMM
2002
0000
0000
,
0000
0000
3003
MMMM
0010
0010
0010
MMMM
,
0100
0100
0100
MMMM
0001
0001
0001
MMMM
,
1000
1000
1000
MMMM
1000
0100
1000
MMMM
,
0001
0100
0001
MMMM
1000
0010
1000
MMMM
,
0001
0010
0001
MMMM
1000
MMMM
0001
MMMM
,
0100
MMMM
0010
MMMM
0010
MMMM
0100
MMMM
,
0001
MMMM
2002
0000
3003
MMMM
1000
0100
,
0010
0001
0001
0010
0100
1000
0220
0000
,
0000
0000
0330
MMMM
2002
0000
0000
0000
,
0000
0000
3003
MMMM
0220
0000
0000
0000
,
0000
0000
0330
MMMM
0010
MMMM
0100
MMMM
,
0010
MMMM
0010
MMMM
0100
MMMM
0010
MMMM
,
0100
MMMM
0100
MMMM
0010
MMMM
0100
MMMM
,
0010
MMMM
0010
MMMM
0100
MMMM
0010
MMMM
,
0002
0000
1003
MMMM
0010
MMMM
0100
MMMM
,
0010
MMMM
0010
MMMM
0100
MMMM
0010
MMMM
,
0100
MMMM
0100
MMMM
0010
MMMM
0100
MMMM
,
0010
MMMM
0010
MMMM
0100
MMMM
0010
MMMM
,
0100
MMMM
0100
MMMM
0100
MMMM
0010
MMMM
,
0100
MMMM
0100
MMMM
0010
MMMM
0100
MMMM
,
0010
MMMM
0010
MMMM
0100
MMMM
0010
MMMM
,
0100
MMMM
0100
MMMM
0010
MMMM
0100
MMMM
,
2000
0000
3001
MMMM
0100
MMMM
0010
MMMM
,
0100
MMMM
0100
MMMM
0010
MMMM
0100
MMMM
,
0010
MMMM
0010
MMMM
0100
MMMM
0010
MMMM
,
0100
MMMM
0100
MMMM
0010
MMMM
0100
MMMM
,
0010
MMMM
0010
MMMM
0100
MMMM
0010
MMMM
,
0100
MMMM
0100
MMMM
1000
0100
MMMM
0002
,
0100
0000
1000
1000
,
0100
0000
0013
0000
1000
0001
MMMM
0020
,
1000
0000
1000
1000
,
1000
0000
1030
0000
1000
0010
MMMM
0002
,
0010
0000
0100
1000
,
1000
0013
1000
0001
,
0100
1000
0100
MMMM
,
0101
0000
0000
0000
1000
1000
MMMM
0100
,
0100
MMMM
0001
0001
MMMM
0000
0220
0000
,
0000
0000
0330
0000
1001
MMMM
1001
MMMM
,
1001
MMMM
1001
MMMM
1001
MMMM
1001
MMMM
,
1001
MMMM
1001
MMMM
1001
MMMM
1001
MMMM
,
1001
MMMM
1001
MMMM
1001
MMMM
1001
MMMM
,
1001
MMMM
1001
MMMM
2100
0000
0100
0000
,
3100
0001
2000
0100
,
3002
0100
2003
0000
,
3001
1000
2002
0000
,
0000
3003
MMMM
0000
1100
0000
0000
0101
,
0000
0000
0100
0220
0000
0000
0000
0000
,
0000
0000
0000
0000
,
0000
0000
0330
0000
;

//---------------dance-double - ----------------
#NOTES:
     dance-double:
     :
     Easy:
     5:
     0.209625,0.289666,0.016037,0.004009,0.000000,366.000000,362.000000,4.000000,1.000000,0.000000,0.000000,0.209625,0.289666,0.016037,0.004009,0.000000,366.000000,362.000000,4.000000,1.000000,0.000000,0.000000:
00000000
00000000
00000000
00000000
,
00000000
00000000
00000000
00000000
,
00000000
00000000
00100000
10000000
,
01000000
00000000
00100000
00010000
,
01000000
00000000
00001000
00010000
,
00001000
00000000
00000010
00001000
,
00000100
00000000
00000010
00000001
,
00001000
00000000
00000010
00001000
,
00000001
00000000
00000100
00001000
,
00010000
00000000
00001000
00010000
,
00001000
00000000
00100000
00000000
,
00010000
00000000
10000000
00000000
,
00100000
00000000
01000000
00000000
,
00000000
00000000
00010000
00100000
,
01000000
10000000
00100000
00000000
,
10000000
00000000
01000000
00000000
,
00010000
00000000
00001000
00000000
,
00000000
00000000
00000010
00000001
,
00000100
00001000
00000010
00000100
,
00000001
00000000
00001000
00000000
,
00000100
00000100
00010000
00001000
,
00100000
00000000
01000000
00000000
,
00100000
00100000
00010000
01000000
,
10000000
00000000
10000000
01000000
,
00010000
00000000
10000000
00000000
,
00010000
00000000
00100000
01000000
,
00100000
00000000
10000000
10000000
,
01000000
01000000
00010000
00010000
,
00001000
00001000
00000100
00000100
,
00000001
00000001
00001000
00000001
,
00001001
00000000
00000001
00000001
,
00000100
00000100
00001000
00001000
,
00010000
00010000
01000000
01000000
,
10000000
10000000
00010000
00000000
,
00000000
00000000
10000000
00000000
,
00000000
00000000
00000000
00000000
00100000
00000000
00000000
00100000
,
00000000
00000000
10000000
10000000
,
01000000
00000000
00000000
00000000
00100000
00000000
00000000
00100000
,
00000000
00000000
00001000
00001000
,
00010000
00000000
00000000
00000000
00000010
00000000
00000000
00000010
,
00000000
00000000
00000100
00000100
,
00000001
00000000
00000100
00000100
,
00001000
00000000
00000001
00000000
,
00001000
00000000
00000100
00000001
,
00000010
00000000
00000100
00001000
,
00000010
00000000
00010000
00001000
,
00010000
00000000
01000000
00010000
,
00100000
00000000
01000000
10000000
,
00010000
00000000
01000000
00010000
,
10000000
00000000
00100000
00010000
,
00001000
00000000
00010000
00001000
,
00010000
00000000
00000000
00000000
,
00000000
00000000
00000000
00000000
,
00000000
00000000
00000100
00000000
,
00001000
00000000
00000001
00000000
,
00000100
00000000
00000010
00000000
,
00000000
00000000
00001000
00000100
,
00000010
00000001
00000100
00000000
,
00000001
00000000
00000010
00000000
,
00001000
00000000
00010000
00000000
,
00000000
00000000
01000000
10000000
,
00100000
00010000
01000000
00100000
,
10000000
00000000
00010000
00000000
,
00100000
00100000
00001000
00010000
,
00000100
00000000
00000010
00000000
,
00000100
00000100
00001000
00000010
,
00000001
00000000
00000001
00000010
,
00001000
00000000
00000001
00000000
,
00001000
00000000
00000100
00000010
,
00000100
00000000
00000001
00000001
,
00000010
00000010
00001000
00001000
,
00010000
00010000
00100000
00100000
,
10000000
10000000
00010000
10000000
,
10010000
00000000
10000000
10000000
,
00100000
00100000
00010000
00010000
,
00001000
00001000
00000010
00000010
,
00000001
00000001
00001000
00000000
,
00000000
00000000
10000000
00000000
,
00000000
00000000
00000000
00000000
00000100
00000000
00000000
00000100
,
00000000
00000000
00000001
00000001
,
00000010
00000000
00000000
00000000
00000100
00000000
00000000
00000100
,
00000000
00000000
00010000
00010000
,
00001000
00000000
00000000
00000000
01000000
00000000
00000000
01000000
,
00000000
00000000
00100000
00100000
,
10000000
00000000
00100000
00100000
,
00010000
00000000
10000000
00000000
,
00010000
00000000
00001000
00000100
,
00000001
00000000
00000100
00001000
,
00010000
00000000
00001000
01000000
,
00001000
00000000
00010000
00001000
,
00000010
00000000
00010000
00100000
,
00001000
00000000
00010000
00001000
,
00100000
00000000
00001000
00000010
,
00001000
00000000
00001000
00010000
,
00001000
00000000
00000000
00000000
,
00000000
00000000
00000000
00000000
,
00000000
00000000
00000000
00000000
,
00000000
00000000
00000000
00000000
,
00000000
00000000
00000000
00000000
,
00000000
00000000
00000000
00000000
,
00000000
00000000
00000000
00000000
,
00000000
00000000
00000000
00000000
,
00000000
00000000
00000000
00000000
,
00000000
00000000
00000000
00000000
,
00000000
00000000
00000000
00000000
,
00000000
00000000
00000000
00000000
,
00000000
00000000
01000000
01000000
,
00010000
00010000
00100000
00100000
,
00001000
00001000
00000010
00000010
,
00000001
00000001
00000100
00000010
,
00000110
00000000
00000010
00000010
,
00000001
00000001
00000100
00000100
,
00010000
00010000
00100000
00100000
,
01000000
01000000
00100000
00000000
,
00000000
00000000
00100000
00100000
,
10000000
10000000
01000000
01000000
,
00000010
00000010
00001000
00001000
,
00000100
00000100
00000010
00000100
,
00000110
00000000
00000100
00000100
,
00000010
00000010
00001000
00001000
,
00100000
00100000
10000000
10000000
,
00100000
00100000
01000000
00000000
,
00000000
00000000
10000000
00000000
,
00000000
00000000
00000000
00000000
00000001
00000000
00000000
00000001
,
00000000
00000000
00000100
00000100
,
00001000
00000000
00000000
00000000
00010000
00000000
00000000
00010000
,
00000000
00000000
10000000
10000000
,
01000000
00000000
00000000
00000000
00010000
00000000
00000000
00010000
,
00000000
00000000
00001000
00001000
,
00100000
00000000
00001000
00001000
,
01000000
00000000
00010000
00000000
,
00001000
00000000
00000000
00000000
00000010
00000000
00000000
00000010
,
00000000
00000010
00000010
00000000
,
00000100
00000000
00000010
00000001
,
00000100
00000000
00000010
00001000
,
00000100
00000000
00010000
00001000
,
00010000
00000000
00100000
00010000
,
01000000
00000000
00100000
10000000
,
00010000
00000000
00100000
00010000
,
10000000
00000000
01000000
00010000
,
00001000
00000000
00010000
00001000
,
00010000
00000000
00000000
00000000
00000010
00000000
00000000
00001000
,
00000000
00000000
00000010
00000020
00000000
00000000
00000000
00000000
,
00000000
00000000
00000000
00000000
,
00000000
00000000
00000030
00000000
;

//---------------dance-double - ----------------
#NOTES:
     dance-double:
     :
     Medium:
     7:
     0.326465,0.463466,0.272627,0.020046,0.000000,570.000000,502.000000,68.000000,5.000000,0.000000,0.000000,0.326465,0.463466,0.272627,0.020046,0.000000,570.000000,502.000000,68.000000,5.000000,0.000000,0.000000:
00000000
00000000
00000000
00000000
,
00000000
00000000
00000000
00000000
,
00000000
00000000
10000000
00100000
,
01000000
00010000
00100000
00001000
,
00010000
00000100
00000010
00000001
,
00001000
00000010
00000001
00000100
,
00001000
00000100
00000010
00000010
,
00000100
00001000
00000100
00000000
00010000
00000000
00010000
00000000
,
00001000
00010000
00001000
00000000
01000000
00000000
01000000
00000000
,
00100000
01000000
00100000
00000000
10000000
00000000
01000000
00000000
,
00010000
01000000
00100000
00100000
,
01000000
01000000
10000000
01000000
,
00010000
00001000
00000010
00000010
,
00000100
00000100
00000001
00000100
,
00001000
00010000
00100000
00100000
,
01000000
01000000
10000000
01000000
,
00010000
00001000
00000010
00000010
,
00000100
00000100
00000001
00000100
,
00001000
00010000
00100000
10000000
,
00010000
00100000
01000000
00000000
00200000
00000000
00000000
00000000
,
01000000
01300000
00010000
00001000
,
00000010
00000001
00001000
00000000
00000020
00000000
00000000
00000000
,
00000100
00000130
00000010
00000001
,
00000100
00001000
00010000
00100000
,
10000000
01000000
00100000
00000000
,
01000000
00000000
00100000
01000000
,
00100000
10010000
11000000
11000000
,
00100000
00010000
01000000
00000000
00011000
00000000
00011000
00000000
,
00000010
00001000
00000100
00000000
00000101
00000000
00000101
00000000
,
00000010
00000001
00000100
00000000
00000010
00000000
00000100
00000000
,
00000010
00001001
00000110
00000110
,
00001000
00010000
00001000
00000000
01100000
00000000
01100000
00000000
,
10000000
00010000
10000000
00000000
00100000
00000000
10000000
00000000
,
01000000
10000000
00100000
00010000
,
00001000
00000100
00000001
00000000
,
00000010
00000000
00000000
00000000
00000101
00000000
00000000
00001100
,
00000000
00000000
00010000
00001000
,
00100000
00000000
00010000
00000000
11000000
00000000
00000000
01010000
,
00000000
00000000
00001000
00010000
,
00000010
00000000
00001000
00000000
00000101
00000000
00000000
00001100
,
00000000
00000000
00000010
00000001
,
00000100
00001000
00010000
00100000
,
10000000
00100000
01000000
00000000
,
00100000
00000000
00000001
00000100
,
00000010
00001000
00000100
00010000
,
00001000
00100000
01000000
10000000
,
00010000
01000000
10000000
00100000
,
00010000
00100000
01000000
01000000
,
00100000
00010000
00100000
00000000
00001000
00000000
00001000
00000000
,
00010000
00001000
00010000
00000000
00000010
00000000
00000010
00000000
,
00000100
00000010
00000100
00000000
00000001
00000000
00000010
00000000
,
00001000
00000010
00000000
00000000
,
00000000
00000000
00000000
00000000
,
00000000
00000000
00000100
00000100
,
00000010
00000010
00000001
00000010
,
00001000
00010000
01000000
01000000
,
00100000
00100000
10000000
00100000
,
00010000
00001000
00000100
00000100
,
00000010
00000010
00000001
00000010
,
00001000
00010000
01000000
01000000
,
00100000
00100000
10000000
00100000
,
00010000
00001000
00000100
00000001
,
00001000
00000100
00000010
00000000
00000200
00000000
00000000
00000000
,
00000010
00000310
00001000
00010000
,
01000000
10000000
00010000
00000000
02000000
00000000
00000000
00000000
,
00100000
03100000
01000000
10000000
,
00100000
00010000
00001000
00000100
,
00000001
00000010
00000100
00000000
,
00000010
00000000
00000100
00000010
,
00000100
00001001
00000011
00000011
,
00000100
00001000
00000010
00000000
00011000
00000000
00011000
00000000
,
01000000
00010000
00100000
00000000
10100000
00000000
10100000
00000000
,
01000000
10000000
00100000
00000000
01000000
00000000
00100000
00000000
,
01000000
10010000
01100000
01100000
,
00010000
00001000
00010000
00000000
00000110
00000000
00000110
00000000
,
00000001
00001000
00000001
00000000
00000100
00000000
00000001
00000000
,
00000010
00000001
00000100
00001000
,
00010000
00100000
10000000
00000000
,
01000000
00000000
00000000
00000000
10100000
00000000
00000000
00110000
,
00000000
00000000
00001000
00010000
,
00000100
00000000
00001000
00000000
00000011
00000000
00000000
00001010
,
00000000
00000000
00010000
00001000
,
01000000
00000000
00010000
00000000
10100000
00000000
00000000
00110000
,
00000000
00000000
01000000
10000000
,
00100000
00010000
00001000
00000100
,
00000001
00000100
00000010
00000000
,
00000100
00000000
00000100
00000010
,
00001000
00010000
00000001
00000001
,
00000010
00001000
00000100
00000100
,
00001000
00001000
00010000
01000000
,
10000000
10000000
00100000
00010000
,
01000000
00100000
00010000
00000000
00000100
00000000
00000100
00000000
,
00001000
00000100
00010000
00000000
00001000
00000000
00010000
00000000
,
00001000
00000010
00010000
00000000
00001000
00000000
00100000
00000000
,
00010000
10000000
00000000
00000000
,
00000000
00000000
00000000
00000000
,
00000000
00000000
00000000
00000000
,
00000000
00000000
00000000
00000000
,
00000000
00000000
00000000
00000000
,
00000000
00000000
00000000
00000000
,
00000000
00000000
00000000
00000000
,
00000000
00000000
00000000
00000000
,
00000000
00000000
00000000
00000000
,
00000000
00000000
00000000
00000000
,
00000000
00000000
00000000
00000000
,
00000000
00000000
00000000
00000000
,
00000000
00000000
01010000
01010000
,
10000000
00100000
00010000
00000000
00011000
00000000
00011000
00000000
,
00001000
00000100
00000001
00000000
00000011
00000000
00000011
00000000
,
00001000
00000010
00000001
00000000
00001000
00000000
00000001
00000000
,
00001000
00000110
00001001
00001001
,
00001000
00000100
00010000
00000000
00011000
00000000
10010000
00000000
,
01000000
00100000
01000000
00000000
10000000
00000000
01000000
00000000
,
00010000
01000000
10000000
00100000
,
00010000
00100000
10100000
10100000
,
00010000
01000000
10000000
00000000
01001000
00000000
01001000
00000000
,
00010000
00000010
00001000
00000000
00001100
00000000
00001100
00000000
,
00000001
00000100
00001000
00000000
00000001
00000000
00001000
00000000
,
00000001
00000110
00001001
00001100
,
00010000
01000000
00010000
00000000
10010000
00000000
10010000
00000000
,
00100000
01000000
00100000
00000000
00010000
00000000
00100000
00000000
,
10000000
00100000
00010000
00001000
,
00000010
00001000
00000100
00000000
,
00000001
00000000
00000000
00000000
00001010
00000000
00000000
00001001
,
00000000
00000000
00000100
00001000
,
00000001
00000000
00000100
00000000
00000110
00000000
00000000
00011000
,
00000000
00000000
10000000
01000000
,
00010000
00000000
10000000
00000000
01100000
00000000
00000000
10010000
,
00000000
00000000
00010000
00100000
,
00001000
01000000
00010000
00100000
,
01000000
00001000
00010000
00000000
,
01000000
00000000
00000000
00000000
11000000
00000000
00000000
01010000
,
00000000
00011000
00011000
00000000
,
00000010
00000010
00000001
00000010
,
00000100
00001000
00000010
00010000
,
00001000
01000000
00100000
10000000
,
00010000
00100000
10000000
01000000
,
00010000
01000000
00100000
00100000
,
01000000
00010000
01000000
00000000
00001000
00000000
00001000
00000000
,
00010000
00001000
00010000
00000000
00000100
00000000
00000100
00000000
,
00000010
00000100
00000010
00000000
00000001
00000000
00000100
00000000
,
00001000
00000000
00000100
00000000
00010000
00000000
00001000
00010000
,
00000000
00001000
00010000
00020000
00000000
00000000
00000000
00000000
,
00000000
00000000
00000000
00000000
,
00000000
00000000
00030000
00000000
;

//---------------dance-double - ----------------
#NOTES:
     dance-double:
     :
     Hard:
     12:
     0.223371,0.579332,0.020046,0.012028,0.058134,390.000000,385.000000,5.000000,3.000000,0.000000,0.000000,0.223371,0.579332,0.020046,0.012028,0.058134,390.000000,385.000000,5.000000,3.000000,0.000000,0.000000:
00000000
00000000
00000000
00000000
,
00000000
00000000
00000000
00000000
,
00000000
00000000
00000001
00000010
,
00000100
00001000
00000100
00000000
00010000
00000000
00000010
00000000
,
00000100
00001000
00010000
00000000
00100000
00000000
10000000
00000000
,
00010000
00100000
01000000
00000000
10000000
00000000
01000000
00000000
,
00010000
00000000
01000000
00000000
00100000
10000000
00100000
00000000
,
01000000
00010000
01000000
00000000
00001000
00010000
00001000
00000000
,
00000100
00000010
00000100
00000000
00000001
00000010
00000001
00000000
,
00001000
00000100
00001000
00000000
00000010
00010000
00000010
00000000
,
00010000
00001000
00010000
00000000
01000000
00000000
10000000
00000000
,
00010000
01000000
10000000
00000000
01000000
00000000
00010000
00000000
,
10000000
01000000
00010000
00000000
01000000
00000000
00100000
00000000
,
00010000
00001000
00000100
00000010
,
00000001
00001000
00000100
00000000
00000010
00000000
00000001
00000000
,
00001000
00000010
00000001
00000000
00000010
00000000
00001000
00000000
,
00010000
01000000
00100000
00000000
10000000
00000000
00010000
00000000
,
00100000
01000000
00100000
00001000
,
00010000
00001000
00010000
00000000
00000010
00000000
00001000
00000000
,
00000001
00000010
00000100
00000010
00000001
00000000
00000000
00000000
,
00001000
00000001
00000100
00000000
00001000
00000000
00010000
00000000
,
00100000
10000000
00010000
10000000
00100000
00000000
00000000
00000000
,
01000000
00010000
10000000
00000000
00100000
00000000
10000000
00000000
,
01000000
00010000
00001000
00000010
,
00000001
00000100
00000010
00000000
,
00000100
00000000
00000000
00000000
00000000
00000000
00000000
00000000
00000010
00000000
00000000
00010000
00000000
00000000
00001000
00000000
,
00100000
00000000
00000000
00000000
01100000
00000000
00000000
00000000
11000000
00000000
00000000
01000000
10000000
00000000
00000000
10000000
,
01000000
10000000
01000000
00100000
01000000
00100000
00001000
00010000
,
00000010
00000000
00000100
00000000
00000010
00000000
00000000
00000000
00000101
00000000
00000000
00000100
00000001
00000000
00000000
00000001
,
00000100
00000001
00000100
00000010
00010000
00001000
00100000
01000000
,
00100000
00000000
00000000
00000000
10010000
00000000
00000000
00000000
11000000
00000000
00000000
01000000
10000000
00000000
00000000
10000000
,
01000000
10000000
01000000
00100000
01000000
00100000
00001000
00010000
,
00000010
00000100
00000010
00000000
00001000
00000100
00000010
00000000
,
00000001
00000100
00000010
00000000
00020000
00000000
00000010
00000000
,
00001000
00030010
00200000
01000000
,
10000000
00000000
00000000
00000000
01300000
00000000
00000000
00000000
10000000
00100000
10000000
00100000
10000000
00000000
00010000
00100000
,
00010000
00100000
00010000
00000000
00000000
00000000
00000000
00000000
10000000
00000000
00000000
00000000
01000000
00000000
00000000
00010000
,
00001000
00000000
00000010
00000000
00000100
00000000
00000000
00000000
00000010
00000100
00000010
00000100
00000010
00000000
00000001
00000100
,
00000001
00000100
00000001
00000000
00000000
00000000
00000000
00000000
00000100
00000000
00000000
00000000
00001000
00000000
00000000
00010000
,
00100000
00000000
10000000
00000000
00010000
00000000
00000000
00000000
10000000
00100000
10000000
00100000
10000000
00000000
00010000
00100000
,
00010000
00100000
00010000
00000000
00000000
00000000
00000000
00000000
10000000
00000000
00000000
00000000
01000000
00000000
00000000
00010000
,
00001000
00000010
00000100
00000010
00000001
00000000
00001000
00000000
,
00000010
00000100
00000001
00000000
,
00001000
00000000
10000000
01000000
,
00100000
00010000
00100000
00000000
00001000
00000000
01000000
00000000
,
00100000
00010000
00001000
00000000
00000100
00000000
00000001
00000000
,
00001000
00000100
00000010
00000000
00000001
00000000
00000010
00000000
,
00001000
00000000
00000010
00000000
00000100
00000001
00000100
00000000
,
00000010
00001000
00000010
00000000
00010000
00001000
00010000
00000000
,
00100000
01000000
00100000
00000000
10000000
01000000
10000000
00000000
,
00010000
00100000
00010000
00000000
01000000
00001000
01000000
00000000
,
00001000
00010000
00001000
00000000
00000000
00000000
00000000
00000000
,
00000000
00000000
00000000
00000000
,
00000000
00000000
00000000
00000000
,
00000000
00000000
00000000
00000000
,
00000000
00000000
00000000
00000000
,
00000000
00000000
00000000
00000000
,
00000000
00000000
00000000
00000000
,
00000000
00000000
00000000
00000000
,
00000000
00000000
00000000
00000000
,
00000000
00000000
00000000
00000000
,
00000000
00000000
00000000
00000000
,
00000000
00000000
00000000
00000000
,
00000000
00000000
00000000
00000000
,
00000000
00000000
00000000
00000000
,
00000000
00000000
00000000
00000000
,
00000000
00000000
00000000
00000000
,
00000000
00000000
00000000
00000000
,
00000000
00000000
00000000
00000000
,
00000000
00000000
00000000
00000000
,
00000000
00000000
00000000
00000000
,
00000000
00000000
00000000
00000000
,
00000000
00000000
00000000
00000000
,
00000000
00000000
00000000
00000000
,
00000000
00000000
00000000
00000000
,
00000000
00000000
00000000
00000000
,
00000000
00000000
00000000
00000000
,
00000000
00000000
00000000
00000000
,
00000000
00000000
00000000
00000000
,
00000000
00000000
00000000
00000000
,
00000000
00000000
00000000
00000000
,
00000000
00000000
00000000
00000000
,
00000000
00000000
00000000
00000000
,
00000000
00000000
00000000
00000000
,
00000000
00000000
00000000
00000000
,
00000000
00000000
00000000
00000000
,
00000000
00000000
00000010
00001000
,
00010000
01000000
00010000
00000000
00100000
00000000
00001000
00000000
,
00010000
01000000
00100000
00000000
01000000
00000000
00010000
00000000
,
00001000
00000100
00000001
00000000
00000010
00000000
00001000
00000000
,
00010000
00000000
00000010
00000000
00000100
00001000
00000100
00000000
,
00000001
00000010
00000001
00000000
00000100
00000010
00000100
00000000
,
00010000
00001000
00010000
00000000
00100000
10000000
00100000
00000000
,
01000000
00010000
01000000
00000000
00001000
00100000
00001000
00000000
,
00100000
01000000
00100000
00000000
00000000
00000000
00000000
00000000
,
00000000
00000000
00000000
00000000
,
00000000
00000000
00000000
00000000
,
00000000
00000000
00000000
00000000
,
00000000
00000000
00000000
00000000
,
00000000
00000000
00000000
00000000
,
00000000
00000000
00000000
00000000
,
00000000
00000000
00000000
00000000
,
00000000
00000000
00000000
00000000
,
00000000
00000000
00000000
00000000
,
00000000
00000000
00000000
00000000
,
00000000
00000000
00000000
00000000
,
00000000
00000000
00000000
00000000
,
00000000
00000000
00000000
00000000
,
00000000
00000000
00000000
00000000
,
00000000
00000000
00000000
00000000
,
00000000
00000000
00000000
00000000
,
00000000
00000000
00000000
00000000
,
00000000
00000000
00000000
00000000
,
00000000
00000000
00000000
00000000
,
00000000
00000000
00000000
00000000
,
00000000
00000000
00000000
00000000
,
00000000
00000000
00000000
00000000
,
00000000
00000000
00000000
00000000
,
00000000
00000000
00000000
00000000
,
00000000
00000000
00000000
00000000
,
00000000
00000000
00000000
00000000
,
00000000
00000000
00000000
00000000
,
00000000
00000000
00000000
00000000
,
00000000
00000000
00000000
00000000
,
00000000
00000000
00000000
00000000
,
00000000
00000000
00000000
00000000
,
00000000
00000000
00000000
00000000
,
00000000
00000000
00000000
00000000
,
00000000
00000000
00000000
00000000
,
00000000
00000000
00000000
00000000
,
00000000
00000000
00000000
00000000
,
00000000
00000000
00000000
00000000
00000000
00000000
00000000
00000000
00000010
00000100
00000010
00000100
00000010
00000000
00010000
00001000
,
00010000
00001000
00010000
00000000
00100000
01000000
00100000
01000000
00100000
00000000
00000000
00000000
01000000
00000000
00000000
00000000
,
00100000
00000000
00000000
00100000
00000000
00000000
00100000
00000000
10000000
00000000
00000000
00000000
00100000
00000000
00000000
00000000
,
01000000
00010000
01000000
00000000
00001000
00000000
00100000
00000000
,
01000000
00010000
00001000
00000000
00000010
00000000
00000001
00000000
,
00001000
00000010
00000100
00000000
00000001
00000000
00000100
00000000
,
00001000
00000000
00000100
00000000
00000010
00000001
00000010
00000000
,
00000100
00001000
00000100
00000000
00010000
00001000
00010000
00000000
,
01000000
00100000
01000000
00000000
10000000
00100000
10000000
00000000
,
00010000
01000000
00010000
00000000
00100000
00001000
00100000
00000000
,
00001000
00010000
00001000
00000000
00000100
00000010
00000010
00001000
,
00000001
00000001
00000010
00000200
00000000
00000000
00000000
00000000
,
00000000
00000000
00000000
00000000
,
00000000
00000000
00000300
00000000
;

//---------------dance-double - ----------------
#NOTES:
     dance-double:
     :
     Challenge:
     10:
     0.156932,0.521399,0.124286,0.136314,0.000000,274.000000,243.000000,31.000000,34.000000,920.000000,0.000000,0.156932,0.521399,0.124286,0.136314,0.000000,274.000000,243.000000,31.000000,34.000000,920.000000,0.000000:
00000000
00000000
00000000
00000000
,
00000000
00000000
00000000
00000000
,
00000000
00000000
00000000
00000000
00001000
MMMMMMMM
00001000
MMMMMMMM
,
00010000
MMMMMMMM
00010000
MMMMMMMM
00001000
MMMMMMMM
00001000
MMMMMMMM
,
00010000
MMMMMMMM
00010000
MMMMMMMM
00001000
MMMMMMMM
00001000
MMMMMMMM
,
00010000
MMMMMMMM
00010000
MMMMMMMM
00001000
MMMMMMMM
00010000
MMMMMMMM
,
00001000
MMMMMMMM
00010000
MMMMMMMM
02001000
00000000
00010000
00000000
,
03010000
00001000
00020000
00001000
,
00030200
00001000
00020300
00000000
,
00031000
00100000
20020000
00000000
,
00000000
00000000
30030000
MMMMMMMM
01000000
00000000
00010000
00000000
,
01000000
10000000
01000000
00001000
,
00010000
00100000
00010000
MMMMMMMM
,
00001000
MMMMMMMM
00000100
MMMMMMMM
,
00000001
MMMMMMMM
00000010
00000001
,
00000100
00001000
00000100
00000010
,
00000100
00001000
00010000
MMMMMMMM
,
00001000
MMMMMMMM
00100000
02000000
,
03100000
MMMMMMMM
10000000
10010000
,
10000000
00010000
00100000
01000000
,
00010000
MMMMMMMM
00001000
00001001
,
00000001
00000001
00000100
00000100
,
00000010
MMMMMMMM
00000200
00000000
,
00000000
00000000
00000000
00000000
,
00000000
00000300
00000010
00001000
,
00000001
00000100
00001000
00010000
,
00002000
00000000
00013000
MMMMMMMM
00000100
MMMMMMMM
01000000
MMMMMMMM
,
00000100
MMMMMMMM
00000100
MMMMMMMM
01000000
MMMMMMMM
00000100
MMMMMMMM
,
01000000
MMMMMMMM
01000000
MMMMMMMM
00000100
MMMMMMMM
01000000
MMMMMMMM
,
00000100
MMMMMMMM
00000100
MMMMMMMM
01000000
MMMMMMMM
00000100
MMMMMMMM
,
00012000
00000000
00013000
MMMMMMMM
00000010
MMMMMMMM
00100000
MMMMMMMM
,
00000010
MMMMMMMM
00000010
MMMMMMMM
00100000
MMMMMMMM
00000010
MMMMMMMM
,
00100000
MMMMMMMM
00100000
MMMMMMMM
00000010
MMMMMMMM
00100000
MMMMMMMM
,
00000010
MMMMMMMM
00000010
MMMMMMMM
00100000
MMMMMMMM
00000010
MMMMMMMM
,
00100000
MMMMMMMM
00100000
MMMMMMMM
00000010
MMMMMMMM
00100000
MMMMMMMM
,
00000010
MMMMMMMM
00100000
00000000
01000000
00010000
00001000
00000100
,
00000002
00000000
00000100
00000100
,
00000100
00000000
00000103
00000000
00000100
00001000
00010000
01000000
,
20000000
00000000
01000000
01000000
,
01000000
00000000
31000000
00000000
01000000
00010000
00001000
00000100
,
00000002
00000000
00000100
00000100
,
00000100
00000103
00000100
00001000
,
00010000
01000000
10000000
00100000
,
00010000
00000000
00001000
00000000
00010000
MMMMMMMM
00010000
MMMMMMMM
,
00001000
MMMMMMMM
00001000
MMMMMMMM
00010000
MMMMMMMM
00010000
MMMMMMMM
,
00001000
MMMMMMMM
00001000
MMMMMMMM
00010000
MMMMMMMM
00010000
MMMMMMMM
,
00001000
MMMMMMMM
00001000
MMMMMMMM
00010000
MMMMMMMM
00001000
MMMMMMMM
,
00010000
MMMMMMMM
00001000
MMMMMMMM
00010020
00000000
00001000
00000000
,
00001030
00010000
00002000
00010000
,
00203000
00010000
00302000
00000000
,
00013000
00000100
00002002
00000000
,
00000000
00000000
00003003
MMMMMMMM
00000000
00000000
00000000
00000000
,
00000000
00000000
00000000
00000000
,
00000000
00000000
00000000
00000000
,
00000000
00000000
00000000
00000000
,
00000000
00000000
00000000
00000000
,
00000000
00000000
00000000
00000000
,
00000000
00000000
00000000
00000000
,
00000000
00000000
00000000
00000000
,
00000000
00000000
00000000
00000000
,
00000000
00000000
00000000
00000000
,
00000000
00000000
00000000
00000000
,
00000000
00000000
00000000
00000000
,
00000000
00000000
00000000
00000000
,
00000000
00000000
00000000
00000000
,
00000000
00000000
00000000
00000000
,
00000000
00000000
00000000
00000000
,
00000000
00000000
00000000
00000000
,
00000000
00000000
00000000
00000000
,
00000000
00000000
00000000
00000000
,
00000000
00000000
00000000
00000000
,
00000000
00000000
00000000
00000000
,
00000000
00000000
00000000
00000000
,
00000000
00000000
00000000
00000000
,
00000000
00000000
00000000
00000000
,
00000000
00000000
00000000
00000000
,
00000000
00000000
00000000
00000000
,
00000000
00000000
00000000
00000000
,
00000000
00000000
00000000
00000000
,
00000000
00000000
00000000
00000000
,
00000000
00000000
00000000
00000000
,
00000000
00000000
00000000
00000000
,
00000000
00000000
00000000
00000000
,
00000000
00000000
00000000
00000000
,
00000000
00000000
00000000
00000000
,
00000000
00000000
00000000
00000000
,
00000000
00000000
00000000
00000000
01000000
MMMMMMMM
01000000
MMMMMMMM
,
00100000
MMMMMMMM
00100000
MMMMMMMM
01000000
MMMMMMMM
01000000
MMMMMMMM
,
00100000
MMMMMMMM
00100000
MMMMMMMM
01000000
MMMMMMMM
01000000
MMMMMMMM
,
00100000
MMMMMMMM
00100000
MMMMMMMM
01000000
MMMMMMMM
00100000
MMMMMMMM
,
01000000
MMMMMMMM
00100000
MMMMMMMM
01002000
00000000
00100000
00000000
,
00103000
01000000
00200000
01000000
,
00320000
01000000
00230000
00000000
,
01300000
00001000
00220000
00000000
,
00000000
00000000
00330000
MMMMMMMM
00000000
00000000
00000000
00000000
,
00000000
00000000
00000000
00000000
,
00000000
00000000
00000000
00000000
,
00000000
00000000
00000000
00000000
,
00000000
00000000
00000000
00000000
,
00000000
00000000
00000000
00000000
,
00000000
00000000
00000000
00000000
,
00000000
00000000
00000000
00000000
,
00000000
00000000
00000000
00000000
,
00000000
00000000
00000000
00000000
,
00000000
00000000
00000000
00000000
,
00000000
00000000
00000000
00000000
,
00000000
00000000
00000000
00000000
,
00000000
00000000
00000000
00000000
,
00000000
00000000
00000000
00000000
,
00000000
00000000
00000000
00000000
,
00000000
00000000
00000000
00000000
,
00000000
00000000
00000000
00000000
,
00000000
00000000
00000000
00000000
,
00000000
00000000
00000000
00000000
,
00000000
00000000
00000000
00000000
,
00000000
00000000
00000000
00000000
,
00000000
00000000
00000000
00000000
,
00000000
00000000
00000000
00000000
,
00000000
00000000
00000000
00000000
,
00000000
00000000
00000000
00000000
,
00000000
00000000
00000000
00000000
,
00000000
00000000
00000000
00000000
,
00000000
00000000
00000000
00000000
,
00000000
00000000
00000000
00000000
,
00000000
00000000
00000000
00000000
,
00000000
00000000
00000000
00000000
,
00000000
00000000
00000000
00000000
,
00000000
00000000
00000000
00000000
,
00000000
00000000
00000000
00000000
,
00000000
00000000
00000000
00000000
,
00000000
00000000
00000000
00000000
,
00000000
00000000
00000000
00000000
00100000
00100000
MMMMMMMM
00010000
,
00001000
MMMMMMMM
00000010
00000010
MMMMMMMM
00000000
00001001
00000000
,
00000200
00000000
00000300
00000000
00011000
MMMMMMMM
00011000
MMMMMMMM
,
00011000
MMMMMMMM
00011000
MMMMMMMM
00011000
MMMMMMMM
00011000
MMMMMMMM
,
00011000
MMMMMMMM
00011000
MMMMMMMM
00011000
MMMMMMMM
00011000
MMMMMMMM
,
00011000
MMMMMMMM
00011000
MMMMMMMM
00011000
MMMMMMMM
00011000
MMMMMMMM
,
00011000
MMMMMMMM
00011000
MMMMMMMM
02001000
00000000
00010000
00000000
,
03010000
00001000
00020000
00001000
,
00030200
00001000
00020300
00000000
,
00031000
00100000
20020000
00000000
,
00000000
00000000
30030000
MMMMMMMM
01010000
00000000
00000000
00101000
,
00000000
00000000
00010000
00022000
00000000
00000000
00000000
00000000
,
00000000
00000000
00000000
00000000
,
00000000
00000000
00033000
00000000
;

//---------------dance-single - Ultimate----------------
#NOTES:
     dance-single:
     :
     Edit:
     15:
     0.741133,0.840032,0.324747,0.080184,0.457051,1294.000000,1213.000000,81.000000,20.000000,0.000000,0.000000,0.741133,0.840032,0.324747,0.080184,0.457051,1294.000000,1213.000000,81.000000,20.000000,0.000000,0.000000:
// measure 0
0000
0000
0000
0000
,  // measure 1
0000
0000
0000
0000
,  // measure 2
0000
0000
0000
0000
1000
0100
0001
1000
,  // measure 3
0010
0001
0100
0010
2100
0000
0010
0010
,  // measure 4
0001
0001
3010
0010
0001
0100
1001
0100
,  // measure 5
0010
0001
0100
1000
0102
0000
0010
0010
,  // measure 6
1000
1000
0013
0010
0100
1000
0100
0010
,  // measure 7
1000
0010
1000
0000
0010
0001
0010
0100
,  // measure 8
0001
0100
0001
0000
0100
1000
0100
0010
,  // measure 9
1000
0010
1000
0001
0010
0001
0010
0100
,  // measure 10
0001
0000
0100
0000
0001
0000
0010
0000
1001
0000
0000
0000
0100
1000
0001
0000
,  // measure 11
0010
0000
0100
0000
1000
0000
0010
0000
0001
0000
0000
0000
0100
0001
1000
0000
,  // measure 12
0010
0000
0100
0000
0001
0000
0100
0000
1000
0000
0000
0000
0010
1000
0001
0000
,  // measure 13
0100
0000
0010
0000
1000
0010
0100
0000
0001
0000
1010
0000
0100
0010
0001
0000
,  // measure 14
1000
0000
0010
0000
0100
1000
0010
0000
1001
0000
0000
0000
0100
0001
1000
0000
,  // measure 15
0010
0000
0100
0000
0001
0000
0010
0000
1000
0000
0000
0000
0100
1000
0001
0000
,  // measure 16
0010
0000
0100
0000
1000
0000
0010
0000
0001
0000
0000
0000
0010
0001
1000
0000
,  // measure 17
0100
0000
0010
0000
0001
0000
0100
0001
1000
0000
0010
0000
0100
0000
1000
0100
,  // measure 18
0001
0000
0010
0000
0100
0000
1000
0001
0010
0000
0000
0000
0001
0000
0100
0001
,  // measure 19
0100
0001
1000
0001
0100
1000
0010
0000
,  // measure 20
0100
0000
0001
0010
1000
0000
0001
0000
0010
0000
0100
0000
1000
0000
0100
0010
,  // measure 21
0100
0000
1000
0000
0001
0000
1000
0000
0100
0000
0010
0000
0010
0000
1000
0001
,  // measure 22
0100
1000
0001
0000
0020
0000
0001
0001
,  // measure 23
0100
0100
0031
0001
0200
0000
0010
0010
,  // measure 24
1000
1000
0310
0010
2001
0001
0001
0001
,  // measure 25
0002
0000
0000
0000
3003
0000
0000
0000
0100
1000
0000
0010
0001
0000
0100
0000
,  // measure 26
0010
0000
0000
0000
1001
0000
0000
0000
0101
0000
0000
0100
0001
1000
0010
0001
,  // measure 27
0100
0000
0001
0000
0100
0000
0000
0000
1100
0000
0000
0100
1000
0001
0010
1000
,  // measure 28
0100
0000
1000
0000
0100
0000
0000
0000
0110
0000
0000
0010
0100
0001
1000
0100
,  // measure 29
0010
0000
0100
0000
0010
0000
0000
0000
0001
0100
1000
0000
0010
0000
0100
0010
,  // measure 30
0001
0000
0100
0000
1100
0000
0000
0000
1010
0000
0000
0010
1000
0100
0001
1000
,  // measure 31
0010
0000
1000
0000
0010
0000
0000
0000
0011
0000
0000
0010
0001
1000
0100
0001
,  // measure 32
0010
0001
0010
0000
0100
1000
0100
1000
,  // measure 33
0010
0000
0001
0000
0010
0000
0001
0000
0100
0000
0000
0000
1000
0001
0100
0000
,  // measure 34
0010
0000
0000
0000
0001
0010
1000
0000
0100
0000
0000
0000
1000
0001
0100
0000
,  // measure 35
0010
0000
0000
0000
0010
0100
0010
0000
0010
1000
0100
1000
0010
0000
0010
0001
,  // measure 36
0100
0001
0010
0000
0100
0000
1000
0000
0010
0000
0000
0000
0001
0000
0010
0000
,  // measure 37
0100
0000
0001
0000
1000
0000
0000
0000
0010
0100
0001
0100
0010
0000
1000
0001
,  // measure 38
0100
0001
1000
0000
0010
0000
0001
0000
0100
0000
0000
0000
0001
0000
1000
0000
,  // measure 39
0010
0000
0001
0000
1000
0000
0000
0000
0010
1000
0001
1000
0010
0000
0100
0001
,  // measure 40
1000
0001
0100
0000
0100
0000
1000
0000
0010
0000
1000
0100
0001
0000
0010
0000
,  // measure 41
0100
0000
0001
0010
1000
0000
0100
0000
0010
0000
0001
0100
1000
0000
0010
0000
,  // measure 42
0100
0000
0010
1000
0001
0000
0100
0000
1000
0000
0010
0100
0010
0000
1000
0000
,  // measure 43
0001
0000
0001
0100
0010
0000
0000
0000
1000
0100
0001
0100
1000
0000
0001
0100
,  // measure 44
1000
0100
0001
0000
0100
0010
1000
0010
0100
0000
0000
0000
0010
0000
0000
0000
,  // measure 45
0100
0010
0000
0100
0010
0000
0100
0010
0001
0000
0100
0000
1000
0000
0001
0000
,  // measure 46
0010
1000
0100
0010
0102
0000
0010
0010
,  // measure 47
1000
1000
0013
0010
1000
0000
0001
0100
,  // measure 48
0010
0001
0100
0010
2100
0000
0010
0010
,  // measure 49
0001
0001
3010
0010
0100
0001
0100
0010
,  // measure 50
0001
0010
0001
1000
0010
1000
0010
0100
,  // measure 51
1000
0100
1000
0001
0100
0001
0100
0010
,  // measure 52
0001
0010
0001
1000
0010
1000
0010
0001
,  // measure 53
1000
0000
0001
0000
1000
0000
0110
0000
1001
0000
0010
0100
0010
0000
1000
0000
,  // measure 54
0010
0000
0001
0000
0100
0000
0010
0000
0001
0000
0010
0100
1000
0000
0001
0000
,  // measure 55
0010
0000
1000
0000
0100
0000
0010
0000
1000
0000
0100
0010
0001
0000
0010
0000
,  // measure 56
0110
0000
0010
0100
0101
0000
1000
0100
,  // measure 57
1010
0000
0000
0000
0001
0000
0100
0000
0110
0000
0001
0100
1000
0000
0100
0000
,  // measure 58
0010
0000
0001
0000
0100
0000
0010
0000
1000
0000
0100
1000
0001
0000
0000
0000
,  // measure 59
0010
0000
0000
0000
0100
0000
0010
0000
0001
0000
0010
0001
1000
0000
0010
0000
,  // measure 60
0100
0001
0010
0100
1000
0110
0001
0100
,  // measure 61
0010
0000
0110
0000
1000
0000
0100
0000
0010
0000
0000
0000
0100
0000
0001
0010
,  // measure 62
1000
0100
0010
1000
0001
1000
0010
0000
,  // measure 63
0100
0010
0100
0000
0010
0000
1000
0000
0001
0000
0000
0000
0001
0000
1000
0100
,  // measure 64
0010
0001
1000
0001
0010
0000
0100
0000
,  // measure 65
0010
0000
0001
0010
1000
0000
0000
0000
0200
0000
0000
0000
1000
0000
1000
0000
,  // measure 66
0010
0010
1300
1000
0020
0000
0100
0100
,  // measure 67
0001
0001
0130
0100
1002
1000
1000
1000
,  // measure 68
2000
0000
0000
0000
3003
0000
0000
0000
0010
1000
0000
0100
1000
0000
0010
1000
,  // measure 69
0100
0000
0010
0000
1001
0000
0000
0000
1010
0000
0000
0010
1000
0001
0100
1000
,  // measure 70
0010
0000
1000
0000
0010
0000
0000
0000
0011
0000
0000
0010
0001
0100
1000
0001
,  // measure 71
0010
0000
0001
0000
0010
0000
0000
0000
0110
0000
0000
0100
0010
1000
0001
0010
,  // measure 72
0100
0000
0010
0000
0100
0000
0000
0000
1000
0010
0001
0000
0100
0000
0010
0100
,  // measure 73
1000
0000
0100
0000
0011
0000
0000
0000
0101
0000
0000
0100
0001
0010
1000
0001
,  // measure 74
0100
0000
0001
0000
0100
0000
0000
0000
1100
0000
0000
0100
1000
0010
0001
1000
,  // measure 75
0100
0000
1000
0000
0100
0000
0000
0000
0010
0000
0001
1000
0010
0000
0001
0000
,  // measure 76
0100
0000
1000
0001
0100
0000
1000
0000
0010
0000
0100
0000
0101
0000
1000
0001
,  // measure 77
0100
0000
0010
0000
1000
0000
0001
0100
0010
0000
0000
0000
0010
0100
0010
0000
,  // measure 78
1000
0001
1000
0000
0100
0010
0100
0000
0001
1000
0010
1000
0001
0000
0010
0100
,  // measure 79
1000
0100
0010
0000
0001
0000
1000
0010
0100
0000
0001
0000
1000
0000
0001
0000
,  // measure 80
0010
0000
0100
0000
0001
1000
0000
0000
0100
0010
0001
0010
0100
0000
0001
1000
,  // measure 81
0100
1000
0001
0000
0100
0000
0001
0000
0010
0000
0001
0000
1000
0000
0010
0000
,  // measure 82
0100
0000
0010
0000
0001
0000
0000
0000
0100
0001
1000
0001
0100
0000
0010
1000
,  // measure 83
0001
1000
0010
0000
0010
0000
0001
0000
0100
0000
0001
0000
1000
0000
0100
0001
,  // measure 84
0010
0000
1000
0000
0001
0000
0010
1000
0100
0000
0010
0000
0001
0000
1000
0100
,  // measure 85
0010
0000
0001
0000
1000
0000
0010
0100
0001
0000
1000
0000
0001
0000
0100
0001
,  // measure 86
1000
0000
0000
0000
1000
0100
1000
0000
0001
0010
1000
0010
0001
0000
1000
0010
,  // measure 87
0001
0010
1000
0000
0010
0100
0010
0100
0010
0000
0000
0000
0100
0000
0000
0000
,  // measure 88
0010
1000
0000
0010
1000
0000
0010
0001
1000
0000
0100
0000
0001
0000
0010
0000
,  // measure 89
0100
0001
0010
0001
2010
0000
0100
0100
,  // measure 90
0001
0001
3100
0100
0001
0001
1000
0001
,  // measure 91
0100
1000
0010
0100
0012
0000
0100
0100
,  // measure 92
1000
1000
0103
0100
0010
1000
0010
0001
,  // measure 93
1000
0100
1000
0010
0100
0001
0100
1000
,  // measure 94
0001
0010
0001
0100
0010
1000
0010
0001
,  // measure 95
1000
0100
1000
0010
0100
0001
0100
1000
,  // measure 96
0001
0000
0010
0000
1000
0000
0100
0000
0001
0100
0001
1000
0001
0100
0001
0000
,  // measure 97
1000
0100
1000
0001
1000
0100
1000
0000
0001
0010
0001
1000
0001
0010
0001
0000
,  // measure 98
0010
1000
0001
1000
0010
1000
0001
0000
0100
0000
0010
0000
1000
0000
0100
0000
,  // measure 99
0001
0000
0010
0001
0100
0000
1000
0000
1001
0000
0010
0100
1000
0000
0010
0001
,  // measure 100
0100
0000
0000
0000
0110
0000
0000
0000
1001
0000
0010
0100
1000
0000
0010
0000
,  // measure 101
0100
0000
0101
0000
1001
0000
0000
0000
0101
0000
1000
0010
0001
0000
0100
0000
,  // measure 102
0001
0000
1100
0000
0101
0000
0000
0000
1100
0000
0001
0010
1000
0000
0100
0000
,  // measure 103
1000
0000
0101
0000
1100
0000
0000
0000
1001
0000
1000
0001
1000
0000
0100
0000
,  // measure 104
0010
0000
0110
0000
1001
0000
0000
0000
0110
0000
0000
0000
0010
0100
0010
0100
,  // measure 105
0010
0100
0010
0000
0110
0000
0000
0000
0220
0000
0000
0000
0000
0000
0000
0000
,  // measure 106
0000
0000
0000
0000
0330
0000
0000
0000
0011
0000
0000
0001
0010
1000
0100
0010
,  // measure 107
0001
0000
0010
0000
0001
0000
0000
0000
0101
0000
0000
0001
0100
0010
1000
0100
,  // measure 108
0001
0000
0100
0000
0001
0000
0000
0000
1001
0000
0000
1000
0001
0010
0100
0001
,  // measure 109
1000
0000
0001
0000
1000
0000
0001
0100
0010
0000
0100
0010
1000
0000
0001
0000
,  // measure 110
0010
0000
0000
0000
0101
0000
0000
0000
1100
0000
0000
1000
0100
0001
0010
0100
,  // measure 111
1000
0000
0100
0000
1000
0000
0000
0000
1010
0000
0000
1000
0010
0001
0100
0010
,  // measure 112
1000
0000
0010
0000
1000
0000
0000
0000
0001
0000
0100
1000
0001
0000
0010
0000
,  // measure 113
1000
0000
0100
0001
1000
0000
0010
0000
0001
0000
1000
0010
0100
0000
0001
0000
,  // measure 114
1000
0000
0001
0000
0110
0000
0000
0000
1100
0000
0000
1000
0100
0001
0010
0100
,  // measure 115
1000
0000
0100
0000
1000
0000
0000
0000
1010
0000
0000
1000
0010
0100
0001
0010
,  // measure 116
1000
0000
0010
0000
1000
0000
0000
0000
1001
0000
0000
0001
1000
0100
0010
1000
,  // measure 117
0001
0000
1000
0000
0001
0000
1000
0001
0100
0000
0010
0000
0001
0000
1000
0001
,  // measure 118
0100
0000
0010
0000
1010
0000
0000
0000
0011
0000
0000
0001
0010
1000
0100
0010
,  // measure 119
0001
0000
0010
0000
0001
0000
0000
0000
0101
0000
0000
0001
0100
0010
1000
0100
,  // measure 120
0001
0000
0100
0000
0001
0000
0000
0000
1000
0000
0010
0001
1000
0000
0010
0000
,  // measure 121
0001
0000
0100
0010
0001
0000
0100
0000
1000
0000
0001
0100
0010
0000
1000
0000
,  // measure 122
0001
0000
1000
0001
0100
0000
0010
0000
1000
0000
0010
0100
0010
0000
1000
0010
,  // measure 123
0001
0000
0000
0000
0001
0100
1000
0000
1000
0100
0010
0100
1000
0000
0001
0100
,  // measure 124
0010
0100
0001
0000
0010
0000
0100
0000
1000
0000
0100
0000
1010
0000
0100
0000
,  // measure 125
0001
0000
1000
0000
0011
0000
0000
0000
0001
0010
0100
0010
0001
0000
1000
0010
,  // measure 126
0100
0010
1000
0000
0001
0000
0010
0000
0100
0000
1000
0000
0110
0000
0001
0000
,  // measure 127
0010
0000
1000
0000
0110
0000
0000
0000
0100
0010
0100
0010
0100
0000
1000
0001
,  // measure 128
0100
0001
1000
0000
0001
0000
0010
0000
1000
0000
0001
0000
1100
0000
0001
0010
,  // measure 129
1000
0000
0100
0000
0001
0000
1000
0010
0001
0000
0010
0000
0101
0000
0100
1000
,  // measure 130
0001
0100
1000
0001
1100
0101
1001
0000
,  // measure 131
0010
0000
0100
0000
0110
0000
0000
0000
0001
1000
0010
1000
0001
0000
0010
0100
,  // measure 132
0010
0100
0010
0000
1000
0001
1000
0001
1000
0000
0010
0100
0010
0000
0110
0000
,  // measure 133
0010
1000
0000
0010
0001
0000
1000
0100
0001
0000
0101
0000
1100
0000
0010
0000
,  // measure 134
1000
0001
0100
0000
1200
0000
0010
0010
,  // measure 135
0001
0001
1300
1000
0001
0001
0100
0010
,  // measure 136
0001
1000
0010
0001
2100
0000
0010
0010
,  // measure 137
0100
0100
3001
0001
0100
0010
1000
0001
,  // measure 138
1000
0010
0001
0000
1000
0001
1000
0010
,  // measure 139
1000
0001
0100
0000
1000
0100
0001
0100
,  // measure 140
0010
1000
0001
0000
1000
0001
0010
0100
,  // measure 141
0010
0000
0001
0000
1000
0000
0000
0000
1000
0100
0010
1000
0001
0000
0010
0001
,  // measure 142
0100
0001
1000
0100
0010
0000
2002
0000
0000
0000
0000
0000
0000
0000
0000
0000
,  // measure 143
0000
0000
0000
0000
,  // measure 144
0000
0000
3003
0000
;
