#VERSION:0.83;
#TITLE:TEMPLE OF LOVE;
#SUBTITLE:;
#ARTIST:E-ROTIC;
#TITLETRANSLIT:;
#SUBTITLETRANSLIT:;
#ARTISTTRANSLIT:;
#GENRE:;
#ORIGIN:;
#CREDIT:;
#BANNER:TEMPLE OF LOVE.png;
#BACKGROUND:TEMPLE OF LOVE-bg.png;
#PREVIEWVID:;
#JACKET:TEMPLE OF LOVE-jacket.png;
#CDIMAGE:;
#DISCIMAGE:;
#LYRICSPATH:;
#CDTITLE:;
#MUSIC:E-rotic - Temple Of Love (Full Version).mp3;
#OFFSET:-0.634000;
#SAMPLESTART:49.427959;
#SAMPLELENGTH:15.000000;
#SELECTABLE:YES;
#DISPLAYBPM:142.000000;
#BPMS:0.000=142.000;
#STOPS:;
#DELAYS:;
#WARPS:;
#TIMESIGNATURES:0.000=4=4;
#TICKCOUNTS:0.000=4;
#COMBOS:0.000=1;
#SPEEDS:0.000=1.000=0.000=0;
#SCROLLS:0.000=1.000;
#FAKES:;
#LABELS:0.000=Song Start;
#BGCHANGES:;
#KEYSOUNDS:;
#ATTACKS:
;

//---------------dance-single - ----------------
#NOTEDATA:;
#CHARTNAME:;
#STEPSTYPE:dance-single;
#DESCRIPTION:;
#CHARTSTYLE:;
#DIFFICULTY:Easy;
#METER:3;
#RADARVALUES:0.188464,0.349395,0.195826,0.144293,0.000000,256.000000,218.000000,38.000000,28.000000,0.000000,0.000000,0.000000,0.000000,0.000000,0.188464,0.349395,0.195826,0.144293,0.000000,256.000000,218.000000,38.000000,28.000000,0.000000,0.000000,0.000000,0.000000,0.000000;
#CREDIT:;
#DISPLAYBPM:142.000000;
#NOTES:
// measure 0
0000
0000
0000
0000
,  // measure 1
0000
0000
0000
0000
,  // measure 2
0000
0000
0000
0000
,  // measure 3
0000
0000
0000
0000
,  // measure 4
1000
0000
0000
0000
,  // measure 5
0001
0000
0000
0000
,  // measure 6
0100
0000
0000
0000
,  // measure 7
0010
0000
0000
0000
,  // measure 8
1100
0000
0000
0000
,  // measure 9
0101
0000
0000
0000
,  // measure 10
1010
0000
0000
0000
,  // measure 11
0011
0000
0000
0000
,  // measure 12
1100
1000
0100
0001
,  // measure 13
0101
0001
0100
1000
,  // measure 14
1010
1000
0010
0001
,  // measure 15
0011
0001
0010
1000
,  // measure 16
1000
0001
0100
0010
,  // measure 17
1000
0001
0100
0010
,  // measure 18
0001
1000
0010
0100
,  // measure 19
0001
1000
0010
0100
,  // measure 20
1000
0000
0100
0000
,  // measure 21
1000
0000
0100
0000
,  // measure 22
0001
0000
0100
0000
,  // measure 23
0001
0000
0100
0000
,  // measure 24
1000
0000
0100
0000
,  // measure 25
0001
0000
0100
0000
,  // measure 26
1000
0000
0010
0000
,  // measure 27
0001
0000
0010
0000
,  // measure 28
1000
0000
0000
0000
,  // measure 29
1000
0100
0010
0000
,  // measure 30
0001
0100
0010
0000
,  // measure 31
1000
0100
0010
0000
,  // measure 32
1001
0110
1001
0000
,  // measure 33
0001
0100
0010
0000
,  // measure 34
1000
0100
0010
0000
,  // measure 35
0001
0100
0010
0000
,  // measure 36
1001
0110
1001
0000
,  // measure 37
0100
0000
0000
0000
,  // measure 38
0010
0000
0000
0000
,  // measure 39
1000
0000
0000
0000
,  // measure 40
0001
0010
0001
0000
,  // measure 41
1000
0000
0000
0000
,  // measure 42
0100
0000
0000
0000
,  // measure 43
0010
0000
0000
0000
,  // measure 44
1000
0010
1000
0000
,  // measure 45
0001
0000
0010
0000
,  // measure 46
0001
0000
0100
0000
,  // measure 47
0010
0000
1000
0000
,  // measure 48
0001
0000
0010
0000
,  // measure 49
0100
0000
1000
0000
,  // measure 50
0001
0000
1000
0000
,  // measure 51
0001
0000
0010
0000
,  // measure 52
0001
0000
0100
0000
,  // measure 53
0010
0000
0000
0000
,  // measure 54
1000
0100
0010
0000
,  // measure 55
0001
0100
0010
0000
,  // measure 56
1000
0010
0001
0000
,  // measure 57
0110
1001
0110
0000
,  // measure 58
0001
0010
0100
0000
,  // measure 59
1000
0010
0100
0000
,  // measure 60
0001
1000
0100
0000
,  // measure 61
1001
0110
1001
0000
,  // measure 62
0100
0000
0000
0000
,  // measure 63
0010
0000
0000
0000
,  // measure 64
1000
0000
0000
0000
,  // measure 65
0010
0100
0001
0000
,  // measure 66
1000
0000
0000
0000
,  // measure 67
0100
0000
0000
0000
,  // measure 68
0010
0000
0000
0000
,  // measure 69
0001
0010
1000
0000
,  // measure 70
2002
0000
0000
3003
,  // measure 71
2002
0000
0000
3003
,  // measure 72
0220
0000
0000
0330
,  // measure 73
0220
0000
0000
0330
,  // measure 74
2200
0000
0000
3300
,  // measure 75
0202
0000
0000
0303
,  // measure 76
0022
0000
0000
0033
,  // measure 77
2020
0000
0000
3030
,  // measure 78
2002
0000
0000
3003
,  // measure 79
0001
0010
0100
0000
,  // measure 80
1000
0010
0100
0000
,  // measure 81
0001
0100
1000
0000
,  // measure 82
0110
1001
0110
0000
,  // measure 83
1000
0100
0010
0000
,  // measure 84
0001
0100
0010
0000
,  // measure 85
1000
0001
0010
0000
,  // measure 86
1001
0110
1001
0000
,  // measure 87
0010
0000
0000
0000
,  // measure 88
0100
0000
0000
0000
,  // measure 89
0001
0000
0000
0000
,  // measure 90
0100
0010
1000
0000
,  // measure 91
0001
0000
0000
0000
,  // measure 92
0010
0000
0000
0000
,  // measure 93
0100
0000
0000
0000
,  // measure 94
1000
0100
0001
0000
,  // measure 95
0200
0000
0000
0000
,  // measure 96
0302
0000
0000
0000
,  // measure 97
2003
0000
0000
0000
,  // measure 98
3001
0100
0010
0000
,  // measure 99
2000
0000
0000
0000
,  // measure 100
3200
0000
0000
0000
,  // measure 101
0320
0000
0000
0030
,  // measure 102
0001
0020
0200
0330
,  // measure 103
0010
0100
0001
1000
,  // measure 104
0100
0010
1000
0001
,  // measure 105
0110
0000
0000
0000
,  // measure 106
1001
0000
0000
0000
,  // measure 107
0001
0000
0000
0000
,  // measure 108
0100
0000
0000
0000
,  // measure 109
1000
0000
0000
0000
,  // measure 110
0010
0000
0000
0000
,  // measure 111
2002
0000
0000
0000
,  // measure 112
0000
0000
0000
0000
,  // measure 113
3003
0000
0000
0000
;

//---------------dance-single - ----------------
#NOTEDATA:;
#CHARTNAME:;
#STEPSTYPE:dance-single;
#DESCRIPTION:;
#CHARTSTYLE:;
#DIFFICULTY:Medium;
#METER:6;
#RADARVALUES:0.355578,0.465859,0.133986,0.200979,0.000000,483.000000,457.000000,26.000000,39.000000,0.000000,0.000000,0.000000,0.000000,0.000000,0.355578,0.465859,0.133986,0.200979,0.000000,483.000000,457.000000,26.000000,39.000000,0.000000,0.000000,0.000000,0.000000,0.000000;
#CREDIT:;
#DISPLAYBPM:142.000000;
#NOTES:
// measure 0
0000
0000
0000
0000
,  // measure 1
0000
0000
0000
0000
,  // measure 2
0000
0000
0000
0000
,  // measure 3
0000
0000
0000
0000
,  // measure 4
1000
0000
1000
0100
0000
0000
0001
0100
,  // measure 5
0000
0000
1000
0010
0000
0000
0001
0010
,  // measure 6
0000
0000
1000
0001
0000
0000
0001
1000
,  // measure 7
0000
0000
0100
0010
0000
0000
0010
0100
,  // measure 8
0010
0000
1000
0000
0001
0100
0001
0000
,  // measure 9
0010
0000
0001
0000
1000
0100
1000
0000
,  // measure 10
0010
0000
0100
0000
0001
1000
0001
0000
,  // measure 11
0100
0000
0010
0000
1000
0001
1000
0000
,  // measure 12
1100
0000
1000
0000
1000
0100
0001
0000
,  // measure 13
0101
0000
0001
0000
0001
0100
1000
0000
,  // measure 14
0011
0000
0010
0000
0010
0001
0100
0000
,  // measure 15
0110
0000
0010
0000
0010
1000
0100
0000
,  // measure 16
0101
0000
0001
0100
0001
0100
0001
0000
,  // measure 17
1100
0000
1000
0100
1000
0100
1000
0000
,  // measure 18
1001
0000
1000
0001
1000
0001
1000
0000
,  // measure 19
0110
0000
0010
0100
0010
0100
0010
0000
,  // measure 20
1000
0000
0000
0000
0001
0010
0001
0000
,  // measure 21
0010
0000
0000
0000
1000
0010
1000
0000
,  // measure 22
0100
0000
0000
0000
0010
0001
0010
0000
,  // measure 23
1000
0100
0010
0001
,  // measure 24
1000
0000
0000
0000
0001
0010
0001
0000
,  // measure 25
0010
0000
0000
0000
1000
0010
1000
0000
,  // measure 26
0100
0000
0000
0000
0010
0001
0010
0000
,  // measure 27
1000
0000
0100
0010
,  // measure 28
1001
0000
0000
0000
,  // measure 29
0010
0000
0100
0000
0010
0001
0100
0000
,  // measure 30
0001
0000
0100
0000
0010
1000
0100
0000
,  // measure 31
0001
0000
0100
0000
0010
1000
0010
0000
,  // measure 32
0001
0010
0001
0000
1000
0100
1000
0000
,  // measure 33
0001
0000
0010
0000
0100
1000
0001
0000
,  // measure 34
0100
0000
0010
0000
1000
0100
1000
0000
,  // measure 35
0001
0000
0100
0000
0010
1000
0010
0000
,  // measure 36
0001
0010
0001
0000
1000
0010
0100
0000
,  // measure 37
0001
0100
0010
0100
,  // measure 38
0001
1000
0100
0000
,  // measure 39
1000
0001
0010
0001
,  // measure 40
1000
0100
0010
0000
,  // measure 41
0001
0100
0010
0100
,  // measure 42
0001
1000
0100
0000
,  // measure 43
1000
0001
0010
0001
,  // measure 44
1000
0100
0010
0000
,  // measure 45
0001
0000
0000
0000
1000
0010
1000
0000
,  // measure 46
0001
0000
0000
0000
1000
0100
1000
0000
,  // measure 47
0001
0000
0000
0000
0010
0100
1000
0000
,  // measure 48
0001
0100
0010
1000
,  // measure 49
0001
0000
0000
0000
0100
0010
1000
0000
,  // measure 50
0100
0000
0000
0000
1000
0001
0010
0000
,  // measure 51
0100
0000
0000
0000
0001
1000
0010
0000
,  // measure 52
0100
0000
0001
1000
,  // measure 53
0110
0000
0000
0000
,  // measure 54
0001
0000
0010
0000
0100
1000
0100
0000
,  // measure 55
1000
0000
0010
0000
0100
0001
0100
0000
,  // measure 56
0001
0000
1000
0000
0100
0010
0001
0000
,  // measure 57
1000
0010
1000
0000
0001
0010
0001
0000
,  // measure 58
1000
0000
0100
0000
0010
0100
0010
0000
,  // measure 59
0001
0000
0100
0000
0010
1000
0010
0000
,  // measure 60
0001
0000
0010
0000
0100
1000
0001
0000
,  // measure 61
1000
0010
0100
0000
0001
0010
0100
0000
,  // measure 62
1000
0001
0100
0001
,  // measure 63
1000
0100
1000
0000
,  // measure 64
0001
1000
0010
0100
,  // measure 65
0001
1000
0001
0000
,  // measure 66
1000
0100
0010
0001
,  // measure 67
1000
0100
0010
0000
,  // measure 68
0001
0100
0010
1000
,  // measure 69
0100
1000
0010
0000
,  // measure 70
2001
0001
0001
3001
,  // measure 71
1002
1000
1000
1003
,  // measure 72
0210
0010
0010
0310
,  // measure 73
0120
0100
0100
0130
,  // measure 74
2100
0100
0100
3100
,  // measure 75
0102
0100
0100
0103
,  // measure 76
0021
0001
0001
0031
,  // measure 77
1020
1000
1000
1030
,  // measure 78
2002
0000
0000
3003
,  // measure 79
1000
0000
0100
0000
0010
0001
0010
0000
,  // measure 80
0001
0000
0100
0000
0010
1000
0010
0000
,  // measure 81
1000
0000
0001
0000
0010
0100
1000
0000
,  // measure 82
0001
0100
0001
0000
1000
0100
1000
0000
,  // measure 83
0001
0000
0010
0000
0100
0010
0100
0000
,  // measure 84
1000
0000
0010
0000
0100
0001
0100
0000
,  // measure 85
1000
0000
0100
0000
0010
0001
1000
0000
,  // measure 86
0001
0100
0010
0000
1000
0100
0010
0000
,  // measure 87
0001
1000
0010
1000
,  // measure 88
0001
0010
0001
0000
,  // measure 89
1000
0001
0100
0010
,  // measure 90
1000
0001
1000
0000
,  // measure 91
0001
0010
0100
1000
,  // measure 92
0001
0010
0100
0000
,  // measure 93
1000
0010
0100
0001
,  // measure 94
0010
0001
0100
0000
,  // measure 95
2000
3020
0230
0320
,  // measure 96
2030
3200
1300
0000
,  // measure 97
0020
2030
3002
0203
,  // measure 98
0320
2030
0020
3030
,  // measure 99
2000
3200
0302
0023
,  // measure 100
2030
3200
0002
0303
,  // measure 101
0020
0230
0302
2003
,  // measure 102
3200
2300
0002
3003
,  // measure 103
1001
0000
0001
1000
0001
1000
0001
0000
,  // measure 104
0110
0000
0010
0100
0010
0100
0010
0000
,  // measure 105
0011
0000
0010
0000
0010
0001
0100
0000
,  // measure 106
1010
0000
0010
0000
0010
1000
0100
0000
,  // measure 107
0010
0000
0010
0000
0010
0010
0010
0000
,  // measure 108
0100
0000
0100
0000
0100
0100
0100
0000
,  // measure 109
0110
0000
0001
1000
0000
0000
0010
0100
,  // measure 110
0000
0000
0001
1000
0000
0000
0110
0000
,  // measure 111
2002
0000
0000
0000
,  // measure 112
0000
0000
0000
0000
,  // measure 113
3003
0000
0000
0000
;

//---------------dance-single - ----------------
#NOTEDATA:;
#CHARTNAME:;
#STEPSTYPE:dance-single;
#DESCRIPTION:;
#CHARTSTYLE:;
#DIFFICULTY:Hard;
#METER:8;
#RADARVALUES:0.459381,0.524092,0.458645,0.226746,0.118526,624.000000,535.000000,89.000000,44.000000,0.000000,0.000000,0.000000,0.000000,0.000000,0.459381,0.524092,0.458645,0.226746,0.118526,624.000000,535.000000,89.000000,44.000000,0.000000,0.000000,0.000000,0.000000,0.000000;
#CREDIT:;
#DISPLAYBPM:142.000000;
#NOTES:
// measure 0
0000
0000
0000
0000
,  // measure 1
0000
0000
0000
0000
,  // measure 2
0000
0000
0000
0000
,  // measure 3
0000
0000
0000
0000
,  // measure 4
1001
0000
0000
0000
0000
0000
0000
1000
0100
0000
0000
0000
0000
0000
0000
0001
,  // measure 5
0100
0000
0000
0000
0000
0000
0000
0010
0100
0000
0000
0000
0000
0000
0000
0100
,  // measure 6
0010
0000
0000
0000
0000
0000
0000
1000
0010
0000
0000
0000
0000
0000
0000
0001
,  // measure 7
0010
0000
0000
0000
0000
0000
0000
0100
0010
0000
0000
0000
0000
0000
0000
0010
,  // measure 8
0100
0000
0000
0000
0010
0000
0000
0010
1000
0000
0000
0000
0100
0000
0000
0100
,  // measure 9
0001
0000
0000
0000
1000
0000
0000
1000
0001
0000
0000
0000
0001
0000
0000
0001
,  // measure 10
1000
0000
0000
0000
0010
0000
0000
0010
1000
0000
0000
0000
0010
0000
0000
0010
,  // measure 11
0001
0000
0000
0000
0100
0000
0000
0100
1000
0000
0000
0000
0100
0000
0000
0100
,  // measure 12
0001
0000
0000
0000
0011
0000
0000
0001
0010
0000
0000
0000
1010
0000
0000
1000
,  // measure 13
0010
0000
0000
0000
0110
0000
0000
0100
0010
0000
0000
0000
0110
0000
0000
0010
,  // measure 14
0100
0000
0000
0000
0101
0000
0000
0001
0100
0000
0000
0000
1100
0000
0000
1000
,  // measure 15
0100
0000
0000
0000
0110
0000
0000
0010
0100
0000
0000
0000
0110
0000
0000
0100
,  // measure 16
0010
0000
0000
0000
1100
0000
0000
0100
0001
0000
0000
0000
0011
0000
0000
0010
,  // measure 17
1000
0000
0000
0000
1001
0000
0000
0001
1000
0000
0000
0000
1001
0000
0000
1000
,  // measure 18
0001
0000
0000
0000
0110
0000
0000
0100
0001
0000
0000
0000
0110
0000
0000
0100
,  // measure 19
1000
0110
1001
0110
,  // measure 20
0001
0001
1000
0100
0010
0001
0001
0000
,  // measure 21
1000
0001
1000
0001
0010
0001
0001
0000
,  // measure 22
1000
0001
1000
0010
1000
0001
0001
0000
,  // measure 23
0100
0001
0100
0010
1000
0001
0001
0000
,  // measure 24
1000
0100
1000
0100
0010
0001
0001
0000
,  // measure 25
0100
0001
0100
0010
1000
0001
0001
0000
,  // measure 26
1000
0100
1000
0100
0010
0001
0001
0000
,  // measure 27
1000
0000
0000
0000
0010
1000
0001
0000
,  // measure 28
0110
0000
0000
0000
,  // measure 29
1000
0000
0001
0010
0001
0100
0010
0000
,  // measure 30
1000
0000
0001
0010
0001
0100
0010
0000
,  // measure 31
1000
0000
0100
0010
0001
0100
0001
0010
,  // measure 32
0000
1001
0000
0110
0000
1001
0000
0000
,  // measure 33
0010
0000
0100
0010
0001
0100
0010
0000
,  // measure 34
1000
0000
0100
0010
0001
0100
0001
0000
,  // measure 35
1000
0000
0010
1000
0100
0010
0001
0100
,  // measure 36
0000
0110
0000
1001
0000
0110
0000
0000
,  // measure 37
1000
0000
0100
0010
0000
0010
0000
0010
,  // measure 38
0000
0000
0001
0010
0000
0000
0000
0000
,  // measure 39
1000
0000
0010
0100
0000
0100
0000
1001
,  // measure 40
0000
0110
0000
1001
0000
0110
0000
0000
,  // measure 41
0001
0000
0010
0100
0000
0100
0000
0100
,  // measure 42
0000
0000
1000
0001
0000
0000
0000
0000
,  // measure 43
1000
0000
0010
0100
0000
0100
0000
1001
,  // measure 44
0000
0110
0000
1001
0000
0110
0000
0000
,  // measure 45
1000
0001
1000
0100
0010
0001
0001
0000
,  // measure 46
1000
0100
0010
0001
0100
0001
0001
0000
,  // measure 47
0010
0100
1000
0010
0100
0001
0010
0000
,  // measure 48
1000
0100
0010
0001
0100
0001
0010
0000
,  // measure 49
1000
0010
0100
0001
0010
0100
0100
0000
,  // measure 50
1000
0001
0010
0100
1000
0001
0001
0000
,  // measure 51
1000
0010
0100
0001
1000
0010
0010
0000
,  // measure 52
0100
0000
0000
0000
0001
0010
0100
0000
,  // measure 53
1001
0000
0000
0000
,  // measure 54
0010
0000
0100
1000
0001
1000
0001
0000
,  // measure 55
0100
0000
0010
1000
0001
1000
0001
0000
,  // measure 56
0010
0000
0100
1000
0001
1000
0001
0100
,  // measure 57
0000
1001
0000
1100
0000
0101
0000
0000
,  // measure 58
1000
0000
0010
0100
0001
1000
0001
0000
,  // measure 59
0010
0000
0100
1000
0001
1000
0010
0000
,  // measure 60
0100
0000
0001
1000
0100
0010
0001
0100
,  // measure 61
0000
0110
0000
1001
0000
0110
0000
0000
,  // measure 62
1000
0000
0100
0010
0000
0001
0000
0100
,  // measure 63
0000
0000
0001
0100
0000
0000
0000
0000
,  // measure 64
1000
0000
0100
0010
0000
0001
0000
0011
,  // measure 65
0000
1001
0000
1100
0000
1001
0000
0000
,  // measure 66
0010
0000
0100
1000
0000
0001
0000
1000
,  // measure 67
0000
0000
0010
0100
0000
0000
0000
0000
,  // measure 68
0001
0000
1000
0001
0000
1000
0000
0110
,  // measure 69
0000
1100
0000
1001
0000
0101
0000
0000
,  // measure 70
2001
0000
0001
0000
0001
0001
3001
0000
,  // measure 71
1002
0000
1000
0000
1000
1000
1003
0000
,  // measure 72
0210
0000
0010
0000
0010
0010
0310
0000
,  // measure 73
0120
0000
0100
0000
0100
0100
0130
0000
,  // measure 74
2100
0000
0100
0000
0100
0100
3100
0000
,  // measure 75
0102
0000
0100
0000
0100
0100
0103
0000
,  // measure 76
0021
0000
0001
0000
0001
0001
0031
0000
,  // measure 77
1020
0000
1000
0000
1000
1000
1030
0000
,  // measure 78
2002
0000
0000
3003
,  // measure 79
0100
1000
0010
0001
1000
0001
1000
0200
,  // measure 80
0300
0000
0100
0001
1000
0001
2000
0000
,  // measure 81
3100
0000
0010
0001
1000
0001
1000
0010
,  // measure 82
0000
1001
0000
0011
0000
2020
3030
0000
,  // measure 83
0001
1000
0100
0010
1000
0001
1000
0200
,  // measure 84
0300
0000
0010
0001
1000
0001
0100
0000
,  // measure 85
0010
0100
1000
0001
0010
0100
1000
0010
,  // measure 86
0000
0110
0000
1001
0000
0220
0330
0000
,  // measure 87
0002
0000
0013
0200
0000
2300
0000
3020
,  // measure 88
0000
0030
2000
0020
0000
0000
3030
0000
,  // measure 89
0002
0000
0013
0100
0000
1000
0000
1100
,  // measure 90
0000
1001
0000
0011
0000
1001
0000
0000
,  // measure 91
0200
0000
0310
0002
0000
2003
0000
3002
,  // measure 92
0000
0003
0200
0020
0000
0000
0330
0000
,  // measure 93
2000
0000
3001
1000
0000
0001
0000
0110
,  // measure 94
0000
0011
0000
1001
0000
1010
0000
0000
,  // measure 95
2000
0000
3100
0001
0000
0020
0000
0200
,  // measure 96
0330
0000
0020
0200
0000
0000
0330
0000
,  // measure 97
0002
0000
0103
1000
0000
0110
0000
0011
,  // measure 98
0000
1010
0000
1100
0000
1010
0000
0000
,  // measure 99
0002
0000
0103
0002
0000
0013
0000
2000
,  // measure 100
0000
3000
0002
0200
0000
0000
0303
0000
,  // measure 101
0010
0000
1000
0010
0000
1000
0000
0101
,  // measure 102
0000
1100
0000
1010
0000
0110
0000
0000
,  // measure 103
1001
0000
0000
0001
0100
0000
0000
0000
1001
0000
0000
1000
0100
0000
0000
0000
,  // measure 104
0110
0000
0000
0100
0001
0000
0000
0000
0110
0000
0000
0100
1000
0000
0000
0000
,  // measure 105
1000
0000
0000
0001
0100
0000
0000
0000
0001
0000
0000
0100
1000
0000
0000
0000
,  // measure 106
0010
0000
0000
1000
0100
0000
0000
0000
0010
0000
0000
0001
0100
0000
0000
0000
,  // measure 107
1100
0000
0000
0010
0001
0000
0000
0000
0101
0000
0000
0010
1000
0000
0000
0000
,  // measure 108
0011
0000
0000
1000
0100
0000
0000
0000
1010
0000
0000
0001
0100
0000
0000
0000
,  // measure 109
0000
0000
0000
0000
1000
0001
0000
0000
0000
0000
0000
0000
0001
1000
0000
0000
,  // measure 110
0000
0000
0000
0000
0010
0100
0000
0000
0000
0000
0000
0000
0100
0010
0000
0000
,  // measure 111
2002
0000
0000
0000
,  // measure 112
0000
0000
0000
0000
,  // measure 113
3003
0000
0000
0000
;

//---------------dance-solo - ----------------
#NOTEDATA:;
#CHARTNAME:;
#STEPSTYPE:dance-solo;
#DESCRIPTION:;
#CHARTSTYLE:;
#DIFFICULTY:Easy;
#METER:2;
#RADARVALUES:0.088342,0.180366,0.066993,0.000000,0.000000,120.000000,107.000000,13.000000,0.000000,0.000000,0.000000,0.000000,0.000000,0.000000,0.088342,0.180366,0.066993,0.000000,0.000000,120.000000,107.000000,13.000000,0.000000,0.000000,0.000000,0.000000,0.000000,0.000000;
#CREDIT:;
#DISPLAYBPM:142.000000;
#NOTES:
000000
000000
000000
000000
,
000000
000000
000000
000000
,
000000
000000
000000
000000
,
000000
000000
000000
000000
,
000000
000000
000000
000000
,
000000
000000
000000
000000
,
000000
000000
000000
000000
,
000000
000000
000000
000000
,
000000
000000
000000
000000
,
000000
000000
000000
000000
,
000000
000000
000000
000000
,
000000
000000
000000
000000
,
000000
000000
000000
000000
,
000000
000000
000000
000000
,
000000
000000
000000
000000
,
000000
000000
000000
000000
,
000000
000000
000000
000000
,
000000
000000
000000
000000
,
000000
000000
000000
000000
,
000000
000000
000000
000000
,
100000
000000
001000
000000
,
100000
000000
001000
000000
,
000001
000000
001000
000000
,
000001
000000
001000
000000
,
100000
000000
001000
000000
,
000001
000000
001000
000000
,
100000
000000
010000
000000
,
000001
000000
000010
000000
,
100000
000000
000000
000000
,
100000
001000
000100
000000
,
000001
001000
000100
000000
,
100000
001000
010000
000000
,
100001
001100
100001
000000
,
000001
001000
000100
000000
,
100000
001000
000100
000000
,
000001
001000
000010
000000
,
100001
001100
100001
000000
,
001000
000000
000000
000000
,
010000
000000
000000
000000
,
100000
000000
000000
000000
,
000001
000100
000010
000000
,
100000
000000
000000
000000
,
001000
000000
000000
000000
,
010000
000000
000000
000000
,
100000
000100
010000
000000
,
000010
000000
000100
000000
,
000001
000000
001000
000000
,
000100
000000
100000
000000
,
000001
000000
000100
000000
,
001000
000000
100000
000000
,
000001
000000
010000
000000
,
000010
000000
000100
000000
,
000001
000000
001000
000000
,
000100
000000
000000
000000
,
100000
001000
000100
000000
,
000001
001000
000100
000000
,
100000
010000
000001
000000
,
001100
100001
001100
000000
,
000001
000100
001000
000000
,
100000
000100
001000
000000
,
000010
100000
001000
000000
,
100001
001100
100001
000000
,
000010
000000
000000
000000
,
000100
000000
000000
000000
,
010000
000000
000000
000000
,
000100
001000
000001
000000
,
100000
000000
000000
000000
,
001000
000000
000000
000000
,
000100
000000
000000
000000
,
000001
000010
100000
000000
,
100001
000000
000000
000000
;

//---------------dance-solo - ----------------
#NOTEDATA:;
#CHARTNAME:;
#STEPSTYPE:dance-solo;
#DESCRIPTION:;
#CHARTSTYLE:;
#DIFFICULTY:Medium;
#METER:5;
#RADARVALUES:0.153127,0.216439,0.015460,0.000000,0.000000,208.000000,205.000000,3.000000,0.000000,0.000000,0.000000,0.000000,0.000000,0.000000,0.153127,0.216439,0.015460,0.000000,0.000000,208.000000,205.000000,3.000000,0.000000,0.000000,0.000000,0.000000,0.000000,0.000000;
#CREDIT:;
#DISPLAYBPM:142.000000;
#NOTES:
000000
000000
000000
000000
,
000000
000000
000000
000000
,
000000
000000
000000
000000
,
000000
000000
000000
000000
,
000000
000000
000000
000000
,
000000
000000
000000
000000
,
000000
000000
000000
000000
,
000000
000000
000000
000000
,
000000
000000
000000
000000
,
000000
000000
000000
000000
,
000000
000000
000000
000000
,
000000
000000
000000
000000
,
000000
000000
000000
000000
,
000000
000000
000000
000000
,
000000
000000
000000
000000
,
000000
000000
000000
000000
,
000000
000000
000000
000000
,
000000
000000
000000
000000
,
000000
000000
000000
000000
,
000000
000000
000000
000000
,
010000
000000
000000
000000
000001
000100
000001
000000
,
000010
000000
000000
000000
100000
000100
100000
000000
,
001000
000000
000000
000000
000100
000010
000100
000000
,
010000
001000
000100
000001
,
010000
000000
000000
000000
000001
000100
000001
000000
,
000010
000000
000000
000000
100000
000100
100000
000000
,
001000
000000
000000
000000
000100
000010
000100
000000
,
010000
000000
001000
000100
,
100001
000000
000000
000000
,
010000
000000
001000
000000
000100
000001
001000
000000
,
000010
000000
001000
000000
000100
100000
001000
000000
,
000001
000000
001000
000000
000100
100000
010000
000000
,
000010
000100
000001
000000
100000
001000
100000
000000
,
000001
000000
000100
000000
001000
010000
000001
000000
,
001000
000000
000100
000000
100000
001000
010000
000000
,
000001
000000
001000
000000
000100
100000
010000
000000
,
000010
000100
000010
000000
100000
000100
001000
000000
,
000001
001000
000100
001000
,
000001
100000
001000
000000
,
010000
000001
000100
000001
,
010000
001000
000100
000000
,
000001
001000
000100
001000
,
000001
100000
001000
000000
,
010000
000001
000100
000001
,
010000
001000
000100
000000
,
000001
000000
000000
000000
010000
000100
010000
000000
,
000010
000000
000000
000000
100000
001000
100000
000000
,
000001
000000
000000
000000
000100
001000
010000
000000
,
000001
001000
000100
100000
,
000010
000000
000000
000000
001000
000100
100000
000000
,
001000
000000
000000
000000
010000
000001
000100
000000
,
001000
000000
000000
000000
000010
100000
000100
000000
,
001000
000000
000001
100000
,
001100
000000
000000
000000
,
000001
000000
000100
000000
001000
010000
001000
000000
,
100000
000000
000100
000000
001000
000010
001000
000000
,
000001
000000
100000
000000
001000
000100
000001
000000
,
010000
000100
010000
000000
000010
000100
000010
000000
,
010000
000000
001000
000000
000100
001000
000100
000000
,
000001
000000
001000
000000
000100
100000
010000
000000
,
000001
000000
000100
000000
001000
010000
000001
000000
,
100000
000100
001000
000000
000100
000001
001000
000000
,
010000
000001
001000
000001
,
100000
001000
010000
000000
,
000001
100000
000100
001000
,
000010
100000
000001
000000
,
010000
001000
000100
000001
,
010000
001000
000100
000000
,
000001
001000
000100
100000
,
001000
010000
000100
000000
,
100001
000000
000000
000000
;

//---------------dance-solo - ----------------
#NOTEDATA:;
#CHARTNAME:;
#STEPSTYPE:dance-solo;
#DESCRIPTION:;
#CHARTSTYLE:;
#DIFFICULTY:Hard;
#METER:6;
#RADARVALUES:0.212022,0.270549,0.159753,0.000000,0.000000,288.000000,257.000000,31.000000,0.000000,0.000000,0.000000,0.000000,0.000000,0.000000,0.212022,0.270549,0.159753,0.000000,0.000000,288.000000,257.000000,31.000000,0.000000,0.000000,0.000000,0.000000,0.000000,0.000000;
#CREDIT:;
#DISPLAYBPM:142.000000;
#NOTES:
000000
000000
000000
000000
,
000000
000000
000000
000000
,
000000
000000
000000
000000
,
000000
000000
000000
000000
,
000000
000000
000000
000000
,
000000
000000
000000
000000
,
000000
000000
000000
000000
,
000000
000000
000000
000000
,
000000
000000
000000
000000
,
000000
000000
000000
000000
,
000000
000000
000000
000000
,
000000
000000
000000
000000
,
000000
000000
000000
000000
,
000000
000000
000000
000000
,
000000
000000
000000
000000
,
000000
000000
000000
000000
,
000000
000000
000000
000000
,
000000
000000
000000
000000
,
000000
000000
000000
000000
,
000000
000000
000000
000000
,
100000
000001
100000
001000
000100
000001
000001
000000
,
100000
000010
100000
000001
000100
000010
000010
000000
,
010000
000001
010000
000100
100000
000001
000001
000000
,
001000
000010
001000
000100
100000
000001
000001
000000
,
010000
001000
010000
001000
000100
000001
000001
000000
,
001000
000010
001000
000100
100000
000001
000001
000000
,
010000
001000
010000
001000
000100
000001
000001
000000
,
100000
000000
000000
000000
000100
010000
000001
000000
,
001100
000000
000000
000000
,
100000
000000
000001
000100
000010
001000
000100
000000
,
100000
000000
000001
000100
000010
001000
000100
000000
,
100000
000000
001000
000100
000001
001000
000010
000010
,
000000
100001
000000
001100
000000
100001
000000
000000
,
010000
000000
001000
000100
000001
001000
000100
000000
,
100000
000000
001000
000100
000001
001000
000010
000000
,
100000
000000
000100
010000
001000
000100
000001
001000
,
000000
001100
000000
100001
000000
001100
000000
000000
,
100000
000000
001000
000100
000000
000100
000000
000100
,
000000
000000
000001
000010
000000
000000
000000
000000
,
100000
000000
000100
001000
000000
001000
000000
100001
,
000000
001100
000000
100001
000000
001100
000000
000000
,
000001
000000
000100
001000
000000
001000
000000
001000
,
000000
000000
010000
000001
000000
000000
000000
000000
,
100000
000000
000100
001000
000000
001000
000000
100001
,
000000
001100
000000
100001
000000
001100
000000
000000
,
100000
000001
100000
001000
000100
000001
000001
000000
,
010000
001000
000100
000001
001000
000001
000001
000000
,
000100
001000
100000
000100
001000
000010
000010
000000
,
100000
001000
000100
000001
001000
000010
000010
000000
,
100000
000100
001000
000001
000100
001000
001000
000000
,
010000
000001
000100
001000
010000
000001
000001
000000
,
100000
000100
001000
000010
100000
000100
000100
000000
,
001000
000000
000000
000000
000001
000100
001000
000000
,
100001
000000
000000
000000
,
000100
000000
001000
010000
000001
100000
000010
000000
,
001000
000000
000100
100000
000010
010000
000001
000000
,
000100
000000
001000
010000
000001
100000
000010
001000
,
000000
100001
000000
101000
000000
001001
000000
000000
,
100000
000000
000100
001000
000010
100000
000001
000000
,
000100
000000
001000
010000
000001
100000
000100
000000
,
001000
000000
000010
100000
001000
000100
000001
001000
,
000000
001100
000000
100001
000000
001100
000000
000000
,
100000
000000
001000
000100
000000
000001
000000
001000
,
000000
000000
000010
001000
000000
000000
000000
000000
,
100000
000000
001000
000100
000000
000001
000000
000101
,
000000
100001
000000
101000
000000
100001
000000
000000
,
000100
000000
001000
010000
000000
000001
000000
100000
,
000000
000000
000100
001000
000000
000000
000000
000000
,
000010
000000
100000
000001
000000
010000
000000
001100
,
000000
101000
000000
100001
000000
001001
000000
000000
,
100001
000000
000000
000000
;

//---------------dance-double - ----------------
#NOTEDATA:;
#CHARTNAME:;
#STEPSTYPE:dance-double;
#DESCRIPTION:;
#CHARTSTYLE:;
#DIFFICULTY:Easy;
#METER:2;
#RADARVALUES:0.083925,0.262046,0.030920,0.010307,0.000000,114.000000,108.000000,6.000000,2.000000,0.000000,0.000000,0.000000,0.000000,0.000000,0.083925,0.262046,0.030920,0.010307,0.000000,114.000000,108.000000,6.000000,2.000000,0.000000,0.000000,0.000000,0.000000,0.000000;
#CREDIT:;
#NOTES:
00000000
00000000
00000000
00000000
,
00000000
00000000
00000000
00000000
,
00000000
00000000
00000000
00000000
,
00000000
00000000
00000000
00000000
,
00000000
00000000
00000000
00000000
,
00000000
00000000
00000000
00000000
,
00000000
00000000
00000000
00000000
,
00000000
00000000
00000000
00000000
,
00000000
00000000
00000000
00000000
,
00000000
00000000
00000000
00000000
,
00000000
00000000
00000000
00000000
,
00000000
00000000
00000000
00000000
,
00000000
00000000
00000000
00000000
,
00000000
00000000
00000000
00000000
,
00000000
00000000
00000000
00000000
,
00000000
00000000
00000000
00000000
,
00000000
00000000
00000000
00000000
,
00000000
00000000
00000000
00000000
,
00000000
00000000
00000000
00000000
,
00000000
00000000
00000000
00000000
,
10000000
00000000
00100000
00000000
,
10000000
00000000
00100000
00000000
,
00000100
00000000
00100000
00000000
,
00000010
00000000
00010000
00000000
,
01000000
00000000
00010000
00000000
,
00000010
00000000
00010000
00000000
,
01000000
00000000
00100000
00000000
,
00000001
00000000
00000010
00000000
,
00100000
00000000
00000000
00000000
,
00100000
00001000
00000100
00000000
,
00000001
00001000
00000100
00000000
,
01000000
00010000
00100000
00000000
,
01000000
00011000
01000000
00000000
,
00000010
00010000
00001000
00000000
,
01000000
00010000
00001000
00000000
,
00000100
00100000
00001000
00000000
,
10000000
00110000
10000000
00000000
,
00100000
00000000
00000000
00000000
,
01000000
00000000
00000000
00000000
,
01000000
00000000
00000000
00000000
,
00000010
00001000
00000100
00000000
,
01000000
00000000
00000000
00000000
,
00010000
00000000
00000000
00000000
,
00010000
00000000
00000000
00000000
,
00100000
00000100
00010000
00000000
,
00000010
00000000
00000100
00000000
,
00000001
00000000
00001000
00000000
,
00001000
00000000
01000000
00000000
,
00000010
00000000
00001000
00000000
,
00010000
00000000
01000000
00000000
,
00000010
00000000
00100000
00000000
,
00001000
00000000
00010000
00000000
,
00000100
00000000
00100000
00000000
,
00010000
00000000
00000000
00000000
,
10000000
00100000
00010000
00000000
,
00000010
00010000
00001000
00000000
,
01000000
00100000
00000010
00000000
,
00011000
01000000
00011000
00000000
,
00000010
00001000
00010000
00000000
,
00100000
00000100
00001000
00000000
,
00000010
00100000
00001000
00000000
,
00100000
00001100
00100000
00000000
,
00000010
00000000
00000000
00000000
,
00001000
00000000
00000000
00000000
,
00100000
00000000
00000000
00000000
,
00001000
00010000
00000010
00000000
,
01000000
00000000
00000000
00000000
,
00100000
00000000
00000000
00000000
,
00010000
00000000
00000000
00000000
,
00000100
00001000
10000000
00000000
,
10000000
00000000
00000000
00000000
,
00000000
00000000
00000000
00000000
,
00000000
00000000
00000000
00000000
,
00000000
00000000
00000000
00000000
,
00000000
00000000
00000000
00000000
,
00000000
00000000
00000000
00000000
,
00000000
00000000
00000000
00000000
,
00000000
00000000
00000000
00000000
,
00000000
00000000
00000000
00000000
,
00000000
00000000
00000000
00000000
,
00000000
00000000
00000000
00000000
,
00000000
00000000
00000000
00000000
,
00000000
00000000
00000000
00000000
,
00000000
00000000
00000000
00000000
,
00000000
00000000
00000000
00000000
,
00000000
00000000
00000000
00000000
,
00000000
00000000
00000000
00000000
,
00000000
00000000
00000000
00000000
,
00000000
00000000
00000000
00000000
,
00000000
00000000
00000000
00000000
,
00000000
00000000
00000000
00000000
,
00000000
00000000
00000000
00000000
,
00000000
00000000
00000000
00000000
,
00000000
00000000
00000000
00000000
,
00000000
00000000
00000000
00000000
,
00000000
00000000
00000000
00000000
,
00000000
00000000
00000000
00000000
,
00000000
00000000
00000000
00000000
,
00000000
00000000
00000000
00000000
,
00000000
00000000
00000000
00000000
,
00000000
00000000
00000000
00000000
,
00000000
00000000
00000000
00000000
,
00000000
00000000
00000000
00000000
,
00000000
00000000
00000000
00000000
,
00000000
00000000
00000000
00000000
,
00000000
00000000
00000000
00000000
,
00000000
00000000
00000000
00000000
,
00000000
00000000
00000000
00000000
,
00000000
00000000
00000000
00000000
,
00000000
00000000
00000000
00000000
,
00000000
00000000
00000000
00000000
,
00022000
00000000
00000000
00000000
,
00000000
00000000
00000000
00000000
,
00033000
00000000
00000000
00000000
;

//---------------dance-double - ----------------
#NOTEDATA:;
#CHARTNAME:;
#STEPSTYPE:dance-double;
#DESCRIPTION:;
#CHARTSTYLE:;
#DIFFICULTY:Medium;
#METER:5;
#RADARVALUES:0.153127,0.349395,0.010307,0.010307,0.000000,208.000000,206.000000,2.000000,2.000000,0.000000,0.000000,0.000000,0.000000,0.000000,0.153127,0.349395,0.010307,0.010307,0.000000,208.000000,206.000000,2.000000,2.000000,0.000000,0.000000,0.000000,0.000000,0.000000;
#CREDIT:;
#NOTES:
00000000
00000000
00000000
00000000
,
00000000
00000000
00000000
00000000
,
00000000
00000000
00000000
00000000
,
00000000
00000000
00000000
00000000
,
00000000
00000000
00000000
00000000
,
00000000
00000000
00000000
00000000
,
00000000
00000000
00000000
00000000
,
00000000
00000000
00000000
00000000
,
00000000
00000000
00000000
00000000
,
00000000
00000000
00000000
00000000
,
00000000
00000000
00000000
00000000
,
00000000
00000000
00000000
00000000
,
00000000
00000000
00000000
00000000
,
00000000
00000000
00000000
00000000
,
00000000
00000000
00000000
00000000
,
00000000
00000000
00000000
00000000
,
00000000
00000000
00000000
00000000
,
00000000
00000000
00000000
00000000
,
00000000
00000000
00000000
00000000
,
00000000
00000000
00000000
00000000
,
01000000
00000000
00000000
00000000
00000100
00010000
00000100
00000000
,
00001000
00000000
00000000
00000000
10000000
00010000
10000000
00000000
,
00100000
00000000
00000000
00000000
00010000
00001000
00010000
00000000
,
00100000
00010000
00001000
00000010
,
00100000
00000000
00000000
00000000
00000010
00001000
00000010
00000000
,
00000100
00000000
00000000
00000000
01000000
00001000
01000000
00000000
,
00010000
00000000
00000000
00000000
00001000
00000100
00001000
00000000
,
00010000
00000000
00001000
00000100
,
00100000
00000000
00000000
00000000
,
00010000
00000000
00001000
00000000
00000100
00000001
00001000
00000000
,
00000010
00000000
00001000
00000000
00000100
00100000
00001000
00000000
,
00000010
00000000
00010000
00000000
00001000
01000000
00100000
00000000
,
00000100
00001000
00000010
00000000
01000000
00010000
01000000
00000000
,
00000010
00000000
00001000
00000000
00010000
00100000
00000010
00000000
,
00010000
00000000
00001000
00000000
01000000
00010000
00100000
00000000
,
00000100
00000000
00100000
00000000
00010000
10000000
01000000
00000000
,
00001000
00010000
00001000
00000000
10000000
00010000
00100000
00000000
,
00000100
00100000
00010000
00100000
,
00000100
10000000
00100000
00000000
,
00100000
00000010
00001000
00000010
,
00100000
00010000
00001000
00000000
,
00000010
00010000
00001000
00010000
,
00000010
01000000
00010000
00000000
,
00010000
00000001
00000100
00000001
,
00010000
00001000
00000100
00000000
,
00000001
00000000
00000000
00000000
00010000
00000100
00010000
00000000
,
00000010
00000000
00000000
00000000
00100000
00001000
00100000
00000000
,
00000010
00000000
00000000
00000000
00001000
00010000
00100000
00000000
,
00000010
00010000
00001000
01000000
,
00000100
00000000
00000000
00000000
00010000
00001000
01000000
00000000
,
00010000
00000000
00000000
00000000
00100000
00000010
00001000
00000000
,
00100000
00000000
00000000
00000000
00001000
10000000
00010000
00000000
,
00100000
00000000
00000100
10000000
,
00110000
00000000
00000000
00000000
,
00000100
00000000
00010000
00000000
00100000
01000000
00100000
00000000
,
01000000
00000000
00001000
00000000
00010000
00000100
00010000
00000000
,
00000010
00000000
01000000
00000000
00010000
00001000
00000010
00000000
,
00100000
00001000
00100000
00000000
00000100
00001000
00000100
00000000
,
00100000
00000000
00010000
00000000
00001000
00010000
00001000
00000000
,
00000001
00000000
00001000
00000000
00000100
00100000
00010000
00000000
,
00000001
00000000
00000100
00000000
00001000
00010000
00000001
00000000
,
00100000
00000100
00001000
00000000
00000100
00000001
00001000
00000000
,
00010000
00000001
00001000
00000001
,
01000000
00010000
00100000
00000000
,
00000010
01000000
00001000
00010000
,
00000100
01000000
00000010
00000000
,
00100000
00010000
00001000
00000010
,
01000000
00100000
00010000
00000000
,
00000100
00100000
00010000
10000000
,
00100000
01000000
00010000
00000000
,
10000000
00000000
00000000
00000000
,
00000000
00000000
00000000
00000000
,
00000000
00000000
00000000
00000000
,
00000000
00000000
00000000
00000000
,
00000000
00000000
00000000
00000000
,
00000000
00000000
00000000
00000000
,
00000000
00000000
00000000
00000000
,
00000000
00000000
00000000
00000000
,
00000000
00000000
00000000
00000000
,
00000000
00000000
00000000
00000000
,
00000000
00000000
00000000
00000000
,
00000000
00000000
00000000
00000000
,
00000000
00000000
00000000
00000000
,
00000000
00000000
00000000
00000000
,
00000000
00000000
00000000
00000000
,
00000000
00000000
00000000
00000000
,
00000000
00000000
00000000
00000000
,
00000000
00000000
00000000
00000000
,
00000000
00000000
00000000
00000000
,
00000000
00000000
00000000
00000000
,
00000000
00000000
00000000
00000000
,
00000000
00000000
00000000
00000000
,
00000000
00000000
00000000
00000000
,
00000000
00000000
00000000
00000000
,
00000000
00000000
00000000
00000000
,
00000000
00000000
00000000
00000000
,
00000000
00000000
00000000
00000000
,
00000000
00000000
00000000
00000000
,
00000000
00000000
00000000
00000000
,
00000000
00000000
00000000
00000000
,
00000000
00000000
00000000
00000000
,
00000000
00000000
00000000
00000000
,
00000000
00000000
00000000
00000000
,
00000000
00000000
00000000
00000000
,
00000000
00000000
00000000
00000000
,
00000000
00000000
00000000
00000000
,
00000000
00000000
00000000
00000000
,
00000000
00000000
00000000
00000000
,
00000000
00000000
00000000
00000000
,
00000000
00000000
00000000
00000000
,
00000000
00000000
00000000
00000000
,
00022000
00000000
00000000
00000000
,
00000000
00000000
00000000
00000000
,
00033000
00000000
00000000
00000000
;

//---------------dance-double - ----------------
#NOTEDATA:;
#CHARTNAME:;
#STEPSTYPE:dance-double;
#DESCRIPTION:;
#CHARTSTYLE:;
#DIFFICULTY:Hard;
#METER:6;
#RADARVALUES:0.202451,0.436743,0.087606,0.010307,0.000000,275.000000,258.000000,17.000000,2.000000,0.000000,0.000000,0.000000,0.000000,0.000000,0.202451,0.436743,0.087606,0.010307,0.000000,275.000000,258.000000,17.000000,2.000000,0.000000,0.000000,0.000000,0.000000,0.000000;
#CREDIT:;
#NOTES:
00000000
00000000
00000000
00000000
,
00000000
00000000
00000000
00000000
,
00000000
00000000
00000000
00000000
,
00000000
00000000
00000000
00000000
,
00000000
00000000
00000000
00000000
,
00000000
00000000
00000000
00000000
,
00000000
00000000
00000000
00000000
,
00000000
00000000
00000000
00000000
,
00000000
00000000
00000000
00000000
,
00000000
00000000
00000000
00000000
,
00000000
00000000
00000000
00000000
,
00000000
00000000
00000000
00000000
,
00000000
00000000
00000000
00000000
,
00000000
00000000
00000000
00000000
,
00000000
00000000
00000000
00000000
,
00000000
00000000
00000000
00000000
,
00000000
00000000
00000000
00000000
,
00000000
00000000
00000000
00000000
,
00000000
00000000
00000000
00000000
,
00000000
00000000
00000000
00000000
,
10000000
00000100
10000000
00100000
00010000
00000100
00000100
00000000
,
10000000
00001000
10000000
00000100
00010000
00001000
00001000
00000000
,
01000000
00000100
01000000
00010000
10000000
00000100
00000100
00000000
,
00010000
00000100
00010000
00001000
01000000
00000010
00000010
00000000
,
00100000
00010000
00100000
00010000
00001000
00000010
00000010
00000000
,
00010000
00000100
00010000
00001000
01000000
00000010
00000010
00000000
,
00100000
00010000
00100000
00010000
00001000
00000010
00000010
00000000
,
00100000
00000000
00000000
00000000
00000100
00010000
00000001
00000000
,
00001100
00000000
00000000
00000000
,
00100000
00000000
00000001
00000100
00000010
00001000
00000100
00000000
,
00100000
00000000
00000001
00000100
00000010
00001000
00000100
00000000
,
01000000
00000000
00010000
00001000
00000010
00010000
00000100
00000100
,
00000000
01000000
00000000
00011000
00000000
01000000
00000000
00000000
,
00100000
00000000
00010000
00001000
00000010
00010000
00001000
00000000
,
01000000
00000000
00010000
00001000
00000010
00010000
00000100
00000000
,
10000000
00000000
00010000
01000000
00100000
00010000
00000100
00100000
,
00000000
00110000
00000000
10000000
00000000
00110000
00000000
00000000
,
10000000
00000000
00100000
00010000
00000000
00010000
00000000
00010000
,
00000000
00000000
00000100
00001000
00000000
00000000
00000000
00000000
,
01000000
00000000
00001000
00010000
00000000
00010000
00000000
01000000
,
00000000
00011000
00000000
01000000
00000000
00011000
00000000
00000000
,
00000010
00000000
00001000
00010000
00000000
00010000
00000000
00010000
,
00000000
00000000
00100000
00000010
00000000
00000000
00000000
00000000
,
00100000
00000000
00000100
00001000
00000000
00001000
00000000
00100000
,
00000000
00001100
00000000
00100000
00000000
00001100
00000000
00000000
,
00100000
00000001
00100000
00001000
00000100
00000001
00000001
00000000
,
00010000
00001000
00000100
00000001
00001000
00000001
00000001
00000000
,
00001000
00010000
01000000
00001000
00010000
00000100
00000100
00000000
,
01000000
00010000
00001000
00000010
00010000
00000100
00000100
00000000
,
01000000
00001000
00010000
00000010
00001000
00010000
00010000
00000000
,
00100000
00000010
00001000
00010000
00100000
00000010
00000010
00000000
,
10000000
00010000
00100000
00001000
10000000
00010000
00010000
00000000
,
00100000
00000000
00000000
00000000
00000100
00010000
00100000
00000000
,
10000000
00000000
00000000
00000000
,
00010000
00000000
00100000
01000000
00000100
10000000
00001000
00000000
,
00010000
00000000
00001000
01000000
00000100
00100000
00000010
00000000
,
00001000
00000000
00010000
00100000
00000010
01000000
00000100
00010000
,
00000000
01000000
00000000
01010000
00000000
00010010
00000000
00000000
,
01000000
00000000
00001000
00010000
00000100
01000000
00000010
00000000
,
00000100
00000000
00001000
00010000
00000001
00100000
00000100
00000000
,
00001000
00000000
00000010
00100000
00001000
00000100
00000001
00001000
,
00000000
00001100
00000000
00100000
00000000
00001100
00000000
00000000
,
00100000
00000000
00001000
00000100
00000000
00000001
00000000
00001000
,
00000000
00000000
00000100
00010000
00000000
00000000
00000000
00000000
,
01000000
00000000
00010000
00001000
00000000
00000010
00000000
00001010
,
00000000
01000000
00000000
01010000
00000000
01000000
00000000
00000000
,
00001000
00000000
00010000
00100000
00000000
00000010
00000000
01000000
,
00000000
00000000
00010000
00100000
00000000
00000000
00000000
00000000
,
00001000
00000000
10000000
00000100
00000000
01000000
00000000
00110000
,
00000000
10100000
00000000
10000000
00000000
00100000
00000000
00000000
,
10000000
00000000
00000000
00000000
,
00000000
00000000
00000000
00000000
,
00000000
00000000
00000000
00000000
,
00000000
00000000
00000000
00000000
,
00000000
00000000
00000000
00000000
,
00000000
00000000
00000000
00000000
,
00000000
00000000
00000000
00000000
,
00000000
00000000
00000000
00000000
,
00000000
00000000
00000000
00000000
,
00000000
00000000
00000000
00000000
,
00000000
00000000
00000000
00000000
,
00000000
00000000
00000000
00000000
,
00000000
00000000
00000000
00000000
,
00000000
00000000
00000000
00000000
,
00000000
00000000
00000000
00000000
,
00000000
00000000
00000000
00000000
,
00000000
00000000
00000000
00000000
,
00000000
00000000
00000000
00000000
,
00000000
00000000
00000000
00000000
,
00000000
00000000
00000000
00000000
,
00000000
00000000
00000000
00000000
,
00000000
00000000
00000000
00000000
,
00000000
00000000
00000000
00000000
,
00000000
00000000
00000000
00000000
,
00000000
00000000
00000000
00000000
,
00000000
00000000
00000000
00000000
,
00000000
00000000
00000000
00000000
,
00000000
00000000
00000000
00000000
,
00000000
00000000
00000000
00000000
,
00000000
00000000
00000000
00000000
,
00000000
00000000
00000000
00000000
,
00000000
00000000
00000000
00000000
,
00000000
00000000
00000000
00000000
,
00000000
00000000
00000000
00000000
,
00000000
00000000
00000000
00000000
,
00000000
00000000
00000000
00000000
,
00000000
00000000
00000000
00000000
,
00000000
00000000
00000000
00000000
,
00000000
00000000
00000000
00000000
,
00000000
00000000
00000000
00000000
,
00000000
00000000
00000000
00000000
,
00022000
00000000
00000000
00000000
,
00000000
00000000
00000000
00000000
,
00033000
00000000
00000000
00000000
;

//---------------dance-couple - ----------------
#NOTEDATA:;
#CHARTNAME:;
#STEPSTYPE:dance-couple;
#DESCRIPTION:;
#CHARTSTYLE:;
#DIFFICULTY:Easy;
#METER:2;
#RADARVALUES:0.046380,0.108220,0.005153,0.000000,0.000000,63.000000,62.000000,1.000000,0.000000,0.000000,0.000000,0.000000,0.000000,0.000000,0.041963,0.126256,0.005153,0.000000,0.000000,57.000000,56.000000,1.000000,0.000000,0.000000,0.000000,0.000000,0.000000,0.000000;
#CREDIT:;
#NOTES:
00000000
00000000
00000000
00000000
,
00000000
00000000
00000000
00000000
,
00000000
00000000
00000000
00000000
,
00000000
00000000
00000000
00000000
,
00000000
00000000
00000000
00000000
,
00000000
00000000
00000000
00000000
,
00000000
00000000
00000000
00000000
,
00000000
00000000
00000000
00000000
,
00000000
00000000
00000000
00000000
,
00000000
00000000
00000000
00000000
,
00000000
00000000
00000000
00000000
,
00000000
00000000
00000000
00000000
,
00000000
00000000
00000000
00000000
,
00000000
00000000
00000000
00000000
,
00000000
00000000
00000000
00000000
,
00000000
00000000
00000000
00000000
,
00000000
00000000
00000000
00000000
,
00000000
00000000
00000000
00000000
,
00000000
00000000
00000000
00000000
,
00000000
00000000
00000000
00000000
,
10000000
00000000
00100000
00000000
,
10000000
00000000
00100000
00000000
,
00000100
00000000
00100000
00000000
,
00000010
00000000
00010000
00000000
,
01000000
00000000
00010000
00000000
,
00000010
00000000
00010000
00000000
,
01000000
00000000
00100000
00000000
,
00000001
00000000
00000010
00000000
,
00100000
00000000
00000000
00000000
,
00100000
00001000
00000100
00000000
,
00000001
00001000
00000100
00000000
,
01000000
00010000
00100000
00000000
,
01000010
00011000
01000010
00000000
,
00000010
00010000
00001000
00000000
,
01000000
00010000
00001000
00000000
,
00000100
00100000
00001000
00000000
,
10000100
00110000
10000100
00000000
,
00100000
00000000
00000000
00000000
,
01000000
00000000
00000000
00000000
,
01000000
00000000
00000000
00000000
,
00000010
00001000
00000100
00000000
,
01000000
00000000
00000000
00000000
,
00010000
00000000
00000000
00000000
,
00010000
00000000
00000000
00000000
,
00100000
00000100
00010000
00000000
,
00000010
00000000
00000100
00000000
,
00000001
00000000
00001000
00000000
,
00001000
00000000
01000000
00000000
,
00000010
00000000
00001000
00000000
,
00010000
00000000
01000000
00000000
,
00000010
00000000
00100000
00000000
,
00001000
00000000
00010000
00000000
,
00000100
00000000
00100000
00000000
,
00010000
00000000
00000000
00000000
,
10000000
00100000
00010000
00000000
,
00000010
00010000
00001000
00000000
,
01000000
00100000
00000010
00000000
,
00011000
01000010
00011000
00000000
,
00000010
00001000
00010000
00000000
,
00100000
00000100
00001000
00000000
,
00000010
00100000
00001000
00000000
,
00100001
00001100
00100001
00000000
,
00000010
00000000
00000000
00000000
,
00001000
00000000
00000000
00000000
,
00100000
00000000
00000000
00000000
,
00001000
00010000
00000010
00000000
,
01000000
00000000
00000000
00000000
,
00100000
00000000
00000000
00000000
,
00010000
00000000
00000000
00000000
,
00000100
00001000
10000000
00000000
,
10000100
00000000
00000000
00000000
;

//---------------dance-couple - ----------------
#NOTEDATA:;
#CHARTNAME:;
#STEPSTYPE:dance-couple;
#DESCRIPTION:;
#CHARTSTYLE:;
#DIFFICULTY:Medium;
#METER:5;
#RADARVALUES:0.079508,0.162329,0.005153,0.000000,0.000000,108.000000,107.000000,1.000000,0.000000,0.000000,0.000000,0.000000,0.000000,0.000000,0.073619,0.162329,0.000000,0.000000,0.000000,100.000000,100.000000,0.000000,0.000000,0.000000,0.000000,0.000000,0.000000,0.000000;
#CREDIT:;
#NOTES:
00000000
00000000
00000000
00000000
,
00000000
00000000
00000000
00000000
,
00000000
00000000
00000000
00000000
,
00000000
00000000
00000000
00000000
,
00000000
00000000
00000000
00000000
,
00000000
00000000
00000000
00000000
,
00000000
00000000
00000000
00000000
,
00000000
00000000
00000000
00000000
,
00000000
00000000
00000000
00000000
,
00000000
00000000
00000000
00000000
,
00000000
00000000
00000000
00000000
,
00000000
00000000
00000000
00000000
,
00000000
00000000
00000000
00000000
,
00000000
00000000
00000000
00000000
,
00000000
00000000
00000000
00000000
,
00000000
00000000
00000000
00000000
,
00000000
00000000
00000000
00000000
,
00000000
00000000
00000000
00000000
,
00000000
00000000
00000000
00000000
,
00000000
00000000
00000000
00000000
,
01000000
00000000
00000000
00000000
00000100
00010000
00000100
00000000
,
00001000
00000000
00000000
00000000
10000000
00010000
10000000
00000000
,
00100000
00000000
00000000
00000000
00010000
00001000
00010000
00000000
,
00100000
00010000
00001000
00000010
,
00100000
00000000
00000000
00000000
00000010
00001000
00000010
00000000
,
00000100
00000000
00000000
00000000
01000000
00001000
01000000
00000000
,
00010000
00000000
00000000
00000000
00001000
00000100
00001000
00000000
,
00010000
00000000
00001000
00000100
,
00100001
00000000
00000000
00000000
,
00010000
00000000
00001000
00000000
00000100
00000001
00001000
00000000
,
00000010
00000000
00001000
00000000
00000100
00100000
00001000
00000000
,
00000010
00000000
00010000
00000000
00001000
01000000
00100000
00000000
,
00000100
00001000
00000010
00000000
01000000
00010000
01000000
00000000
,
00000010
00000000
00001000
00000000
00010000
00100000
00000010
00000000
,
00010000
00000000
00001000
00000000
01000000
00010000
00100000
00000000
,
00000100
00000000
00100000
00000000
00010000
10000000
01000000
00000000
,
00001000
00010000
00001000
00000000
10000000
00010000
00100000
00000000
,
00000100
00100000
00010000
00100000
,
00000100
10000000
00100000
00000000
,
00100000
00000010
00001000
00000010
,
00100000
00010000
00001000
00000000
,
00000010
00010000
00001000
00010000
,
00000010
01000000
00010000
00000000
,
00010000
00000001
00000100
00000001
,
00010000
00001000
00000100
00000000
,
00000001
00000000
00000000
00000000
00010000
00000100
00010000
00000000
,
00000010
00000000
00000000
00000000
00100000
00001000
00100000
00000000
,
00000010
00000000
00000000
00000000
00001000
00010000
00100000
00000000
,
00000010
00010000
00001000
01000000
,
00000100
00000000
00000000
00000000
00010000
00001000
01000000
00000000
,
00010000
00000000
00000000
00000000
00100000
00000010
00001000
00000000
,
00100000
00000000
00000000
00000000
00001000
10000000
00010000
00000000
,
00100000
00000000
00000100
10000000
,
00110000
00000000
00000000
00000000
,
00000100
00000000
00010000
00000000
00100000
01000000
00100000
00000000
,
01000000
00000000
00001000
00000000
00010000
00000100
00010000
00000000
,
00000010
00000000
01000000
00000000
00010000
00001000
00000010
00000000
,
00100000
00001000
00100000
00000000
00000100
00001000
00000100
00000000
,
00100000
00000000
00010000
00000000
00001000
00010000
00001000
00000000
,
00000001
00000000
00001000
00000000
00000100
00100000
00010000
00000000
,
00000001
00000000
00000100
00000000
00001000
00010000
00000001
00000000
,
00100000
00000100
00001000
00000000
00000100
00000001
00001000
00000000
,
00010000
00000001
00001000
00000001
,
01000000
00010000
00100000
00000000
,
00000010
01000000
00001000
00010000
,
00000100
01000000
00000010
00000000
,
00100000
00010000
00001000
00000010
,
01000000
00100000
00010000
00000000
,
00000100
00100000
00010000
10000000
,
00100000
01000000
00010000
00000000
,
10000100
00000000
00000000
00000000
;

//---------------dance-couple - ----------------
#NOTEDATA:;
#CHARTNAME:;
#STEPSTYPE:dance-couple;
#DESCRIPTION:;
#CHARTSTYLE:;
#DIFFICULTY:Hard;
#METER:6;
#RADARVALUES:0.103802,0.216439,0.030920,0.000000,0.000000,141.000000,135.000000,6.000000,0.000000,0.000000,0.000000,0.000000,0.000000,0.000000,0.108220,0.216439,0.030920,0.000000,0.000000,147.000000,141.000000,6.000000,0.000000,0.000000,0.000000,0.000000,0.000000,0.000000;
#CREDIT:;
#NOTES:
00000000
00000000
00000000
00000000
,
00000000
00000000
00000000
00000000
,
00000000
00000000
00000000
00000000
,
00000000
00000000
00000000
00000000
,
00000000
00000000
00000000
00000000
,
00000000
00000000
00000000
00000000
,
00000000
00000000
00000000
00000000
,
00000000
00000000
00000000
00000000
,
00000000
00000000
00000000
00000000
,
00000000
00000000
00000000
00000000
,
00000000
00000000
00000000
00000000
,
00000000
00000000
00000000
00000000
,
00000000
00000000
00000000
00000000
,
00000000
00000000
00000000
00000000
,
00000000
00000000
00000000
00000000
,
00000000
00000000
00000000
00000000
,
00000000
00000000
00000000
00000000
,
00000000
00000000
00000000
00000000
,
00000000
00000000
00000000
00000000
,
00000000
00000000
00000000
00000000
,
10000000
00000100
10000000
00100000
00010000
00000100
00000100
00000000
,
10000000
00001000
10000000
00000100
00010000
00001000
00001000
00000000
,
01000000
00000100
01000000
00010000
10000000
00000100
00000100
00000000
,
00010000
00000100
00010000
00001000
01000000
00000010
00000010
00000000
,
00100000
00010000
00100000
00010000
00001000
00000010
00000010
00000000
,
00010000
00000100
00010000
00001000
01000000
00000010
00000010
00000000
,
00100000
00010000
00100000
00010000
00001000
00000010
00000010
00000000
,
00100000
00000000
00000000
00000000
00000100
00010000
00000001
00000000
,
00001100
00000000
00000000
00000000
,
00100000
00000000
00000001
00000100
00000010
00001000
00000100
00000000
,
00100000
00000000
00000001
00000100
00000010
00001000
00000100
00000000
,
01000000
00000000
00010000
00001000
00000010
00010000
00000100
00000100
,
00000000
01000010
00000000
00011000
00000000
01000010
00000000
00000000
,
00100000
00000000
00010000
00001000
00000010
00010000
00001000
00000000
,
01000000
00000000
00010000
00001000
00000010
00010000
00000100
00000000
,
10000000
00000000
00010000
01000000
00100000
00010000
00000100
00100000
,
00000000
00110000
00000000
10000100
00000000
00110000
00000000
00000000
,
10000000
00000000
00100000
00010000
00000000
00010000
00000000
00010000
,
00000000
00000000
00000100
00001000
00000000
00000000
00000000
00000000
,
01000000
00000000
00001000
00010000
00000000
00010000
00000000
01000010
,
00000000
00011000
00000000
01000010
00000000
00011000
00000000
00000000
,
00000010
00000000
00001000
00010000
00000000
00010000
00000000
00010000
,
00000000
00000000
00100000
00000010
00000000
00000000
00000000
00000000
,
00100000
00000000
00000100
00001000
00000000
00001000
00000000
00100001
,
00000000
00001100
00000000
00100001
00000000
00001100
00000000
00000000
,
00100000
00000001
00100000
00001000
00000100
00000001
00000001
00000000
,
00010000
00001000
00000100
00000001
00001000
00000001
00000001
00000000
,
00001000
00010000
01000000
00001000
00010000
00000100
00000100
00000000
,
01000000
00010000
00001000
00000010
00010000
00000100
00000100
00000000
,
01000000
00001000
00010000
00000010
00001000
00010000
00010000
00000000
,
00100000
00000010
00001000
00010000
00100000
00000010
00000010
00000000
,
10000000
00010000
00100000
00001000
10000000
00010000
00010000
00000000
,
00100000
00000000
00000000
00000000
00000100
00010000
00100000
00000000
,
10000100
00000000
00000000
00000000
,
00010000
00000000
00100000
01000000
00000100
10000000
00001000
00000000
,
00010000
00000000
00001000
01000000
00000100
00100000
00000010
00000000
,
00001000
00000000
00010000
00100000
00000010
01000000
00000100
00010000
,
00000000
01000010
00000000
01010000
00000000
00010010
00000000
00000000
,
01000000
00000000
00001000
00010000
00000100
01000000
00000010
00000000
,
00000100
00000000
00001000
00010000
00000001
00100000
00000100
00000000
,
00001000
00000000
00000010
00100000
00001000
00000100
00000001
00001000
,
00000000
00001100
00000000
00100001
00000000
00001100
00000000
00000000
,
00100000
00000000
00001000
00000100
00000000
00000001
00000000
00001000
,
00000000
00000000
00000100
00010000
00000000
00000000
00000000
00000000
,
01000000
00000000
00010000
00001000
00000000
00000010
00000000
00001010
,
00000000
01000010
00000000
01010000
00000000
01000010
00000000
00000000
,
00001000
00000000
00010000
00100000
00000000
00000010
00000000
01000000
,
00000000
00000000
00010000
00100000
00000000
00000000
00000000
00000000
,
00001000
00000000
10000000
00000100
00000000
01000000
00000000
00110000
,
00000000
10100000
00000000
10000100
00000000
00100100
00000000
00000000
,
10000100
00000000
00000000
00000000
;
