#TITLE:Good Morning Sunshine;
#SUBTITLE:;
#ARTIST:Aqua;
#TITLETRANSLIT:;
#SUBTITLETRANSLIT:;
#ARTISTTRANSLIT:;
#CREDIT:;
#BANNER:;
#BACKGROUND:;
#LYRICSPATH:;
#CDTITLE:;
#MUSIC:Good Morning Sunshine.mp3;
#OFFSET:-0.070;
#SAMPLESTART:58.200;
#SAMPLELENGTH:15.000;
#SELECTABLE:YES;
#BPMS:0.000=100.000,277.000=200.000,340.000=100.000;
#STOPS:;
#BGCHANGES:;

//---------------dance-single - ----------------
#NOTES:
     dance-single:
     :
     Hard:
     9:
     0.532,0.492,0.680,0.220,0.187: // measure 1
0000
0000
0000
0000
0110
0000
0000
0010
0100
0000
0001
0000
0100
0000
1000
0000
,  // measure 2
0110
0000
0000
0000
1001
0000
0000
1000
0001
0000
0010
0000
0001
0000
0100
0000
,  // measure 3
1001
0000
0000
0000
0110
0000
0000
0100
0010
0000
1000
0000
0010
0000
0001
0000
,  // measure 4
0110
0000
0000
0000
1001
0000
0000
0001
1000
0000
0100
0000
1000
0001
1000
0000
,  // measure 5
1000
0100
0010
0001
1000
0000
0010
0000
0100
0000
1010
0000
0000
0000
0100
0000
,  // measure 6
0011
0000
0010
0100
0010
1001
0000
1000
,  // measure 7
0010
0001
0100
1000
0010
0000
0000
0100
1000
0000
1001
0000
0000
0000
1100
0000
,  // measure 8
0101
0000
1000
0100
0001
0100
1000
0100
,  // measure 9
0001
0010
0100
1000
0001
0000
0100
0000
0010
0000
0110
0000
0000
0000
0100
0000
,  // measure 10
0110
0000
1100
0010
0100
0101
0000
0001
,  // measure 11
0100
1000
0010
0001
0100
0000
0000
0010
0001
0000
0001
0000
0000
0000
0011
0000
,  // measure 12
1010
0000
0000
0000
1000
0000
0000
0100
0001
0000
0100
0000
0010
0000
1000
0000
,  // measure 13
0010
0000
0001
0000
0110
0000
0000
0000
0110
0000
1000
0100
1000
0000
1000
0000
,  // measure 14
2200
0000
0000
0000
3300
0000
0000
0000
0000
0000
0001
0100
0001
0000
0001
0000
,  // measure 15
0202
0000
0303
0000
0000
1000
0001
1000
,  // measure 16
0001
0100
0010
0100
0010
0001
1001
0000
,  // measure 17
0100
0010
0100
0010
0100
0000
0000
0010
0000
0000
0100
0001
0100
0000
0100
0000
,  // measure 18
0202
0000
0000
0000
0303
0000
0000
0000
0000
0000
0010
0001
0010
0000
0010
0000
,  // measure 19
0022
0000
0033
0000
0000
0100
0010
0100
,  // measure 20
0010
0001
1000
0001
1000
0010
0110
0000
,  // measure 21
1000
0001
1000
0000
0022
0000
0000
0000
0000
0000
0000
0000
0030
0000
0003
0000
,  // measure 22
1000
1001
0000
0000
1000
0101
0000
0001
,  // measure 23
1100
0000
0000
0000
0110
0000
0001
1000
0000
1000
0001
0000
0000
0000
0010
0000
,  // measure 24
0100
0002
0000
0000
0003
0100
0001
0110
,  // measure 25
0001
1000
0001
0000
0100
0000
0100
0000
0010
0000
0010
0000
0000
0000
1001
0000
,  // measure 26
1001
0000
0100
0000
0001
0000
0010
0000
1000
0000
1100
0000
0000
0010
0000
0001
,  // measure 27
0100
0000
0001
0100
0010
0001
0000
1010
,  // measure 28
0011
0000
1010
0000
0000
0000
0010
0000
0100
0000
0000
0100
0010
0100
0000
0000
,  // measure 29
0000
1100
0001
0000
0011
0100
0010
1100
,  // measure 30
0000
1010
1001
0011
0000
0001
0101
1000
,  // measure 31
1100
0000
0001
0001
1000
1000
0000
0110
,  // measure 32
0110
0000
0001
0000
0010
0000
1000
0000
0100
0000
0101
0000
0000
1000
0000
0010
,  // measure 33
0001
1000
0010
0001
1000
0010
0000
1100
,  // measure 34
1010
0000
1100
0000
0000
0000
1000
0000
0001
0000
0000
0001
1000
0001
0000
0000
,  // measure 35
0000
0000
0001
0100
0010
0000
0000
1000
0010
0000
0100
0000
0101
0000
0000
0000
,  // measure 36
0000
0000
1000
0010
1000
0000
0100
0000
0100
0000
0220
0000
0000
0000
0330
0000
,  // measure 37
0000
0000
0010
0000
1000
0000
0010
0001
0010
0000
0110
0000
1001
0000
0000
0000
,  // measure 38
0000
0000
0000
0000
1001
0000
0000
0000
0000
0000
0100
0001
0100
0000
0010
0000
,  // measure 39
1100
0022
0000
0000
0000
0000
0033
1001
,  // measure 40
0101
0000
0011
0100
1000
0110
0000
1000
,  // measure 41
0100
0010
0001
0100
0001
0000
0000
1000
0010
0000
0101
0000
0000
0010
1000
0000
,  // measure 42
1100
0000
0000
0000
0100
0000
0010
0000
0001
0000
0100
0010
1000
0000
0000
0000
,  // measure 43
1001
0000
0000
0000
0110
0000
0000
0000
1001
0000
0010
1000
0100
0000
1000
0000
,  // measure 44
2020
0000
0000
0000
0000
0000
3030
0000
0000
0000
0010
0001
0100
0000
0001
0000
,  // measure 45
0022
0000
0000
0033
0000
0200
0000
0310
,  // measure 46
0020
0200
0330
0000
0011
1010
0220
0330
,  // measure 47
0000
0000
0010
0100
1000
0001
0010
0000
0110
0000
0100
1000
0001
0000
0010
0000
,  // measure 48
0202
0000
0000
0000
0303
0000
0001
0000
1000
0000
0100
0001
1000
0000
0010
0100
,  // measure 49
0000
0200
0310
0000
0001
0000
1000
0000
0001
0000
0020
0000
0000
0000
0130
0000
,  // measure 50
0200
0310
0000
1001
0110
0102
0000
2000
,  // measure 51
3003
0000
0120
0100
0100
0100
0100
0130
,  // measure 52
1001
1001
0000
0000
0110
1010
0000
0110
,  // measure 53
0011
0000
0000
0000
1000
0000
0100
0001
0000
0001
0100
0000
0000
0000
0001
0000
,  // measure 54
1000
0202
0000
0303
0000
1000
0001
1100
,  // measure 55
0001
1000
0001
0000
0100
0000
1000
0000
0100
0000
1000
0000
0000
0000
0110
0000
,  // measure 56
1100
0000
0010
0000
1000
0000
0010
0000
0010
0000
1100
0000
0000
0100
0000
0010
,  // measure 57
0001
0000
0010
1000
0100
0010
0000
1010
,  // measure 58
0110
0000
0110
0000
0000
0000
0100
0000
0010
0000
0000
0001
1000
0010
0000
0000
,  // measure 59
0000
0110
0001
0000
0011
0001
1000
1010
,  // measure 60
0000
0110
0110
1001
0000
0001
1001
0001
,  // measure 61
1010
0000
0001
0001
0100
0100
0000
0011
,  // measure 62
0110
0000
1000
0000
0100
0000
0001
0000
0100
0000
1001
0000
0000
0001
0000
0100
,  // measure 63
0010
0001
0010
0100
0001
1000
0000
0011
,  // measure 64
0101
0000
0110
0000
0000
0000
0010
0000
1000
0000
0000
0001
0010
1000
0000
0000
,  // measure 65
0000
0000
1000
0100
0001
0000
0000
1000
0001
0000
0100
0000
1100
0000
0000
0000
,  // measure 66
0000
0000
0010
0100
0010
0000
1000
0000
0001
0000
0220
0000
0000
0000
0330
0000
,  // measure 67
0000
0000
0010
0000
0001
0000
0100
0010
1000
0000
1010
0000
0110
0000
0000
0000
,  // measure 68
0000
0000
0000
0000
1010
0000
0000
0000
0000
0000
0100
0001
0100
0000
0010
0000
,  // measure 69
0101
2002
0000
0000
0000
0000
0000
0000
,  // measure 70
3003
0000
1000
0001
0000
0001
1000
0100
,  // measure 71
0010
0001
1000
0100
0010
0001
0011
0000
,  // measure 72
0100
0010
0110
0000
0001
0100
0101
0000
,  // measure 73
0000
0000
1000
0001
0000
1001
0000
0010
,  // measure 74
0100
1000
0101
0000
0000
0001
1100
0000
,  // measure 75
0001
0010
0100
0010
1000
0100
1000
0001
,  // measure 76
0010
1000
0010
0100
1000
0001
1010
0000
,  // measure 77
0000
0100
0010
0000
0000
0010
0100
0000
,  // measure 78
0000
0000
0001
0000
0010
0000
0000
1000
0000
0000
0100
0000
1000
0000
0000
0001
,  // measure 79
0000
0000
0000
0010
0000
0000
1000
0000
0100
0000
0010
0000
0100
0000
0000
0000
,  // measure 80
0000
0001
1000
0100
1000
0001
0100
0010
,  // measure 81
0100
1000
0001
0010
0001
1000
0010
0100
,  // measure 82
1000
0010
1000
1001
0000
0001
1000
0100
,  // measure 83
0010
0001
0010
0100
1000
0100
2001
0000
,  // measure 84
3000
0000
0001
0000
0100
0000
0000
1000
0000
0000
0100
0000
0001
0000
0000
0100
,  // measure 85
0000
0010
0001
0000
0010
0100
1000
0000
,  // measure 86
2002
0000
0000
0000
3003
0000
0000
0000
1000
0001
1000
0000
0010
0000
0100
0000
,  // measure 87
0010
0020
0000
0200
0000
0330
0000
1001
,  // measure 88
0020
0030
0000
1001
0200
0300
0000
1001
,  // measure 89
0220
0000
0000
0000
0330
0000
0110
0000
0000
0000
0000
1000
0001
0000
0110
0000
,  // measure 90
0000
0010
0100
0010
0100
0000
1010
0110
,  // measure 91
1000
0000
0100
0000
1000
0000
1000
0000
0110
0000
0000
0010
0000
1000
0001
0000
,  // measure 92
0000
1000
0100
0010
1000
0000
1100
1010
,  // measure 93
1010
0000
0000
0000
0010
0000
1000
0000
0000
0001
0100
1000
0000
0000
0000
0000
,  // measure 94
1010
0001
0000
1001
0001
0100
1100
0000
,  // measure 95
1010
1010
0101
0000
0001
0101
0001
1100
,  // measure 96
0000
0001
0001
0010
0010
0000
1001
1010
,  // measure 97
0100
0000
0010
0000
0001
0000
0010
0000
0101
0000
0000
0001
0000
0010
1000
0000
,  // measure 98
0001
1000
0010
0001
0100
0000
1001
0011
,  // measure 99
1010
0000
0000
0000
1000
0000
0100
0000
0000
0001
1000
0100
0000
0000
0000
0000
,  // measure 100
0100
0010
0001
0000
0000
0100
0001
0000
0010
0000
0110
0000
0000
0000
0000
0000
,  // measure 101
1000
0010
1000
0000
0100
0000
0001
0000
2020
0000
0000
0000
3030
0000
0000
0000
,  // measure 102
1000
0000
0001
0000
0010
1000
0100
0000
1100
0000
1010
0000
0000
0000
0000
0000
,  // measure 103
0000
0000
1100
0000
0000
0000
0000
0000
0010
0001
0010
0000
1000
0000
0011
0000
,  // measure 104
0202
0000
0000
0000
0000
0000
0000
0303
,  // measure 105
0000
0001
0010
0100
1000
0000
1000
0010
,  // measure 106
0000
0100
0010
0001
1000
0000
0110
0000
,  // measure 107
0000
0000
1001
0000
1001
0000
1001
0000
0010
1000
0010
0000
0001
0000
1010
0000
,  // measure 108
0220
0000
0000
0330
;

//---------------dance-single - ----------------
#NOTES:
     dance-single:
     :
     Medium:
     7:
     0.399,0.425,0.091,0.212,0.000: // measure 1
0000
0000
1000
0000
1000
0100
0010
0001
,  // measure 2
1000
0000
0100
0000
0100
1000
0100
0010
,  // measure 3
0100
0000
1000
0000
1000
0001
1000
0100
,  // measure 4
1000
0000
0100
0000
0100
0010
0001
0100
,  // measure 5
0001
1000
0100
1000
0010
1000
0000
0010
,  // measure 6
0100
0000
1000
0010
1000
0100
0000
0001
,  // measure 7
1000
0100
1000
0000
0010
0100
0000
0010
,  // measure 8
0100
0000
0001
0010
0100
0010
0001
0010
,  // measure 9
0100
1000
0100
0010
1000
1000
0000
0010
,  // measure 10
1000
0000
0010
1000
0010
0100
0000
0100
,  // measure 11
0010
1000
0100
0000
0100
0100
0000
0100
,  // measure 12
1000
0000
0001
0000
0100
0010
1000
0001
,  // measure 13
1000
0100
1000
0000
1000
0001
0010
0001
,  // measure 14
0220
0000
0330
0000
0000
0100
0100
0100
,  // measure 15
0220
0000
0330
0000
0000
0001
0100
0001
,  // measure 16
0100
0010
1000
0010
1000
0100
0100
0000
,  // measure 17
0010
1000
1000
0000
1000
0010
0100
0010
,  // measure 18
0220
0000
0330
0000
0000
1000
0100
1000
,  // measure 19
0220
0000
0330
0000
0000
0010
1000
0010
,  // measure 20
1000
0100
0001
0100
0001
1000
1000
0000
,  // measure 21
0001
0100
0200
0000
0000
0000
0000
0300
,  // measure 22
0001
0100
0000
0000
0001
0100
0000
0100
,  // measure 23
0010
0000
1000
0100
0001
0100
0000
1000
,  // measure 24
0010
0200
0000
0000
0300
0010
0100
1000
,  // measure 25
0100
0100
0010
0010
1000
1000
0000
0100
,  // measure 26
0100
0010
0100
1000
0001
0010
0000
1000
,  // measure 27
0100
0000
0100
0010
1000
0100
0000
1000
,  // measure 28
0100
1000
0000
1000
0010
0000
1000
0010
,  // measure 29
0000
0010
0100
0000
0100
0010
1000
0010
,  // measure 30
0000
1000
0100
0100
0000
0100
0100
0001
,  // measure 31
0010
0000
0100
0100
0001
0001
0000
1000
,  // measure 32
1000
0100
1000
0001
0010
0100
0000
0001
,  // measure 33
0100
0001
1000
0100
0001
1000
0000
0010
,  // measure 34
1000
0010
0000
0001
0100
0000
0100
0100
,  // measure 35
0000
0100
1000
0000
1000
0010
0100
0000
,  // measure 36
0000
0001
1000
0010
0010
2000
0000
3000
,  // measure 37
0000
1000
0001
1000
0100
1000
0100
0000
,  // measure 38
0000
0000
0100
0000
0000
0010
0100
1000
,  // measure 39
0010
0220
0000
0000
0000
0000
0330
0100
,  // measure 40
0100
0000
0100
0010
0001
1000
0000
0001
,  // measure 41
0010
0100
0100
0000
1000
0100
0000
1000
,  // measure 42
0010
0000
0010
1000
0100
0010
1000
0000
,  // measure 43
0100
0000
1000
0000
0100
1000
0010
0001
,  // measure 44
2002
0000
0000
3003
0000
1000
0100
0100
,  // measure 45
0202
0000
0000
0303
0000
0220
0000
0330
,  // measure 46
2200
0000
3300
0000
0100
1000
2002
3003
,  // measure 47
0000
1000
0010
0100
1000
0010
0100
1000
,  // measure 48
2200
0000
3300
0100
0001
0010
0100
1000
,  // measure 49
0010
1000
0100
0001
0100
2002
0000
3003
,  // measure 50
0022
0033
0000
0100
1000
0202
0000
0000
,  // measure 51
0303
0000
2020
0000
0000
0000
0000
3030
,  // measure 52
0100
0100
0000
0000
1000
1000
0000
1000
,  // measure 53
0100
0000
0001
0010
0100
0100
0000
0100
,  // measure 54
0001
2200
0000
3300
0000
0001
0100
0010
,  // measure 55
0100
0100
0010
0001
0010
0001
0000
1000
,  // measure 56
0010
1000
0001
1000
1000
0010
0000
0010
,  // measure 57
0100
0000
1000
0001
0010
1000
0000
1000
,  // measure 58
1000
1000
0000
0010
1000
0000
0100
1000
,  // measure 59
0000
1000
0100
0000
0100
0100
0001
1000
,  // measure 60
0000
1000
1000
0100
0000
0100
0100
0100
,  // measure 61
1000
0000
0100
0100
0010
0010
0000
0100
,  // measure 62
1000
0001
0010
0100
0010
0100
0000
0100
,  // measure 63
1000
0100
1000
0010
0100
0001
0000
0100
,  // measure 64
0100
1000
0000
1000
0001
0000
0100
0001
,  // measure 65
0000
0001
0100
0000
0100
0010
0010
0000
,  // measure 66
0000
1000
1000
0001
0100
2200
0000
3300
,  // measure 67
0000
1000
0100
0010
1000
0001
1000
0000
,  // measure 68
0000
0000
1000
0000
0000
0010
0100
1000
,  // measure 69
0100
0200
0000
0000
0000
0000
0000
0000
,  // measure 70
0300
0000
0001
0100
0000
0100
0001
0010
,  // measure 71
1000
0100
0001
0010
1000
0100
0100
0000
,  // measure 72
0010
1000
1000
0000
0100
0010
0100
0000
,  // measure 73
0000
0000
0001
0100
0000
0100
0000
1000
,  // measure 74
0010
0001
0100
0000
0000
0100
0010
0000
,  // measure 75
0100
1000
0010
1000
0001
0010
0001
0100
,  // measure 76
1000
0001
1000
0010
0001
0100
1000
0000
,  // measure 77
0000
0010
1000
0000
0000
1000
0010
0000
,  // measure 78
0000
0100
1000
0000
0001
0010
0001
0000
,  // measure 79
0100
0000
1000
0001
0010
1000
0010
0000
,  // measure 80
0000
0100
0001
0010
0001
0100
0010
1000
,  // measure 81
0010
0001
0100
1000
0100
0001
1000
0010
,  // measure 82
0001
1000
0001
0100
0000
0100
0001
0010
,  // measure 83
1000
0100
1000
0010
0001
0010
0100
0000
,  // measure 84
0000
0100
0010
0000
0001
0010
0100
0000
,  // measure 85
0010
1000
0100
0000
1000
0010
0001
0000
,  // measure 86
0202
0000
0303
0000
0001
0100
1000
0010
,  // measure 87
1000
0022
0000
0000
0000
0033
0000
0100
,  // measure 88
2000
3000
0000
0100
0020
0030
0000
0100
,  // measure 89
2000
0000
3000
1000
0000
0000
0100
1000
,  // measure 90
0000
1000
0010
1000
0010
0000
1000
1000
,  // measure 91
0001
0010
0001
0001
1000
0000
1000
0100
,  // measure 92
0000
0001
0010
1000
0001
0000
0010
1000
,  // measure 93
1000
0000
1000
0001
0000
0100
0001
0000
,  // measure 94
1000
0100
0000
0100
0100
0010
0010
0000
,  // measure 95
1000
1000
0100
0000
0100
0100
0100
0010
,  // measure 96
0000
0100
0100
1000
1000
0000
0100
1000
,  // measure 97
0010
1000
0100
1000
0100
0000
0100
1000
,  // measure 98
0100
0001
1000
0100
0010
0000
0100
0100
,  // measure 99
1000
0000
0001
0010
0000
0100
0010
0000
,  // measure 100
0010
0100
0000
0100
1000
1000
0000
0000
,  // measure 101
0001
1000
0010
0100
0202
0000
0303
0000
,  // measure 102
0001
0100
1000
0010
0010
1000
0000
0000
,  // measure 103
0000
0010
0000
0000
1000
0100
0001
0100
,  // measure 104
0220
0000
0000
0000
0000
0000
0000
0330
,  // measure 105
0000
0100
1000
0010
0001
0000
0001
1000
,  // measure 106
0000
0010
1000
0100
0001
0000
1000
0000
,  // measure 107
0000
0100
0100
0100
1000
1000
0100
1000
,  // measure 108
2002
0000
0000
3003
;

//---------------dance-single - ----------------
#NOTES:
     dance-single:
     :
     Easy:
     4:
     0.276,0.291,0.203,0.199,0.000: // measure 1
0000
1000
1000
0010
,  // measure 2
0001
0100
0100
0100
,  // measure 3
0010
1000
1000
0001
,  // measure 4
0100
0100
0100
0001
,  // measure 5
1001
0100
0010
1000
,  // measure 6
0011
1000
0010
0100
,  // measure 7
1001
0100
0010
0100
,  // measure 8
0010
0001
0010
0001
,  // measure 9
0010
0110
0010
1000
,  // measure 10
0010
1010
0010
0100
,  // measure 11
0010
0101
0100
0100
,  // measure 12
0100
0001
0100
0010
,  // measure 13
0001
0110
1001
0100
,  // measure 14
0001
1000
0100
0001
,  // measure 15
0020
0030
0001
1000
,  // measure 16
0001
0010
0010
0110
,  // measure 17
0010
1000
1000
0010
,  // measure 18
0020
0030
0001
0100
,  // measure 19
0020
0030
1000
0010
,  // measure 20
0010
0001
0001
1000
,  // measure 21
0001
0220
0000
0000
,  // measure 22
0330
0100
0001
0100
,  // measure 23
0010
1000
0001
0100
,  // measure 24
0010
0200
0300
0010
,  // measure 25
0100
0011
0010
1010
,  // measure 26
0100
1010
0001
0011
,  // measure 27
0100
1100
0010
0101
,  // measure 28
0100
1000
0010
1000
,  // measure 29
0010
0010
0100
0010
,  // measure 30
0010
0100
0100
0100
,  // measure 31
1001
0100
0001
0011
,  // measure 32
1000
0100
0001
1100
,  // measure 33
0001
0001
0001
1000
,  // measure 34
0010
0110
0001
0100
,  // measure 35
0100
1000
0010
0002
,  // measure 36
0003
0001
0010
2000
,  // measure 37
3000
0001
0100
0200
,  // measure 38
0300
0100
0000
0010
,  // measure 39
0010
0220
0000
0330
,  // measure 40
0100
0100
0001
1000
,  // measure 41
0001
0100
1000
0100
,  // measure 42
0010
0010
0100
0010
,  // measure 43
0100
1001
0100
0010
,  // measure 44
0022
0000
0033
0100
,  // measure 45
0202
0000
0303
0020
,  // measure 46
0030
0000
0100
0002
,  // measure 47
0003
0010
0100
0010
,  // measure 48
0220
0330
0001
0010
,  // measure 49
0010
0100
0001
2002
,  // measure 50
0000
3003
0100
0022
,  // measure 51
0033
2020
0000
0000
,  // measure 52
3030
0100
1000
1000
,  // measure 53
0100
0001
0010
0100
,  // measure 54
0001
0202
0303
0010
,  // measure 55
1001
0110
0001
0001
,  // measure 56
0010
0001
1000
1010
,  // measure 57
0010
1000
0001
1000
,  // measure 58
0001
1100
0010
0100
,  // measure 59
1000
0100
0100
0001
,  // measure 60
1001
1000
0100
0010
,  // measure 61
0110
0010
0100
0010
,  // measure 62
0100
0001
0010
1001
,  // measure 63
0100
0100
0010
0001
,  // measure 64
0100
2200
0000
3300
,  // measure 65
0001
0001
0100
0020
,  // measure 66
0030
1000
0001
0200
,  // measure 67
0300
0100
0010
0002
,  // measure 68
0003
2000
3000
0010
,  // measure 69
0100
0220
0000
0000
,  // measure 70
0330
0001
0100
0001
,  // measure 71
0010
0001
0010
0100
,  // measure 72
0010
1000
0100
0010
,  // measure 73
0000
0001
0100
0100
,  // measure 74
0010
0001
0000
0010
,  // measure 75
0100
0010
0001
0001
,  // measure 76
0100
0001
0001
0100
,  // measure 77
0000
0010
0000
0010
,  // measure 78
0000
0100
0001
0001
,  // measure 79
0100
1000
0001
0010
,  // measure 80
0000
0001
0001
0010
,  // measure 81
0010
0001
0100
0001
,  // measure 82
0001
0001
0100
0001
,  // measure 83
0010
0100
0001
0010
,  // measure 84
0000
0010
0001
0010
,  // measure 85
0010
0100
1000
0001
,  // measure 86
0002
0003
0001
0100
,  // measure 87
2020
0000
0000
3030
,  // measure 88
0200
0000
0320
0030
,  // measure 89
0200
0000
1300
0100
,  // measure 90
1000
0011
0010
1010
,  // measure 91
0001
0101
0001
1100
,  // measure 92
0100
0101
0001
1010
,  // measure 93
1000
1100
0001
0001
,  // measure 94
1000
0100
0100
0010
,  // measure 95
1000
0100
0100
0220
,  // measure 96
0330
0100
1000
0100
,  // measure 97
0010
0100
0100
0100
,  // measure 98
0100
0001
0010
0100
,  // measure 99
0100
0001
0010
0010
,  // measure 100
0010
0100
0100
1000
,  // measure 101
0001
0010
0002
0003
,  // measure 102
0001
0100
0010
1000
,  // measure 103
0000
0010
1000
0001
,  // measure 104
0220
0000
0000
0000
,  // measure 105
0330
1000
0100
0001
,  // measure 106
1000
0010
0001
1000
,  // measure 107
0000
0100
0010
0100
,  // measure 108
2002
0000
0000
3003
;
