#VERSION:0.83;
#TITLE:Calendar Girl;
#SUBTITLE:;
#ARTIST:Crispy;
#TITLETRANSLIT:;
#SUBTITLETRANSLIT:;
#ARTISTTRANSLIT:;
#GENRE:Bubblegum Dance;
#ORIGIN:;
#CREDIT:;
#BANNER:Calendar Girl.png;
#BACKGROUND:Calendar Girl-bg.png;
#PREVIEWVID:;
#JACKET:;
#CDIMAGE:;
#DISCIMAGE:;
#LYRICSPATH:;
#CDTITLE:;
#MUSIC:Crispy - Calendar Girl.mp3;
#OFFSET:-0.675500;
#SAMPLESTART:15.700015;
#SAMPLELENGTH:14.999999;
#SELECTABLE:YES;
#DISPLAYBPM:136.000000;
#BPMS:0.000=136.000;
#STOPS:;
#DELAYS:;
#WARPS:;
#TIMESIGNATURES:0.000=4=4;
#TICKCOUNTS:0.000=4;
#COMBOS:0.000=1;
#SPEEDS:0.000=1.000=0.000=0;
#SCROLLS:0.000=1.000;
#FAKES:;
#LABELS:0.000=Song Start;
#BGCHANGES:;
#KEYSOUNDS:;
#ATTACKS:
;

//---------------dance-single - ----------------
#NOTEDATA:;
#CHARTNAME:;
#STEPSTYPE:dance-single;
#DESCRIPTION:;
#CHARTSTYLE:;
#DIFFICULTY:Challenge;
#METER:10;
#RADARVALUES:0.774680,0.744988,0.686012,0.242671,0.599677,1162.000000,1015.000000,147.000000,52.000000,0.000000,0.000000,0.000000,0.000000,0.000000,0.774680,0.744988,0.686012,0.242671,0.599677,1162.000000,1015.000000,147.000000,52.000000,0.000000,0.000000,0.000000,0.000000,0.000000;
#CREDIT:;
#DISPLAYBPM:136.000000;
#NOTES:
0000
0000
0000
0000
,
0000
0000
0000
0000
,
0000
0000
0000
0000
,
0000
0000
0000
0000
,
0000
0000
0000
0000
0000
0000
0000
0000
0001
0010
0001
0000
1000
0000
0010
0000
,
0110
0000
0000
0101
0000
0000
0110
0000
0010
1000
0010
0000
0100
0000
0001
0000
,
1001
0000
0000
1100
0000
0000
1001
0000
0001
0100
0001
0000
0100
0000
0010
0000
,
0110
0000
0000
1001
0000
0000
0110
0000
1000
0010
1000
0000
0010
0000
0100
0000
,
0012
0000
0000
0000
0000
0000
0000
0000
0013
0100
1000
0000
0001
0100
0010
0000
,
0100
0001
1000
0000
0100
0010
0001
0000
0010
0100
1000
0000
0001
0100
0001
0000
,
1000
0010
1000
0000
0001
0100
0001
0000
1000
0100
0010
0000
0100
1000
0001
0000
,
0100
0010
1000
0000
0010
0100
0001
0000
1000
0100
1000
0000
0010
0100
0010
0000
,
1000
0100
1000
0000
1000
0001
1000
0000
0001
0100
0010
0000
1000
0001
0010
0000
,
0100
1000
0001
0000
0100
0010
1000
0000
0001
0100
0001
0000
1000
0100
1000
0000
,
0100
0010
0100
0000
0010
0001
1000
0000
0001
0100
0001
0000
1000
0010
1000
0000
,
0100
0010
0001
0000
0010
0100
1000
0000
0001
0100
0001
0000
1000
0001
0100
0000
,
0001
1000
0100
0010
0001
0000
0011
0000
0010
0100
0010
0000
0100
0000
1000
0000
,
1001
0000
0000
0101
0000
0000
1010
0000
0100
0001
0010
0000
0100
0000
1000
0000
,
1100
0000
0000
0110
0000
0000
0011
0000
0100
0010
0100
0000
1000
0000
0001
0000
,
0101
0000
0000
1010
0000
0000
0101
0000
0010
1000
0100
0000
0010
0000
0100
0000
,
0210
0000
0000
0000
0000
0000
0000
0000
0310
0001
0010
0000
0100
0000
1000
0000
,
1001
0000
0000
0101
0000
0000
1010
0000
0001
0100
0010
0000
0100
0000
0001
0000
,
0011
0000
0000
1100
0000
0000
0011
0000
0100
1000
0001
0000
0100
0000
0010
0000
,
0110
0000
0000
1001
0000
0000
0110
0000
0010
1000
0001
0000
0100
0000
0001
0000
,
1100
0000
1000
0100
1000
0000
1100
0000
0100
0010
0000
0000
0010
0001
0000
0000
,
0001
1000
0000
0000
1000
0010
0000
0000
0010
0100
0000
0000
0100
0001
0000
0000
,
0001
1000
0000
0000
1000
0010
1000
0010
1000
0000
0001
0000
0100
0000
0001
0000
,
0020
0130
1000
0001
0200
0310
0100
0010
,
2000
0000
3001
0000
0020
0130
1000
0001
,
0020
0031
2000
0000
3002
0013
0100
1000
,
0200
0000
0310
0000
0002
0103
1000
0100
,
0002
0103
0010
1000
0200
0000
0301
0100
,
2000
0000
3010
0000
0200
0310
1000
0001
,
0020
0000
0031
0100
0020
0130
1000
0100
,
0002
0000
0000
0000
1003
0000
0000
0000
0001
1000
0001
0000
0100
0000
0101
0000
,
1010
0000
0000
0000
0010
0000
0000
0000
0100
0001
0100
0000
0010
0000
1100
0000
,
0011
0000
0000
0000
0010
0000
0000
0000
0100
0010
0100
0000
1000
0000
1001
0000
,
0110
0000
0000
0000
0001
0000
0000
0000
1000
0100
1000
0000
0001
0100
0001
0000
,
1000
0010
1000
0000
0001
0010
0001
0000
1000
0010
1000
0000
0010
0000
0110
0000
,
1001
0000
0000
0000
0010
0000
0000
0000
0100
0001
0100
0000
0010
0000
1100
0000
,
0011
0000
0000
0000
0100
0000
0000
0000
1000
0100
0010
0000
0001
0000
1010
0000
,
1001
0000
1000
0000
0200
2300
3200
2300
,
3010
0100
0010
0100
0010
0100
0010
0100
0010
1000
0010
0000
0100
0001
1000
0000
,
0100
0010
0100
0000
1000
0001
0100
0000
0010
1000
0001
0000
0100
0001
1000
0000
,
0100
0010
0100
0000
0010
0001
0010
0000
0100
1000
0010
0000
0100
0001
0100
0000
,
0010
0001
0010
0000
0100
0010
0100
0000
0001
1000
0100
0000
1000
0010
0100
0000
,
0001
1000
0001
0000
0010
0100
0010
0100
0010
0001
0010
0000
0100
1000
0100
0000
,
0010
0001
0100
0000
0010
1000
0010
0000
0100
1000
0100
0000
0001
0100
0001
0000
,
1000
0010
1000
0000
0010
0100
0001
0000
0010
0100
1000
0000
0001
0100
0001
0000
,
1000
0100
0001
0000
0100
1000
0001
0000
0010
0001
0010
0000
0100
1000
0001
0000
,
1000
0010
0000
1000
0010
0000
0110
0000
0100
0001
0100
0000
0010
0000
1000
0000
,
1100
0000
0000
0110
0000
0000
0011
0000
0001
0100
0010
0000
1000
0000
0100
0000
,
1100
0000
0000
0110
0000
0000
1001
0000
1000
0010
0001
0000
0010
0000
1000
0000
,
1100
0000
0000
0110
0000
0000
1100
0000
0001
0010
0001
0000
2000
0000
3200
0000
,
2300
0000
0000
0000
3010
0000
0000
0000
0010
0100
0000
0000
0100
1000
0000
0000
,
1000
0001
0000
0000
0001
0100
0000
0000
0100
0010
0000
0000
0010
1000
0000
0000
,
1000
0001
0000
0000
0001
0100
0001
0100
0001
0100
0000
0000
0100
1000
0000
0000
,
1000
0001
0000
0000
0001
0100
0000
0000
0100
0010
0000
0000
0010
1000
0000
0000
,
1000
0001
0000
0000
0001
0100
0001
0100
0001
0000
1000
0000
0010
0000
1000
0000
,
0200
0310
0001
1000
0020
0130
0010
0100
,
0002
0000
1003
0000
0200
0310
0001
1000
,
0200
1300
0002
0000
2003
3100
0010
0001
,
0020
0000
0130
0000
2000
3010
0001
0010
,
2000
3010
0100
0001
0020
0000
1030
0010
,
0002
0000
0103
0000
0020
0130
0001
1000
,
0200
0000
1300
0010
0200
0310
0001
0010
,
2000
0000
0000
0000
3001
0000
0000
0000
1000
0001
1000
0000
0010
0000
1010
0000
,
0101
0000
0000
0000
0100
0000
0000
0000
0010
1000
0010
0000
0100
0000
0011
0000
,
1100
0000
0000
0000
0100
0000
0000
0000
0010
0100
0010
0000
0001
0000
1001
0000
,
0110
0000
0000
0000
1000
0000
0000
0000
0001
0010
0001
0000
1000
0010
1000
0000
,
0001
0100
0001
0000
1000
0100
1000
0000
0001
0100
0001
0000
0100
0000
0110
0000
,
1001
0000
0000
0000
0100
0000
0000
0000
0010
1000
0010
0000
0100
0000
0011
0000
,
1100
0000
0000
0000
0010
0000
0000
0000
0001
0010
0100
0000
1000
0000
0101
0000
,
1001
0000
0001
0000
0020
0032
0023
0032
,
0103
0010
0100
0010
0100
0010
0100
0010
0100
0001
0100
0000
0010
1000
0001
0000
,
0010
0100
0010
0000
0001
1000
0010
0000
0100
0001
1000
0000
0010
1000
0001
0000
,
0010
0100
0010
0000
0100
1000
0100
0000
0010
0001
0100
0000
0010
1000
0010
0000
,
0100
1000
0100
0000
0010
0100
0010
0000
1000
0001
0010
0000
0001
0100
0010
0000
,
1000
0001
1000
0000
0100
0010
0100
0010
0100
1000
0100
0000
0010
0001
0010
0000
,
0100
1000
0010
0000
0100
0001
0100
0000
0010
0001
0010
0000
1000
0010
1000
0000
,
0001
0100
0001
0000
0100
0010
1000
0000
0100
0010
0001
0000
1000
0010
1000
0000
,
0001
0010
1000
0000
0010
0001
1000
0000
0100
1000
0100
0000
0010
0001
1000
0000
,
0001
0100
0000
0001
0100
0000
0110
0000
0010
1000
0010
0000
0100
0000
0001
0000
,
0011
0000
0000
0110
0000
0000
1100
0000
1000
0010
0100
0000
0001
0000
0010
0000
,
0011
0000
0000
0110
0000
0000
1001
0000
0001
0100
1000
0000
0100
0000
0001
0000
,
0011
0000
0000
0110
0000
0000
0011
0000
1000
0100
1000
0000
0002
0000
0023
0000
,
0032
0000
0000
0000
0103
0000
0010
0000
1000
0001
0000
0000
1000
0000
0001
0000
,
0100
1000
0010
0000
0110
0000
0000
0000
1001
0000
1100
0000
1001
0000
0101
0000
,
0000
0000
0110
0000
0000
0000
0001
1000
0001
0000
0001
0000
0001
0000
1000
0001
,
1000
1000
1000
0000
1001
0011
1001
1010
,
0000
0000
0110
0000
0000
0000
1000
0100
0001
0000
0101
0000
1100
0000
0001
0100
,
1000
1100
0101
0000
1100
1001
1010
1001
,
0000
0000
0110
0000
0000
0000
0001
0010
1000
0000
0011
0000
1010
0000
1000
0010
,
0001
1010
0011
0000
0101
1001
0011
1001
,
0000
0000
0110
0000
0000
0000
0000
0000
0100
1000
0001
0000
0010
1000
0100
0000
,
1000
0010
0001
0000
1000
0100
0010
0000
0100
1000
0001
0000
0010
1000
0010
0000
,
0001
0100
0001
0000
0010
1000
0010
0000
0001
1000
0100
0000
1000
0001
0010
0000
,
1000
0100
0001
0000
0100
1000
0010
0000
0001
1000
0001
0000
0100
1000
0100
0000
,
0001
1000
0001
0000
0001
0010
0001
0000
0010
1000
0100
0000
0001
0010
0100
0000
,
1000
0001
0010
0000
1000
0100
0001
0000
0010
1000
0010
0000
0001
1000
0001
0000
,
1000
0100
1000
0000
0100
0010
0001
0000
0010
1000
0010
0000
0001
0100
0001
0000
,
1000
0100
0010
0000
0100
1000
0001
0000
0010
1000
0010
0000
0001
0010
1000
0000
,
0010
0001
1000
0100
0010
0000
0110
0000
0100
1000
0100
0000
1000
0000
0001
0000
,
0011
0000
0000
1010
0000
0000
0101
0000
1000
0010
0100
0000
1000
0000
0001
0000
,
1001
0000
0000
1100
0000
0000
0110
0000
1000
0100
1000
0000
0001
0000
0010
0000
,
1010
0000
0000
0101
0000
0000
1010
0000
0100
0001
1000
0000
0100
0000
1000
0000
,
0102
0000
0000
0000
0000
0000
0003
0000
1000
0100
0010
0000
1000
0000
0001
0000
,
0101
0000
0000
0011
0000
0000
0101
0000
0010
0001
0010
0000
0100
0000
0010
0000
,
1100
0000
0000
1010
0000
0000
1100
0000
0010
0001
0010
0000
0001
0000
0100
0000
,
0011
0000
0000
1100
0000
0000
0011
0000
0001
0100
1000
0000
0100
0000
0010
0000
,
2100
0000
0010
0000
0001
0000
3010
0000
1000
0001
1000
0000
0010
0000
0100
0000
,
0011
0000
0000
0110
0000
0000
1001
0000
0010
0100
0010
0000
1000
0000
0100
0000
,
1100
0000
0000
0011
0000
0000
1001
0000
0001
0100
0010
0000
0100
0000
0010
0000
,
1010
0000
0000
0101
0000
0000
0011
0000
0100
1000
0100
0000
0010
0000
0001
0000
,
1010
0000
0000
0000
1001
0000
0000
0000
0001
0100
0010
0000
1000
0000
0100
0000
,
1010
0000
0000
0110
0000
0000
0101
0000
0001
0010
0100
0000
1000
0000
0001
0000
,
0011
0000
0000
1100
0000
0000
0011
0000
1000
0010
0100
0000
1000
0000
0100
0000
,
0110
0000
0000
1001
0000
0000
0110
0000
0010
1000
0001
0000
0100
0000
0010
0000
,
2002
3003
0000
0000
;

//---------------dance-single - ----------------
#NOTEDATA:;
#CHARTNAME:;
#STEPSTYPE:dance-single;
#DESCRIPTION:;
#CHARTSTYLE:;
#DIFFICULTY:Hard;
#METER:7;
#RADARVALUES:0.476675,0.496659,0.252004,0.574010,0.072335,715.000000,661.000000,54.000000,123.000000,0.000000,0.000000,0.000000,0.000000,0.000000,0.476675,0.496659,0.252004,0.574010,0.072335,715.000000,661.000000,54.000000,123.000000,0.000000,0.000000,0.000000,0.000000,0.000000;
#CREDIT:;
#DISPLAYBPM:136.000000;
#NOTES:
0000
0000
0000
0000
,
0000
0000
0000
0000
,
0000
0000
0000
0000
,
0000
0000
0000
0000
,
0000
0000
0000
0000
1000
0000
0010
0100
,
0020
0000
0000
2030
0000
0000
3010
0000
0100
0000
0000
0000
0001
0000
0010
0000
,
0002
0000
0000
0203
0000
0000
0301
0000
1000
0000
0000
0000
0100
0000
1000
0000
,
0020
0000
0000
0230
0000
0000
0310
0000
0100
0000
0001
0000
0100
0000
0010
0000
,
1010
0000
1001
0000
0000
1000
0100
1000
,
0002
0000
0103
0010
1000
0010
1000
1010
,
0000
1010
0000
0000
0000
0001
0010
0001
,
2000
0000
3100
0010
0001
0010
0100
0110
,
0000
0000
1001
0000
0000
0001
0100
0010
,
2000
0000
3010
0100
0001
0010
0100
1100
,
0000
1100
0000
0000
0000
1000
0100
0010
,
0001
0010
0001
1000
0010
0100
0010
0100
,
0001
0100
0000
0001
0100
0000
0010
0000
1000
0000
0000
0000
0100
0000
0010
0000
,
0002
0000
0000
0203
0000
0000
0301
0000
0010
0000
0000
0000
0100
0000
0010
0000
,
0200
0000
0000
2300
0000
0000
3100
0000
0010
0000
0000
0000
0001
0000
1000
0000
,
0020
0000
0000
0230
0000
0000
0310
0000
1000
0000
0010
0000
0100
0000
0001
0000
,
1001
0000
1000
0000
0001
0000
0010
0001
,
2000
0000
0000
3200
0000
0000
1300
0000
0010
0000
0000
0000
1000
0000
0010
0000
,
2000
0000
0000
3002
0000
0000
0013
0000
0001
0000
0000
0000
0100
0000
0010
0000
,
2000
0000
0000
3020
0000
0000
0130
0000
0001
0000
0010
0000
1000
0000
0010
0000
,
0011
0001
2000
3200
,
0320
0032
0203
2300
,
3200
0000
0301
0000
1000
0001
0100
0001
,
1000
0001
0100
0001
0010
0100
1000
0100
,
0020
0000
0130
0000
1000
0001
1000
0100
,
1000
0001
2000
0000
3100
0010
0001
0010
,
0002
0000
0023
0000
0031
1000
0010
1000
,
0001
1000
0010
1000
0002
0000
0103
0010
,
0100
0000
0110
0000
0100
0010
1000
0001
,
0200
0000
0301
1000
0100
0010
0001
0010
,
0100
0000
1100
0000
2000
0000
3001
0100
,
0100
0000
0010
0000
0200
0000
0310
1000
,
1000
0000
1000
0000
0002
0000
0013
0001
,
0001
1000
0200
0320
,
0230
0000
0320
0000
0032
0000
1003
0001
,
0001
0000
0100
0000
0020
0000
0130
0010
,
0010
0000
1000
0000
0002
0000
0013
0001
,
0001
0000
1000
0000
0100
0010
0100
0010
,
0100
0000
0110
0000
0000
0001
0100
0010
,
0200
0000
0301
1000
0100
0010
0001
0011
,
0000
0011
0000
0000
0000
0001
1000
0100
,
2000
0000
3010
0100
0010
1000
0001
1001
,
0000
0000
0010
0000
0000
0100
0010
1000
,
0002
0000
0103
0001
1000
0100
0010
0110
,
0000
0110
0000
0000
0000
0100
1000
0100
,
1000
0001
0001
0010
0100
1000
0010
1010
,
0000
0000
0001
0000
1000
0000
0100
1000
,
0002
0000
0000
0203
0000
0000
0301
0000
1000
0000
0000
0000
0100
0000
1000
0000
,
0200
0000
0000
0320
0000
0000
0031
0000
0010
0000
0000
0000
0100
0000
0010
0000
,
0002
0000
0000
2003
0000
0000
3010
0000
0100
0000
0010
0000
1000
0000
0010
0000
,
0100
0110
0002
0023
,
0230
2300
3020
0032
,
0023
2030
3002
0023
,
0230
2300
3020
0032
,
0023
0000
1030
0000
0001
1000
0010
1000
,
0001
1000
0010
1000
0100
0010
0001
0010
,
0200
0000
0310
0000
0001
1000
0001
0010
,
0001
1000
0002
0000
0013
0100
1000
0100
,
2000
0000
3200
0000
1300
0001
0100
0001
,
1000
0001
0100
0001
2000
0000
3010
0100
,
0010
0000
0110
0000
0010
0100
0001
1000
,
0020
0000
1030
0001
0010
0100
1000
0100
,
0010
0000
0011
0000
0002
0000
1003
0010
,
0010
0000
0100
0000
0020
0000
0130
0001
,
0001
0000
0001
0000
2000
0000
3100
1000
,
1000
0001
0020
0230
,
0320
0000
0230
0000
2300
0000
3001
1000
,
1000
0000
0010
0000
0200
0000
0310
0100
,
0100
0000
0001
0000
2000
0000
3100
1000
,
1000
0000
0001
0000
0010
0100
0010
0100
,
0010
0000
0110
0000
0000
1000
0010
0100
,
0020
0000
1030
0001
0010
0100
1000
1100
,
0000
1100
0000
0000
0000
1000
0001
0010
,
0002
0000
0103
0010
0100
0001
1000
1001
,
0000
0000
0100
0000
0000
0010
0100
0001
,
2000
0000
3010
1000
0001
0010
0100
0110
,
0000
0110
0000
0000
0000
0010
0001
0010
,
0001
1000
1000
0100
0010
0001
0100
0101
,
0000
0000
1000
0000
0001
0000
0010
0001
,
2000
0000
0000
3020
0000
0000
1030
0000
0001
0000
0000
0000
0010
0000
0001
0000
,
0020
0000
0000
0230
0000
0000
1300
0000
0100
0000
0000
0000
0010
0000
0100
0000
,
2000
0000
0000
3002
0000
0000
0103
0000
0010
0000
0100
0000
0001
0000
0100
0000
,
0010
0000
0110
0000
0100
1000
0010
1000
,
0100
1000
0010
0000
1000
0100
0001
0101
,
0000
1100
0000
0000
0100
0001
0010
0001
,
0100
0001
0010
0000
0001
0100
1000
1100
,
0000
0101
0000
0000
0010
1000
0010
1000
,
0010
1010
1010
0000
1000
0001
0010
0011
,
0000
1010
0000
0000
0010
0001
0010
0001
,
0010
0011
0011
0000
0001
0010
1000
1010
,
0000
0011
0000
0110
0000
0001
1000
0001
,
0020
0000
1030
0100
0001
0100
0001
0101
,
0000
0101
0000
0000
0000
0010
0100
0010
,
0002
0000
1003
0100
0010
0100
1000
1100
,
0000
0000
0011
0000
0000
0010
1000
0100
,
0002
0000
0103
1000
0010
0100
1000
1001
,
0000
1001
0000
0000
0000
0001
1000
0100
,
0010
0100
0010
0001
0100
1000
0100
1000
,
0010
1000
0000
0010
1000
0000
0100
0000
0001
0000
0000
0000
1000
0000
0100
0000
,
0020
0000
0000
2030
0000
0000
3010
0000
0100
0000
0000
0000
1000
0000
0100
0000
,
2000
0000
0000
3002
0000
0000
1003
0000
0100
0000
0000
0000
0010
0000
0001
0000
,
0200
0000
0000
2300
0000
0000
3100
0000
0001
0000
0100
0000
1000
0000
0010
0000
,
0011
0000
0001
0000
0200
0000
0301
1000
,
0200
0000
0000
2300
0000
0000
3001
0000
0010
0000
0000
0000
0001
0000
1000
0000
,
0020
0000
0000
0230
0000
0000
0310
0000
1000
0000
0000
0000
1000
0000
0100
0000
,
2000
0000
0000
3002
0000
0000
0103
0000
0001
0000
0010
0000
0100
0000
1000
0000
,
1001
0000
0110
0000
0010
0000
1000
0010
,
2000
0000
0000
3002
0000
0000
1003
0000
0100
0000
0000
0000
0001
0000
0100
0000
,
0020
0000
0000
0032
0000
0000
0103
0000
1000
0000
0000
0000
0100
0000
0010
0000
,
2000
0000
0000
3020
0000
0000
0130
0000
0001
0000
0010
0000
0001
0000
1000
0000
,
1001
0000
0000
0000
0001
0000
0100
1000
,
0200
0000
0000
0320
0000
0000
0031
0000
0010
0000
0000
0000
1000
0000
0001
0000
,
0020
0000
0000
0230
0000
0000
0301
0000
0100
0000
0000
0000
0010
0000
0001
0000
,
2000
0000
0000
3020
0000
0000
1030
0000
0001
0000
0100
0000
0001
0000
1000
0000
,
2002
3003
0000
0000
;

//---------------dance-single - ----------------
#NOTEDATA:;
#CHARTNAME:;
#STEPSTYPE:dance-single;
#DESCRIPTION:;
#CHARTSTYLE:;
#DIFFICULTY:Medium;
#METER:5;
#RADARVALUES:0.366006,0.386290,0.191337,0.518009,0.063001,549.000000,508.000000,41.000000,111.000000,0.000000,0.000000,0.000000,0.000000,0.000000,0.366006,0.386290,0.191337,0.518009,0.063001,549.000000,508.000000,41.000000,111.000000,0.000000,0.000000,0.000000,0.000000,0.000000;
#CREDIT:;
#DISPLAYBPM:136.000000;
#NOTES:
0000
0000
0000
0000
,
0000
0000
0000
0000
,
0000
0000
0000
0000
,
0000
0000
0000
0000
,
0000
0000
2000
3200
,
0310
0000
0000
0010
0000
0000
0010
0000
0002
0000
0000
0000
2003
0000
0000
0000
,
3010
0000
0000
0010
0000
0000
0010
0000
2000
0000
0000
0000
3200
0000
0000
0000
,
0310
0000
0000
0010
0000
0000
0010
0000
0002
0000
0000
0000
1003
0000
0000
0000
,
1001
0000
0001
0100
,
0010
1000
0001
0010
,
0100
0000
1000
0100
1000
0000
0001
0000
,
0010
0001
1000
0010
,
0100
0000
0010
0100
0010
0000
1000
0000
,
0001
0100
0001
1000
,
0100
0000
0010
0001
0010
0000
0001
0000
,
1000
0100
1000
0010
,
1010
0000
0002
2003
,
3100
0000
0000
0100
0000
0000
0100
0000
2000
0000
0000
0000
3002
0000
0000
0000
,
0013
0000
0000
0010
0000
0000
0010
0000
0002
0000
0000
0000
2003
0000
0000
0000
,
3010
0000
0000
0010
0000
0000
0010
0000
0200
0000
0000
0000
0310
0000
0000
0000
,
0110
0000
0200
0302
,
1003
0000
0000
1000
0000
0000
1000
0000
0200
0000
0000
0000
0320
0000
0000
0000
,
0031
0000
0000
0001
0000
0000
0001
0000
2000
0000
0000
0000
3002
0000
0000
0000
,
0013
0000
0000
0010
0000
0000
0010
0000
0002
0000
0000
0000
1003
0000
0000
0000
,
0110
0000
0020
0230
,
0320
0230
0302
2003
,
3002
1003
0001
0100
,
0001
1000
0100
0010
,
0210
0310
0001
1000
,
0010
2010
3001
0100
,
0102
1003
0100
0010
,
0100
1000
0001
0010
,
0012
1003
0010
0100
,
0010
1000
0001
0100
,
2001
0000
3010
0000
0010
1000
0010
1000
,
0010
0000
0100
0000
0001
1000
0001
1000
,
0001
0000
0010
0000
0001
0010
0001
0010
,
0001
1000
0200
2300
,
3200
0000
2300
0000
3001
0100
0001
0100
,
0001
0000
1000
0000
0010
1000
0010
1000
,
0010
0000
0100
0000
0001
0010
0001
0010
,
0001
0000
1000
0000
0100
0010
0100
0010
,
0100
0110
0000
0001
,
1000
0010
0100
0001
,
2001
3010
0100
0010
,
1000
0001
0010
0001
,
2001
3001
0010
0001
,
0100
0010
0100
0001
,
2001
3100
1000
0001
,
0010
0001
0100
0001
,
0101
0101
2000
3200
,
1300
0000
0000
1000
0000
0000
1000
0000
0020
0000
0000
0000
0230
0000
0000
0000
,
0310
0000
0000
0010
0000
0000
0010
0000
0200
0000
0000
0000
0302
0000
0000
0000
,
0013
0000
0000
0010
0000
0000
0010
0000
0002
0000
0000
0000
1003
0000
0000
0000
,
1001
0000
0200
0320
,
0230
0320
2030
3002
,
2003
3002
0203
0320
,
0230
0320
2030
3002
,
2003
3001
1000
0010
,
1000
0001
0010
0100
,
0120
0130
1000
0001
,
0100
0102
1003
0010
,
2010
3001
0010
0100
,
0010
0001
1000
0100
,
2100
3001
0100
0010
,
0100
0001
1000
0010
,
1002
0000
0103
0000
0100
0001
0100
0001
,
0100
0000
0010
0000
1000
0001
1000
0001
,
1000
0000
0100
0000
1000
0100
1000
0100
,
1000
0001
0020
0032
,
0023
0000
0032
0000
1003
0010
1000
0010
,
1000
0000
0001
0000
0100
0001
0100
0001
,
0100
0000
0010
0000
1000
0100
1000
0100
,
1000
0000
0001
0000
0010
0100
0010
0100
,
0010
0110
0000
1000
,
0001
0100
0010
1000
,
1002
0103
0010
0100
,
0001
1000
0100
1000
,
1002
1003
0100
1000
,
0010
0100
0010
1000
,
1002
0013
0001
1000
,
0100
1000
0010
1000
,
1010
1010
0002
0023
,
0031
0000
0000
0001
0000
0000
0001
0000
0200
0000
0000
0000
0320
0000
0000
0000
,
0130
0000
0000
0100
0000
0000
0100
0000
0020
0000
0000
0000
2030
0000
0000
0000
,
3100
0000
0000
0100
0000
0000
0100
0000
2000
0000
0000
0000
3001
0000
0000
0000
,
1001
0000
0000
0000
1001
0000
0010
0100
,
0010
0000
0000
0000
0001
0100
0001
0100
,
0000
0101
0000
0000
1001
0000
0100
0010
,
0100
0000
0000
0000
1000
0100
1000
0100
,
0000
1100
0000
0000
0110
0000
0001
1000
,
0001
0000
0000
0000
0001
0010
0001
0010
,
0000
0011
0000
0000
0110
0000
1000
0001
,
1000
0000
0000
0000
1000
0010
1000
0010
,
0000
1010
0000
0000
0010
0000
1000
0000
,
0100
0001
0010
0100
,
1000
0000
0001
1000
0001
0000
0010
0000
,
0100
0010
0001
0100
,
1000
0000
0100
1000
0100
0000
0001
0000
,
0010
1000
0010
0001
,
1000
0000
0100
0010
0100
0000
0010
0000
,
0001
1000
0001
0100
,
0101
0000
0020
0032
,
1003
0000
0000
1000
0000
0000
1000
0000
0002
0000
0000
0000
0023
0000
0000
0000
,
0130
0000
0000
0100
0000
0000
0100
0000
0020
0000
0000
0000
0032
0000
0000
0000
,
0103
0000
0000
0100
0000
0000
0100
0000
2000
0000
0000
0000
3100
0000
0000
0000
,
1100
0000
2000
3020
,
1030
0000
0000
1000
0000
0000
1000
0000
0002
0000
0000
0000
0023
0000
0000
0000
,
0031
0000
0000
0001
0000
0000
0001
0000
0200
0000
0000
0000
0320
0000
0000
0000
,
0130
0000
0000
0100
0000
0000
0100
0000
0020
0000
0000
0000
1030
0000
0000
0000
,
1001
0000
0002
0203
,
0301
0000
0000
0100
0000
0000
0001
0000
0200
0000
0000
0000
0320
0000
0000
0000
,
0130
0000
0000
0010
0000
0000
0100
0000
0020
0000
0000
0000
2030
0000
0000
0000
,
3010
0000
0000
1000
0000
0000
0010
0000
2000
0000
0000
0000
3001
0000
0000
0000
,
0110
0000
0002
2003
,
3001
0000
0000
1000
0000
0000
0001
0000
2000
0000
0000
0000
3200
0000
0000
0000
,
1300
0000
0000
0100
0000
0000
1000
0000
0200
0000
0000
0000
0320
0000
0000
0000
,
0130
0000
0000
0010
0000
0000
0100
0000
0020
0000
0000
0000
0031
0000
0000
0000
,
2200
3300
0000
0000
;

//---------------dance-single - ----------------
#NOTEDATA:;
#CHARTNAME:;
#STEPSTYPE:dance-single;
#DESCRIPTION:;
#CHARTSTYLE:;
#DIFFICULTY:Easy;
#METER:2;
#RADARVALUES:0.200670,0.248329,0.056001,0.037334,0.000000,301.000000,289.000000,12.000000,8.000000,0.000000,0.000000,0.000000,0.000000,0.000000,0.200670,0.248329,0.056001,0.037334,0.000000,301.000000,289.000000,12.000000,8.000000,0.000000,0.000000,0.000000,0.000000,0.000000;
#CREDIT:;
#DISPLAYBPM:136.000000;
#NOTES:
0000
0000
0000
0000
,
0000
0000
0000
0000
,
0000
0000
0000
0000
,
0000
0000
0000
0000
,
0000
0000
1000
0000
,
0100
0000
0010
0000
,
0001
0000
1000
0000
,
0010
0000
0100
0000
,
0110
0000
0010
0010
,
0010
0000
1000
1000
,
1000
0000
0001
0100
,
0001
0000
1000
0010
,
1000
0000
0001
0001
,
0001
0000
0010
0010
,
0010
0000
0001
0100
,
0001
0000
1000
0100
,
1000
0000
0010
0000
,
0100
0000
0010
0000
,
1000
0000
0001
0000
,
0010
0000
0001
0000
,
1000
0000
0100
0000
,
1000
0000
0010
0000
,
0100
0000
0010
0000
,
1000
0000
0001
0000
,
0010
0000
0220
0000
,
0000
0000
0000
0000
,
0330
0000
0010
0000
,
0001
0000
1000
0000
,
0010
0010
0100
0000
,
0010
0000
1000
0000
,
0001
0001
0010
0000
,
0001
0000
1000
0000
,
0100
0100
1000
0000
,
0010
0000
0100
0000
,
0010
0010
1000
0001
,
1000
0000
0001
0100
,
0001
0000
1000
0010
,
1000
0000
0001
0010
,
0100
1000
0001
0010
,
0001
0000
1000
0100
,
1000
0000
0010
0100
,
0010
0000
0100
0100
,
0110
0000
0010
0000
,
1000
0000
0001
0000
,
0100
0000
0001
0000
,
0010
0000
0100
0000
,
1000
0000
0100
0000
,
1000
0000
0001
0000
,
0100
0000
0001
0000
,
0010
0000
0001
0000
,
1000
0000
1001
0000
,
0010
0010
0100
0000
,
0010
0010
0100
0000
,
0001
0001
1000
0000
,
0001
0001
2002
0000
,
0000
0000
0000
0000
,
3003
0000
0220
0000
,
0000
0000
0000
0000
,
0330
0000
0100
0000
,
1000
0000
0001
0000
,
0100
0100
0010
0000
,
0100
0000
0001
0000
,
1000
1000
0100
0000
,
1000
0000
0001
0000
,
0010
0010
0001
0000
,
0100
0000
0010
0000
,
0100
0100
0001
1000
,
0001
0000
1000
0010
,
1000
0000
0001
0100
,
0001
0000
1000
0100
,
0010
0001
1000
0100
,
1000
0000
0001
0010
,
0001
0000
0100
0010
,
0100
0000
0010
0010
,
0110
0000
0100
0000
,
0001
0000
1000
0000
,
0010
0000
1000
0000
,
0100
0000
0010
0000
,
0001
0000
0010
0000
,
0001
0000
1000
0000
,
0010
0000
1000
0000
,
0100
0000
1000
0000
,
0001
0000
1001
0000
,
0100
0100
0010
0000
,
0100
0100
0010
0000
,
1000
1000
0001
0000
,
1000
1000
1000
0100
,
0001
0000
0001
0001
,
1001
0000
0001
0100
,
1000
0000
1000
1000
,
1001
0000
0001
0010
,
1000
0000
0010
0010
,
0110
0000
1000
0010
,
0001
0000
0100
0100
,
0110
0000
0100
0100
,
0100
0000
0001
0001
,
0001
0000
0010
1000
,
0010
0000
0001
0100
,
0001
0000
0010
0010
,
0010
0000
0100
0100
,
0100
0000
0010
1000
,
0010
0000
0001
1000
,
0001
0000
0100
0000
,
1000
0000
0100
0000
,
0001
0000
0010
0000
,
0100
0000
0010
0000
,
0001
0000
1000
0001
,
1000
0000
0001
0100
,
0001
0000
1000
0100
,
1000
0000
0010
0100
,
0010
0010
0001
0000
,
1000
1000
0100
0000
,
1000
1000
0010
0000
,
0100
0100
0001
0000
,
0100
0100
0010
1000
,
0010
0000
0100
0001
,
0100
0000
0001
1000
,
0001
0000
0020
0000
,
0200
0330
0000
0000
;

//---------------dance-single - ----------------
#NOTEDATA:;
#CHARTNAME:;
#STEPSTYPE:dance-single;
#DESCRIPTION:;
#CHARTSTYLE:;
#DIFFICULTY:Beginner;
#METER:1;
#RADARVALUES:0.092002,0.247804,0.065334,0.000000,0.000000,138.000000,124.000000,14.000000,0.000000,0.000000,0.000000,0.000000,0.000000,0.000000,0.092002,0.247804,0.065334,0.000000,0.000000,138.000000,124.000000,14.000000,0.000000,0.000000,0.000000,0.000000,0.000000,0.000000;
#CREDIT:;
#DISPLAYBPM:136.000000;
#NOTES:
0000
0000
0000
0000
,
0000
0000
0000
0000
,
0000
0000
0000
0000
,
0000
0000
0000
0000
,
0000
0000
0001
0000
,
0000
0000
0100
0000
,
0000
0000
0001
0000
,
0000
0000
1000
0000
,
0000
0000
0100
0000
,
0000
0000
1000
0000
,
0000
0000
0001
0000
,
0000
0000
0100
0000
,
0000
0000
0010
0000
,
0000
0000
0100
0000
,
0000
0000
0010
0000
,
0000
0000
1000
0000
,
0000
0000
1001
0000
,
0000
0000
0001
0000
,
0000
0000
1000
0000
,
0000
0000
0010
0000
,
0000
0000
0100
0000
,
0000
0000
0010
0000
,
0000
0000
1000
0000
,
0000
0000
0001
0000
,
0000
0000
0110
0000
,
0000
0000
0000
0000
,
0000
0000
1000
0000
,
0000
0000
0001
0000
,
0000
0000
0010
0000
,
0000
0000
0001
0000
,
0000
0000
1000
0000
,
0000
0000
0010
0000
,
0000
0000
0100
0000
,
0000
0000
0010
0000
,
0000
0000
1000
0000
,
0000
0000
0001
0000
,
0000
0000
0010
0000
,
0000
0000
0001
0000
,
0000
0000
0100
0000
,
0000
0000
0010
0000
,
0000
0000
1000
0000
,
0000
0000
0001
0000
,
1001
0000
1000
0000
,
0000
0000
0100
0000
,
0000
0000
0010
0000
,
0000
0000
0100
0000
,
0000
0000
0010
0000
,
0000
0000
0001
0000
,
0000
0000
1000
0000
,
0000
0000
0010
0000
,
0000
0000
0100
0000
,
0000
0000
0010
0000
,
0000
0000
1000
0000
,
0000
0000
0001
0000
,
0000
0000
1001
0000
,
0000
0000
0000
0000
,
0000
0000
0110
0000
,
0000
0000
0000
0000
,
0000
0000
1000
0000
,
0000
0000
0001
0000
,
0000
0000
0010
0000
,
0000
0000
0001
0000
,
0000
0000
1000
0000
,
0000
0000
0010
0000
,
0000
0000
0100
0000
,
0000
0000
0010
0000
,
0000
0000
1000
0000
,
0000
0000
0001
0000
,
0000
0000
0010
0000
,
0000
0000
0001
0000
,
0000
0000
0100
0000
,
0000
0000
0010
0000
,
0000
0000
1000
0000
,
0000
0000
0001
0000
,
1001
0000
1000
0000
,
0000
0000
0100
0000
,
0000
0000
0010
0000
,
0000
0000
0100
0000
,
0000
0000
0010
0000
,
0000
0000
0001
0000
,
0000
0000
1000
0000
,
0000
0000
0010
0000
,
0000
0000
0100
0000
,
0000
0000
0010
0000
,
0000
0000
1000
0000
,
0000
0000
0001
0000
,
1001
0000
1000
1000
,
0000
0000
0001
0001
,
0000
0000
0100
0100
,
0000
0000
0010
0010
,
0000
0000
0001
0001
,
0000
0000
1000
1000
,
0000
0000
0110
0110
,
0000
0000
1001
1001
,
0000
0000
0100
0000
,
0000
0000
1000
0000
,
0000
0000
0001
0000
,
0000
0000
0100
0000
,
0000
0000
0010
0000
,
0000
0000
0100
0000
,
0000
0000
0010
0000
,
0000
0000
1000
0000
,
0000
0000
1001
0000
,
0000
0000
0001
0000
,
0000
0000
1000
0000
,
0000
0000
0010
0000
,
0000
0000
0001
0000
,
0000
0000
1000
0000
,
0000
0000
0010
0000
,
0000
0000
0100
0000
,
0000
0000
0010
0000
,
0000
0000
1000
0000
,
0000
0000
0001
0000
,
0000
0000
0010
0000
,
0000
0000
0100
0000
,
0000
0000
1000
0000
,
1000
0000
0001
0000
,
1001
0000
0000
0000
,
1001
0000
0000
0000
;

//---------------dance-double - ----------------
#NOTEDATA:;
#CHARTNAME:;
#STEPSTYPE:dance-double;
#DESCRIPTION:;
#CHARTSTYLE:;
#DIFFICULTY:Challenge;
#METER:9;
#RADARVALUES:0.712012,0.744988,0.574010,0.424674,0.410674,1068.000000,945.000000,123.000000,91.000000,0.000000,0.000000,0.000000,0.000000,0.000000,0.712012,0.744988,0.574010,0.424674,0.410674,1068.000000,945.000000,123.000000,91.000000,0.000000,0.000000,0.000000,0.000000,0.000000;
#CREDIT:;
#DISPLAYBPM:136.000000;
#NOTES:
// measure 0
00000000
00000000
00000000
00000000
,  // measure 1
00000000
00000000
00000000
00000000
,  // measure 2
00000000
00000000
00000000
00000000
,  // measure 3
00000000
00000000
00000000
00000000
,  // measure 4
00000000
00000000
00000000
00000000
00000000
00000000
00000000
00000000
10000000
00010000
10000000
00000000
00100000
00000000
01000000
00000000
,  // measure 5
01010000
00000000
00000000
00110000
00000000
00000000
00101000
00000000
00010000
00000100
00010000
00000000
00001000
00000000
00010000
00000000
,  // measure 6
00010010
00000000
00000000
00001100
00000000
00000000
00001010
00000000
00000100
00000010
00000100
00000000
00000001
00000000
00001000
00000000
,  // measure 7
00001100
00000000
00000000
00000110
00000000
00000000
00000011
00000000
00000010
00000100
00001000
00000000
00000001
00000000
00000100
00000000
,  // measure 8
00010010
00000000
00000000
00000000
00001001
00000000
00000000
00000000
00000001
00000000
00000010
00000100
00001000
00000000
00000010
00000000
,  // measure 9
00010000
00000000
00000100
00010000
00001000
00000000
01000000
00000000
00100000
00000000
10000000
00010000
00100000
00000000
01000000
00000000
,  // measure 10
00100000
00000000
00001000
01000000
00100000
00000000
01001000
00000000
00010000
00000000
00100000
01000000
00100000
00000000
00001000
00000000
,  // measure 11
01000000
00000000
00100000
10000000
00010000
00000000
00100000
00000000
00001000
00000000
00010000
00000010
00000100
00000000
00000001
00000000
,  // measure 12
00001000
00000000
00000100
00000010
00000100
00000000
00001010
00000000
00001000
00000000
00000001
00000100
00000010
00000000
00010000
00000000
,  // measure 13
00000100
00000000
00001000
00000001
00000100
00000000
00000010
00000000
00010000
00000000
00000100
00001000
00000100
00000000
00010000
00000000
,  // measure 14
00001000
00000000
01000000
00100000
10000000
00000000
10010000
00000000
00010000
00000000
00100000
01000000
00100000
00000000
00010000
00000000
,  // measure 15
10000000
00000000
00100000
01000000
00001000
00000000
00100000
00000000
00001000
00000000
00010000
00001000
01000000
00000000
00100000
00000000
,  // measure 16
01000000
00100000
00000000
10000000
00100000
00000000
01100000
00000000
01000000
00001000
01000000
00000000
00200000
00000000
00320000
00000000
,  // measure 17
00032000
00000000
00000000
00023000
00000000
00000000
00030200
00000000
00000310
00000001
00000010
00000000
00000002
00000000
00002003
00000000
,  // measure 18
00003200
00000000
00000000
00020300
00000000
00000000
00030010
00000000
00010000
00000100
00010000
00000000
00002000
00000000
02003000
00000000
,  // measure 19
03200000
00000000
00000000
00320000
00000000
00000000
00230000
00000000
10300000
00010000
10000000
00000000
01000000
00000000
00100000
00000000
,  // measure 20
00101000
00000000
00000000
00000000
00011000
00000000
00000000
00000000
00001000
00010000
00000100
00000000
00002000
00000000
00003200
00000000
,  // measure 21
00000320
00000000
00000000
00000032
00000000
00000000
00001003
00000000
00000010
00001000
00000010
00000000
00000200
00000000
00000320
00000000
,  // measure 22
00002030
00000000
00000000
00003200
00000000
00000000
00020300
00000000
00030010
00010000
00000010
00000000
00000100
00000000
00000001
00000000
,  // measure 23
00000200
00000000
00000000
00000320
00000000
00000000
00010030
00000000
00000100
00010000
00000100
00000000
00010000
00000000
00001000
00000000
,  // measure 24
01001000
00000000
00000000
00000000
00011000
00000000
00000000
00000000
00001000
00100000
00001000
00000000
00100000
00001000
00100000
00000000
,  // measure 25
00001000
00100000
00001000
00000000
00100000
00001000
00100000
00000000
00010000
01000000
00010000
00000000
01000000
00010000
01000000
00000000
,  // measure 26
00010000
01000000
00010000
01000000
00010000
00000000
01010000
00000000
00010000
00000000
10000000
00000000
01000000
00000000
00100000
00000000
,  // measure 27
00001000
01000000
00010000
00001000
00000100
00000010
00000001
00001000
,  // measure 28
00000010
00000000
00010010
00000000
00001000
00010000
00000100
01000000
,  // measure 29
00100000
00010000
00002000
00000000
01003000
00100000
01000000
00010000
,  // measure 30
10000000
00000000
00101000
00000000
00001000
00010000
00000010
00000100
,  // measure 31
00000010
00001000
00000100
00000010
00002000
00000000
00013000
00100000
,  // measure 32
01000000
00000000
01001000
00000000
00001000
00010000
00000100
00000010
,  // measure 33
00000200
00001000
00001300
00000010
00010000
00000010
00000100
00000001
,  // measure 34
00001000
00000000
00000000
00000000
00001001
00000000
00000000
00000000
00000010
00001000
00000010
00000000
00001000
00000000
00000001
00000000
,  // measure 35
00010001
00000000
00000000
00000000
00000100
00000000
00000000
00000000
00010000
00001000
00010000
00000000
00001000
00000000
01000000
00000000
,  // measure 36
01100000
00000000
00000000
00000000
00001000
00000000
00000000
00000000
01000000
00100000
01000000
00000000
00010000
00000000
10000000
00000000
,  // measure 37
01000000
00110000
00200000
02300000
,  // measure 38
03200000
00000000
00000000
00000000
02300000
00000000
00000000
00000000
03100000
00001000
00100000
00000000
00001000
00000000
01000000
00000000
,  // measure 39
01001000
00000000
00000000
00000000
00001000
00000000
00000000
00000000
00010000
00000100
00010000
00000000
00000100
00000000
00000010
00000000
,  // measure 40
00000001
00000000
00000000
00000000
00000010
00000000
00000000
00000000
00000100
00000010
00000100
00000000
00000010
00000000
00000001
00000000
,  // measure 41
00001000
00000000
00001010
00000000
00000001
00000010
00001000
00000010
,  // measure 42
00000001
00000000
00000000
00000000
00002002
00000000
00003003
00000000
00000001
00000000
00000010
00000100
00001000
00000000
00000100
00000000
,  // measure 43
00010000
00000000
00001000
01000000
00100000
00000000
01000000
00000000
00001000
00000000
00010000
00001000
00100000
00000000
01000000
00000000
,  // measure 44
10000000
00000000
00010000
01000000
00100000
00000000
01100000
00000000
01000000
00000000
00010000
10000000
01000000
00000000
00100000
00000000
,  // measure 45
00001000
00000000
01000000
00001000
01000000
00000000
00010000
00000000
00100000
00000000
01000000
10000000
00100000
00000000
01000000
00000000
,  // measure 46
00001000
00000000
00010000
00000100
00000010
00000000
00000110
00000000
00000100
00000000
00001000
00000001
00000100
00000000
00000010
00000000
,  // measure 47
00001000
00000000
00000100
00000010
00000001
00000000
00010000
00000000
00000010
00000000
00000100
00001000
00010000
00000000
00000100
00000000
,  // measure 48
00000010
00000000
00000100
00010000
00001000
00000000
00101000
00000000
00001000
00000000
00010000
00001000
01000000
00000000
00100000
00000000
,  // measure 49
01000000
00000000
00001000
00010000
00000100
00000000
00000010
00000000
00000001
00000000
00001000
00000010
00000100
00000000
00000010
00000000
,  // measure 50
00001000
00000010
00000000
00000100
00000001
00000000
00001001
00000000
00000001
00000010
00000001
00000000
00001000
00000000
00000100
00000000
,  // measure 51
00010100
00000000
00000000
00011000
00000000
00000000
00101000
00000000
00001000
01000000
00100000
00000000
01000000
00000000
00001000
00000000
,  // measure 52
00110000
00000000
00000000
11000000
00000000
00000000
01100000
00000000
00010000
10000000
00010000
00000000
01000000
00000000
00001000
00000000
,  // measure 53
00101000
00000000
00000000
00011000
00000000
00000000
00010010
00000000
00000010
00000100
00000010
00000000
00001000
00000000
00000100
00000000
,  // measure 54
00000210
00000000
00000000
00000000
00000010
00000000
00000000
00000000
00001300
01000000
00001000
00000000
01000000
00001000
01000000
00000000
,  // measure 55
00001000
01000000
00001000
00000000
01000000
00001000
01000000
00000000
00010000
00100000
00010000
00000000
00100000
00010000
00100000
00000000
,  // measure 56
00010000
00100000
00010000
00000000
00001000
00010000
00001000
00000000
00010000
00000100
00010000
00000000
00000100
00010000
00000100
00000000
,  // measure 57
00010000
00000100
00010000
00000000
00000100
00010000
00000100
00000000
00001000
00000010
00001000
00000000
00000010
00001000
00000010
00000000
,  // measure 58
00001000
00000010
00001000
00000010
00001000
00000000
00001010
00000000
00001000
00000000
00000001
00000000
00000010
00000000
00000100
00000000
,  // measure 59
00010000
00000010
00001000
00010000
00100000
01000000
10000000
00010000
,  // measure 60
01000000
00000000
01001000
00000000
00010000
00001000
00100000
00000010
,  // measure 61
00000100
00001000
00020000
00000000
00030010
00000100
00000010
00001000
,  // measure 62
00000001
00000000
00010100
00000000
00010000
00001000
01000000
00100000
,  // measure 63
01000000
00010000
00100000
01000000
00020000
00000000
00031000
00000100
,  // measure 64
00000010
00000000
00010010
00000000
00010000
00001000
00100000
01000000
,  // measure 65
00200000
00010000
00310000
01000000
00001000
01000000
00100000
10000000
,  // measure 66
00010000
00000000
00000000
00000000
10010000
00000000
00000000
00000000
01000000
00010000
01000000
00000000
00010000
00000000
10000000
00000000
,  // measure 67
10001000
00000000
00000000
00000000
00100000
00000000
00000000
00000000
00001000
00010000
00001000
00000000
00010000
00000000
00000010
00000000
,  // measure 68
00000110
00000000
00000000
00000000
00010000
00000000
00000000
00000000
00000010
00000100
00000010
00000000
00001000
00000000
00000001
00000000
,  // measure 69
00000010
00001100
00000200
00000320
,  // measure 70
00000230
00000000
00000000
00000000
00000320
00000000
00000000
00000000
00000130
00010000
00000100
00000000
00010000
00000000
00000010
00000000
,  // measure 71
00010010
00000000
00000000
00000000
00010000
00000000
00000000
00000000
00001000
00100000
00001000
00000000
00100000
00000000
01000000
00000000
,  // measure 72
10000000
00000000
00000000
00000000
01000000
00000000
00000000
00000000
00100000
01000000
00100000
00000000
01000000
00000000
10000000
00000000
,  // measure 73
00010000
00000000
01010000
00000000
10000000
01000000
00010000
01000000
,  // measure 74
10000000
00000000
00000000
00000000
20020000
00000000
30030000
00000000
10000000
00000000
01000000
00100000
00010000
00000000
00100000
00000000
,  // measure 75
00001000
00000000
00010000
00000010
00000100
00000000
00000010
00000000
00010000
00000000
00001000
00010000
00000100
00000000
00000010
00000000
,  // measure 76
00000001
00000000
00001000
00000010
00000100
00000000
00000110
00000000
00000010
00000000
00001000
00000001
00000010
00000000
00000100
00000000
,  // measure 77
00010000
00000000
00000010
00010000
00000010
00000000
00001000
00000000
00000100
00000000
00000010
00000001
00000100
00000000
00000010
00000000
,  // measure 78
00010000
00000000
00001000
00100000
01000000
00000000
01100000
00000000
00100000
00000000
00010000
10000000
00100000
00000000
01000000
00000000
,  // measure 79
00010000
00000000
00100000
01000000
10000000
00000000
00001000
00000000
01000000
00000000
00100000
00010000
00001000
00000000
00100000
00000000
,  // measure 80
01000000
00000000
00100000
00001000
00010000
00000000
00010100
00000000
00010000
00000000
00001000
00010000
00000010
00000000
00000100
00000000
,  // measure 81
00000010
00000000
00010000
00001000
00100000
00000000
01000000
00000000
10000000
00000000
00010000
01000000
00100000
00000000
01000000
00000000
,  // measure 82
00010000
01000000
00000000
00100000
10000000
00000000
10010000
00000000
10000000
01000000
10000000
00000000
00010000
00000000
00100000
00000000
,  // measure 83
00101000
00000000
00000000
00011000
00000000
00000000
00010100
00000000
00010000
00000010
00000100
00000000
00000010
00000000
00010000
00000000
,  // measure 84
00001100
00000000
00000000
00000011
00000000
00000000
00000110
00000000
00001000
00000001
00001000
00000000
00000010
00000000
00010000
00000000
,  // measure 85
00010100
00000000
00000000
00011000
00000000
00000000
01001000
00000000
01000000
00100000
01000000
00000000
00010000
00000000
00100000
00000000
,  // measure 86
01200000
00000000
00000000
00000000
01300000
00000000
01000000
00100000
01000000
00000000
10010000
00000000
01100000
00000000
00100000
01000000
,  // measure 87
00100000
01100000
10010000
00000000
10010000
01010000
00011000
00001100
,  // measure 88
00000000
00000000
00001001
00000000
00000000
00000000
00000001
00000100
00000001
00000000
00000101
00000000
00001100
00000000
00001000
00000100
,  // measure 89
00001000
00001100
00000101
00000000
00001001
00001100
00011000
01010000
,  // measure 90
00000000
00000000
10010000
00000000
00000000
00000000
10000000
00100000
10000000
00000000
10100000
00000000
00110000
00000000
00010000
00100000
,  // measure 91
00010000
00110000
10100000
00000000
10010000
00110000
00011000
00001010
,  // measure 92
00000000
00000000
00001001
00000000
00000000
00000000
00000001
00000010
00000001
00000000
00000011
00000000
00001010
00000000
00001000
00000010
,  // measure 93
00001000
00001010
00000011
00000000
00001001
00001010
00011000
00110000
,  // measure 94
00000000
00000000
10010000
00000000
00010000
10000000
00010000
00000000
10000000
00000000
01000000
00100000
00010000
00000000
01000000
00000000
,  // measure 95
00001000
00000000
00100000
00001000
00010000
00000000
00000010
00000000
00000100
00000000
00000001
00001000
00000100
00000000
00000010
00000000
,  // measure 96
00000100
00000000
00010000
00000010
00000100
00000000
00010010
00000000
00001000
00000000
00000100
00000010
00000100
00000000
00010000
00000000
,  // measure 97
00000010
00000000
00000100
00000001
00001000
00000000
00000100
00000000
00010000
00000000
00001000
01000000
00100000
00000000
10000000
00000000
,  // measure 98
00010000
00000000
00100000
01000000
00100000
00000000
01010000
00000000
00010000
00000000
10000000
00100000
01000000
00000000
00001000
00000000
,  // measure 99
00100000
00000000
00010000
10000000
00100000
00000000
01000000
00000000
00001000
00000000
00100000
00010000
00100000
00000000
00001000
00000000
,  // measure 100
00010000
00000000
00000010
00000100
00000001
00000000
00001001
00000000
00001000
00000000
00000100
00000010
00000100
00000000
00001000
00000000
,  // measure 101
00000001
00000000
00000100
00000010
00010000
00000000
00000100
00000000
00010000
00000000
00001000
00010000
00000010
00000000
00000100
00000000
,  // measure 102
00000010
00000100
00000000
00000001
00000100
00000000
00000110
00000000
00000010
00010000
00000010
00000000
00000200
00000000
00002300
00000000
,  // measure 103
00023000
00000000
00000000
00032000
00000000
00000000
00203000
00000000
01300000
10000000
01000000
00000000
20000000
00000000
30020000
00000000
,  // measure 104
00230000
00000000
00000000
00302000
00000000
00000000
01003000
00000000
00001000
00100000
00001000
00000000
00020000
00000000
00030020
00000000
,  // measure 105
00000230
00000000
00000000
00002300
00000000
00000000
00003200
00000000
00000301
00001000
00000001
00000000
00000010
00000000
00000100
00000000
,  // measure 106
00010100
00000000
00000000
00000000
00011000
00000000
00000000
00000000
00000010
00000001
00000010
00000000
00000002
00000000
00002003
00000000
,  // measure 107
00003200
00000000
00000000
00020300
00000000
00000000
00030020
00000000
00000130
00000010
00001000
00000000
00000020
00000000
00002030
00000000
,  // measure 108
00003200
00000000
00000000
00020300
00000000
00000000
00032000
00000000
00103000
00001000
00100000
00000000
00020000
00000000
20030000
00000000
,  // measure 109
30200000
00000000
00000000
02300000
00000000
00000000
03200000
00000000
10300000
00100000
10000000
00000000
00010000
00000000
10000000
00000000
,  // measure 110
10010000
00000000
00000000
00000000
00100000
00000000
00000000
00000000
01000000
00001000
01000000
00000000
00001000
00000000
00010000
00000000
,  // measure 111
00010100
00000000
00000000
00011000
00000000
00000000
00010100
00000000
00000100
00000010
00000100
00000000
00000010
00000000
00000001
00000000
,  // measure 112
00001001
00000000
00000000
00001010
00000000
00000000
00001001
00000000
00000001
00000010
00000100
00000000
00000010
00000000
00000100
00000000
,  // measure 113
00010100
00000000
00000000
00001100
00000000
00000000
00010100
00000000
00000100
00010000
00001000
00000000
00100000
00000000
00001000
00000000
,  // measure 114
01001000
00000000
00000000
00000000
00100000
00000000
00000000
00000000
01000000
00001000
01000000
00000000
00002000
00000000
00203000
00000000
,  // measure 115
00320000
00000000
00000000
02030000
00000000
00000000
03002000
00000000
00013000
00000100
00010000
00000000
00000200
00000000
00000320
00000000
,  // measure 116
00000032
00000000
00000000
00000203
00000000
00000000
00002300
00000000
00013000
00001000
00010000
00000000
00002000
00000000
00203000
00000000
,  // measure 117
02300000
00000000
00000000
23000000
00000000
00000000
32000000
00000000
03100000
00010000
00100000
00000000
00010000
00000000
10000000
00000000
,  // measure 118
20200000
30300000
00000000
00000000
;

//---------------dance-double - ----------------
#NOTEDATA:;
#CHARTNAME:;
#STEPSTYPE:dance-double;
#DESCRIPTION:;
#CHARTSTYLE:;
#DIFFICULTY:Hard;
#METER:8;
#RADARVALUES:0.558010,0.662212,0.392007,0.541343,0.203004,837.000000,753.000000,84.000000,116.000000,0.000000,0.000000,0.000000,0.000000,0.000000,0.558010,0.662212,0.392007,0.541343,0.203004,837.000000,753.000000,84.000000,116.000000,0.000000,0.000000,0.000000,0.000000,0.000000;
#CREDIT:;
#DISPLAYBPM:136.000000;
#NOTES:
// measure 0
00000000
00000000
00000000
00000000
,  // measure 1
00000000
00000000
00000000
00000000
,  // measure 2
00000000
00000000
00000000
00000000
,  // measure 3
00000000
00000000
00000000
00000000
,  // measure 4
00000000
00000000
00000000
00000000
00000000
00000000
00000000
00000000
00001000
00010000
00001000
00000000
01000000
00000000
00100000
00000000
,  // measure 5
02000000
00000000
00000000
03002000
00000000
00000000
01003000
00000000
00001000
00100000
00001000
00000000
00010000
00000000
00001000
00000000
,  // measure 6
00020000
00000000
00000000
00030200
00000000
00000000
00010300
00000000
00001000
00010000
00001000
00000000
00020000
00000000
00030200
00000000
,  // measure 7
00000320
00000000
00000000
00000230
00000000
00000000
00000310
00000000
00000001
00000010
00000001
00000000
00001000
00000000
00000010
00000000
,  // measure 8
00001010
00000000
00001001
00000000
00000000
00000001
00000010
00000100
,  // measure 9
00000020
00000000
00000130
00010000
00000100
00010000
00001000
00101000
,  // measure 10
00000000
00101000
00000000
00000000
00000000
00001000
01000000
00100000
,  // measure 11
02000000
00000000
03001000
00100000
01000000
00100000
00010000
00110000
,  // measure 12
00000000
00000000
10010000
00000000
00010000
01000000
00100000
01000000
,  // measure 13
00020000
00000000
10030000
01000000
10000000
00010000
00100000
00110000
,  // measure 14
00000000
01100000
00000000
00000000
00000000
10000000
01000000
10000000
,  // measure 15
00020000
00000000
01030000
00001000
00010000
00001000
00010000
00010100
,  // measure 16
00000000
00000000
00000000
00000000
00010010
00000000
00000000
00000000
00000010
00001000
00000010
00000000
00000100
00000000
00000010
00000000
,  // measure 17
00002000
00000000
00000000
00003002
00000000
00000000
00001003
00000000
00000001
00000010
00000001
00000000
00001000
00000000
00000100
00000000
,  // measure 18
00020000
00000000
00000000
00030200
00000000
00000000
00010300
00000000
00001000
00010000
00001000
00000000
01000000
00000000
00001000
00000000
,  // measure 19
02000000
00000000
00000000
03020000
00000000
00000000
00130000
00000000
01000000
00100000
01000000
00000000
00100000
00000000
00010000
00000000
,  // measure 20
10010000
00000000
00000000
00000000
00100000
00000000
00000000
00000000
10000000
00100000
10000000
00000000
00100000
00000000
01000000
00000000
,  // measure 21
00020000
00000000
00000000
00230000
00000000
00000000
00310000
00000000
00100000
00001000
00100000
00000000
00001000
00000000
00010000
00000000
,  // measure 22
00000020
00000000
00000000
00020030
00000000
00000000
00030010
00000000
00000100
00000010
00000100
00000000
00000001
00000000
00001000
00000000
,  // measure 23
00000200
00000000
00000000
00000320
00000000
00000000
00000130
00000000
00001000
00000001
00001000
00000000
00000010
00000000
00000100
00000000
,  // measure 24
00000110
00000000
00000000
00000000
00000001
00000000
00000000
00000000
00000010
00000100
00000000
00000000
00000100
00001000
00000000
00000000
,  // measure 25
00001000
00000010
00000000
00000000
00000010
00010000
00000000
00000000
00010000
00001000
00000000
00000000
00001000
00100000
00000000
00000000
,  // measure 26
00100000
01000000
00000000
00000000
01000000
00100000
00000000
00000000
00100000
00000000
00010000
00000000
01000000
00000000
00010000
00000000
,  // measure 27
00100000
01000000
10000000
00010000
00100000
00001000
00010000
00000100
,  // measure 28
00020000
00000000
00030010
00000000
00000100
00000010
00000100
00000010
,  // measure 29
00001000
00000001
00000020
00000000
00000031
00001000
00000100
00000010
,  // measure 30
00000100
00000000
00000110
00000000
00000100
00010000
00000010
00010000
,  // measure 31
00000100
00001000
00000100
00010000
00002000
00000000
00013000
00001000
,  // measure 32
01000000
00000000
01100000
00000000
00010000
10000000
00010000
00100000
,  // measure 33
01000000
00100000
00010000
00100000
00001000
01000000
00001000
00010000
,  // measure 34
00002000
00013000
00000200
00020300
,  // measure 35
00030100
00000010
00000001
00001000
00000020
00000000
00020030
00000000
,  // measure 36
00030010
00010000
00000200
00000000
00020300
00000000
00032000
00000000
,  // measure 37
00203000
00000000
00301000
00100000
00010000
00000000
00110000
00000000
,  // measure 38
11000000
00000000
00110000
00000000
00020000
00000000
01030000
00010000
,  // measure 39
02000000
00000000
03200000
00000000
02300000
00000000
03001000
01000000
,  // measure 40
00001000
00000000
00020000
00000000
00030200
00000000
00001300
00000100
,  // measure 41
00002000
00000000
00003020
00000000
00000130
00000010
00000100
00000001
,  // measure 42
00001000
00000000
00001001
00000000
00000000
00000001
00000010
00000100
,  // measure 43
00002000
00000000
00003100
00010000
00001000
00100000
00010000
00110000
,  // measure 44
00000000
00110000
00000000
00000000
00000000
00010000
01000000
00100000
,  // measure 45
02000000
00000000
03001000
00010000
00001000
00010000
00000100
00010100
,  // measure 46
00000000
00000000
00000100
00000000
00000010
00000100
00000010
00000001
,  // measure 47
00002000
00000000
00003010
00000100
00000010
00010000
00000100
00010100
,  // measure 48
00000000
00010100
00000000
00000000
00000000
00001000
00010000
00001000
,  // measure 49
01000000
00100000
10000000
00010000
00100000
01000000
00100000
00110000
,  // measure 50
00001000
00000000
00000000
00000000
00011000
00000000
00000000
00000000
00100000
00001000
00100000
00000000
00002000
00000000
00023000
00000000
,  // measure 51
00030200
00000000
00000000
00002300
00000000
00000000
00003100
00000000
00000010
00000100
00000010
00000000
00000002
00000000
00002003
00000000
,  // measure 52
00003020
00000000
00000000
00000230
00000000
00000000
00000310
00000000
00001000
00000010
00001000
00000000
00000020
00000000
00020030
00000000
,  // measure 53
00030200
00000000
00000000
00020300
00000000
00000000
00031000
00000000
00010000
00001000
00010000
00000000
00001000
00000000
00100000
00000000
,  // measure 54
00101000
00000000
00000000
00000000
01010000
00000000
00000000
00000000
01000000
00100000
00000000
00000000
00100000
00010000
00000000
00000000
,  // measure 55
00010000
01000000
00000000
00000000
01000000
00001000
00000000
00000000
00001000
00010000
00000000
00000000
00010000
00000100
00000000
00000000
,  // measure 56
00001000
00010000
00000000
00000000
00010000
01000000
00000000
00000000
01000000
00100000
00000000
00000000
00100000
00010000
00000000
00000000
,  // measure 57
00010000
01000000
00000000
00000000
01000000
00001000
00000000
00000000
00001000
00010000
00000000
00000000
00010000
00000100
00000000
00000000
,  // measure 58
00000100
00000010
00000000
00000000
00000010
00000100
00000000
00000000
00000100
00000000
00001000
00000000
00000010
00000000
00001000
00000000
,  // measure 59
00000100
00000010
00000001
00001000
00000100
00010000
00001000
00100000
,  // measure 60
00002000
00000000
01003000
00000000
00100000
01000000
00100000
01000000
,  // measure 61
00010000
10000000
02000000
00000000
13000000
00010000
00100000
01000000
,  // measure 62
00100000
00000000
01100000
00000000
00100000
00001000
01000000
00001000
,  // measure 63
00100000
00010000
00100000
00001000
00020000
00000000
00031000
00010000
,  // measure 64
00000010
00000000
00000110
00000000
00001000
00000001
00001000
00000100
,  // measure 65
00000010
00000100
00001000
00000100
00010000
00000010
00010000
00001000
,  // measure 66
00020000
00031000
00200000
00302000
,  // measure 67
00103000
01000000
10000000
00010000
02000000
00000000
03002000
00000000
,  // measure 68
01003000
00001000
00200000
00000000
00302000
00000000
00023000
00000000
,  // measure 69
00030200
00000000
00010300
00000100
00001000
00000000
00001100
00000000
,  // measure 70
00000011
00000000
00001100
00000000
00002000
00000000
00003010
00001000
,  // measure 71
00000020
00000000
00000230
00000000
00000320
00000000
00010030
00000010
,  // measure 72
00010000
00000000
00002000
00000000
00203000
00000000
00310000
00100000
,  // measure 73
00020000
00000000
02030000
00000000
03100000
01000000
00100000
10000000
,  // measure 74
00010000
00000000
10010000
00000000
00000000
10000000
01000000
00100000
,  // measure 75
00020000
00000000
00130000
00001000
00010000
00000100
00001000
00001100
,  // measure 76
00000000
00001100
00000000
00000000
00000000
00001000
00000010
00000100
,  // measure 77
00000020
00000000
00010030
00001000
00010000
00001000
00100000
00101000
,  // measure 78
00000000
00000000
00100000
00000000
01000000
00100000
01000000
10000000
,  // measure 79
00020000
00000000
01030000
00100000
01000000
00001000
00100000
00101000
,  // measure 80
00000000
00101000
00000000
00000000
00000000
00010000
00001000
00010000
,  // measure 81
00000010
00000100
00000001
00001000
00000100
00000010
00000100
00001100
,  // measure 82
00010000
00000000
00000000
00000000
00011000
00000000
00000000
00000000
00000100
00010000
00000100
00000000
00020000
00000000
00032000
00000000
,  // measure 83
00203000
00000000
00000000
00320000
00000000
00000000
00130000
00000000
01000000
00100000
01000000
00000000
20000000
00000000
30020000
00000000
,  // measure 84
02030000
00000000
00000000
03200000
00000000
00000000
01300000
00000000
00010000
01000000
00010000
00000000
02000000
00000000
03002000
00000000
,  // measure 85
00203000
00000000
00000000
00302000
00000000
00000000
00013000
00000000
00001000
00010000
00001000
00000000
00010000
00000000
00000100
00000000
,  // measure 86
00010100
00000000
00001010
00000000
00000001
00000100
00000010
00001000
,  // measure 87
00010000
00100000
01000000
00000000
10000000
01000000
00100000
00110000
,  // measure 88
00000000
00011000
00000000
00001000
00000100
00000001
00000100
00001000
,  // measure 89
00000010
00000001
00000100
00000000
00001000
00000100
00000010
00000011
,  // measure 90
00000000
00001001
00000000
00000001
00000100
00000010
00001000
00000100
,  // measure 91
00000001
00000010
00000100
00000000
00000001
00000010
00000100
00001100
,  // measure 92
00000000
00011000
00000000
00010000
01000000
00100000
10000000
01000000
,  // measure 93
00010000
00100000
10000000
00000000
00010000
00100000
01000000
11000000
,  // measure 94
00000000
10010000
00000000
01100000
00000000
10000000
01000000
00100000
,  // measure 95
02000000
00000000
03100000
00001000
00100000
00001000
00010000
00010100
,  // measure 96
00000000
00010100
00000000
00001010
00000000
00010000
00000010
00000100
,  // measure 97
00000020
00000000
00010030
00000100
00000010
00000100
00001000
00001100
,  // measure 98
00000000
00000000
00001001
00000000
00001000
00000010
00000100
00000010
,  // measure 99
00002000
00000000
00003001
00000010
00000001
00001000
00000100
00001100
,  // measure 100
00000000
00000110
00000000
00000000
00000000
00000001
00000010
00000001
,  // measure 101
00002000
00000000
00003010
00010000
00001000
00010000
00001000
00101000
,  // measure 102
00000000
00000000
00000000
00000000
01001000
00000000
00000000
00000000
01000000
00010000
01000000
00000000
00100000
00000000
01000000
00000000
,  // measure 103
00020000
00000000
00000000
20030000
00000000
00000000
30010000
00000000
10000000
01000000
10000000
00000000
00010000
00000000
00100000
00000000
,  // measure 104
00002000
00000000
00000000
00203000
00000000
00000000
00301000
00000000
00010000
00001000
00010000
00000000
00000010
00000000
00010000
00000000
,  // measure 105
00000020
00000000
00000000
00002030
00000000
00000000
00003100
00000000
00000010
00000100
00000010
00000000
00000100
00000000
00001000
00000000
,  // measure 106
00001001
00000000
00000000
00000000
00011000
00000000
00000000
00000000
00010000
00100000
00010000
00000000
20000000
00000000
32000000
00000000
,  // measure 107
23000000
00000000
00000000
30020000
00000000
00000000
00130000
00000000
00010000
00100000
00010000
00000000
01000000
00000000
00001000
00000000
,  // measure 108
02000000
00000000
00000000
03002000
00000000
00000000
00013000
00000000
00001000
00010000
00001000
00000000
00020000
00000000
00030200
00000000
,  // measure 109
00000320
00000000
00000000
00000230
00000000
00000000
00000310
00000000
00000001
00000010
00000001
00000000
00001000
00000000
00000010
00000000
,  // measure 110
00001010
00000000
00000000
00000000
00001001
00000000
00000000
00000000
00000001
00000010
00000001
00000000
00000100
00000000
00000010
00000000
,  // measure 111
00001010
00000000
00000000
00000110
00000000
00000000
00001010
00000000
00000010
00010000
00000010
00000000
00010000
00000000
00000100
00000000
,  // measure 112
00010100
00000000
00000000
00011000
00000000
00000000
00010100
00000000
00010000
00001000
00010000
00000000
00001000
00000000
01000000
00000000
,  // measure 113
01001000
00000000
00000000
01100000
00000000
00000000
10100000
00000000
00100000
01000000
00100000
00000000
01000000
00000000
00010000
00000000
,  // measure 114
10010000
00000000
00000000
00000000
00100000
00000000
00000000
00000000
00010000
00100000
00010000
00000000
01000000
00000000
00100000
00000000
,  // measure 115
01100000
00000000
00000000
01001000
00000000
00000000
00110000
00000000
00010000
00100000
00010000
00000000
00100000
00000000
00001000
00000000
,  // measure 116
00011000
00000000
00000000
00010100
00000000
00000000
00010010
00000000
00000010
00000100
00000010
00000000
00001000
00000000
00000001
00000000
,  // measure 117
00000101
00000000
00000000
00001010
00000000
00000000
00000101
00000000
00000001
00001000
00000100
00000000
00000010
00000000
00000100
00000000
,  // measure 118
00002020
00003030
00000000
00000000
;

//---------------dance-double - ----------------
#NOTEDATA:;
#CHARTNAME:;
#STEPSTYPE:dance-double;
#DESCRIPTION:;
#CHARTSTYLE:;
#DIFFICULTY:Medium;
#METER:5;
#RADARVALUES:0.383340,0.413882,0.177336,0.919349,0.056001,575.000000,537.000000,38.000000,197.000000,0.000000,0.000000,0.000000,0.000000,0.000000,0.383340,0.413882,0.177336,0.919349,0.056001,575.000000,537.000000,38.000000,197.000000,0.000000,0.000000,0.000000,0.000000,0.000000;
#CREDIT:;
#DISPLAYBPM:136.000000;
#NOTES:
// measure 0
00000000
00000000
00000000
00000000
,  // measure 1
00000000
00000000
00000000
00000000
,  // measure 2
00000000
00000000
00000000
00000000
,  // measure 3
00000000
00000000
00000000
00000000
,  // measure 4
00000000
00000000
00001000
01000000
,  // measure 5
00001000
00010000
00001000
00100000
,  // measure 6
00001000
00010000
00000100
00000010
,  // measure 7
00000001
00001000
00000010
00000100
,  // measure 8
00000110
00000000
00000000
00000000
00000010
00000000
00010000
00000100
,  // measure 9
00010000
00000100
00000020
00000230
,  // measure 10
00000320
00000000
00000032
00000000
00001003
00000000
00000010
00010000
,  // measure 11
00000010
00000100
00000020
00020030
,  // measure 12
00030200
00000000
00020300
00000000
00031000
00000000
00100000
00001000
,  // measure 13
00100000
00010000
02000000
03200000
,  // measure 14
02300000
00000000
03020000
00000000
10030000
00000000
01000000
10000000
,  // measure 15
01000000
00100000
00020000
00130000
,  // measure 16
00110000
00101000
00002000
00023000
,  // measure 17
00030100
00000000
00000000
00000100
00000000
00000000
00000100
00000000
00000020
00000000
00000000
00000000
00000032
00000000
00000000
00000000
,  // measure 18
00001003
00000000
00000000
00001000
00000000
00000000
00001000
00000000
00000020
00000000
00000000
00000000
00020030
00000000
00000000
00000000
,  // measure 19
00030100
00000000
00000000
00000100
00000000
00000000
00000100
00000000
00020000
00000000
00000000
00000000
00031000
00000000
00000000
00000000
,  // measure 20
00101000
00000000
00000000
00000000
00202000
00000000
00000000
00303000
00002000
00000000
00000000
00000000
02003000
00000000
00000000
00000000
,  // measure 21
03100000
00000000
00000000
00100000
00000000
00000000
00100000
00000000
20000000
00000000
00000000
00000000
30020000
00000000
00000000
00000000
,  // measure 22
00130000
00000000
00000000
00100000
00000000
00000000
00100000
00000000
00020000
00000000
00000000
00000000
02030000
00000000
00000000
00000000
,  // measure 23
03001000
00000000
00000000
00001000
00000000
00000000
00001000
00000000
00020000
00000000
00000000
00000000
00030100
00000000
00000000
00000000
,  // measure 24
00010100
00000000
00020000
00032000
,  // measure 25
00023000
00032000
00203000
02300000
,  // measure 26
23000000
00000000
30020000
00000000
01030000
00100000
01000000
00000000
,  // measure 27
00010000
01000000
00010000
00000000
00200000
00000000
00320000
00000000
,  // measure 28
00230000
00000000
00302000
00000000
00013000
00001000
00010000
00000000
,  // measure 29
00000100
00010000
00000100
00000000
00000020
00000000
00000230
00000000
,  // measure 30
00000320
00000000
00000230
00000000
00000310
00000001
00000010
00000000
,  // measure 31
00000001
00001000
00000001
00000000
00000200
00000000
00000302
00000000
,  // measure 32
00000203
00000000
00000302
00000000
00001003
00000010
00001000
00000000
,  // measure 33
00000010
00010000
00000010
00000000
00020000
00000000
00032000
00000000
,  // measure 34
00023000
00000000
00032000
00000000
00023000
00000000
00031000
00100000
,  // measure 35
00001000
00000000
00001000
00000000
01002000
00000000
00103000
00010000
,  // measure 36
00100000
00000000
00010000
00000000
20010000
00000000
30100000
01000000
,  // measure 37
00100000
10000000
02000000
03020000
,  // measure 38
00032000
00000000
00003200
00000000
00000320
00000000
00001030
00000010
,  // measure 39
00001000
00000000
00000001
00000000
00002001
00000000
00003001
00000010
,  // measure 40
00000001
00000000
00000100
00000000
00000120
00000000
00001030
00000010
,  // measure 41
00001000
00000000
00000100
00000000
00000100
00010000
00000100
00010000
,  // measure 42
00000100
00011000
00002000
02003000
,  // measure 43
03200000
00000000
02300000
00000000
03020000
00000000
00130000
01000000
,  // measure 44
00000000
01100000
00000000
00000000
02000000
00000000
23000000
00000000
,  // measure 45
30020000
00000000
02030000
00000000
03001000
00000000
00010000
00011000
,  // measure 46
00000000
00010000
00010000
00000000
00002000
00000000
00023000
00000000
,  // measure 47
00030200
00000000
00020300
00000000
00030100
00000000
00000010
00000100
,  // measure 48
00000000
00000110
00000000
00000000
00000020
00000000
00000032
00000000
,  // measure 49
00002003
00000000
00003020
00000000
00010030
00000000
00000010
00010010
,  // measure 50
00000000
00000010
00000020
00020030
,  // measure 51
00031000
00000000
00000000
00001000
00000000
00000000
00001000
00000000
02000000
00000000
00000000
00000000
03200000
00000000
00000000
00000000
,  // measure 52
10300000
00000000
00000000
10000000
00000000
00000000
10000000
00000000
02000000
00000000
00000000
00000000
03200000
00000000
00000000
00000000
,  // measure 53
00301000
00000000
00000000
00001000
00000000
00000000
00001000
00000000
02000000
00000000
00000000
00000000
03100000
00000000
00000000
00000000
,  // measure 54
01100000
01000000
00002000
00023000
,  // measure 55
00032000
00023000
00230000
02300000
,  // measure 56
03002000
00203000
00302000
00023000
,  // measure 57
00032000
00023000
00030200
00000320
,  // measure 58
00000032
00000000
00002003
00000000
00003010
00000100
00000010
00000000
,  // measure 59
00001000
00000010
00001000
00000000
00000200
00000000
00002300
00000000
,  // measure 60
00003200
00000000
00020300
00000000
00031000
00010000
00001000
00000000
,  // measure 61
00100000
00001000
00100000
00000000
02000000
00000000
03200000
00000000
,  // measure 62
02300000
00000000
03200000
00000000
01300000
10000000
01000000
00000000
,  // measure 63
10000000
00010000
10000000
00000000
00200000
00000000
20300000
00000000
,  // measure 64
30200000
00000000
20300000
00000000
30010000
01000000
00010000
00000000
,  // measure 65
01000000
00001000
01000000
00000000
00002000
00000000
00023000
00000000
,  // measure 66
00032000
00000000
00023000
00000000
00032000
00000000
00013000
00000100
,  // measure 67
00010000
00000000
00010000
00000000
00020010
00000000
00030100
00001000
,  // measure 68
00000100
00000000
00001000
00000000
00001002
00000000
00000103
00000010
,  // measure 69
00000100
00000001
00000020
00002030
,  // measure 70
00023000
00000000
00230000
00000000
02300000
00000000
03010000
01000000
,  // measure 71
00010000
00000000
10000000
00000000
10020000
00000000
10030000
01000000
,  // measure 72
10000000
00000000
00100000
00000000
02100000
00000000
03010000
01000000
,  // measure 73
00010000
00000000
00100000
00000000
00100000
00001000
00100000
00001000
,  // measure 74
00100000
00011000
00020000
00030020
,  // measure 75
00000230
00000000
00000320
00000000
00002030
00000000
00003100
00000010
,  // measure 76
00000000
00000110
00000000
00000000
00000020
00000000
00000032
00000000
,  // measure 77
00002003
00000000
00003020
00000000
00010030
00000000
00001000
00011000
,  // measure 78
00000000
00001000
00001000
00000000
00020000
00000000
00032000
00000000
,  // measure 79
00203000
00000000
00302000
00000000
00103000
00000000
01000000
00100000
,  // measure 80
00000000
01100000
00000000
00000000
02000000
00000000
23000000
00000000
,  // measure 81
30020000
00000000
02030000
00000000
03001000
00000000
01000000
01001000
,  // measure 82
00000000
01000000
02000000
03002000
,  // measure 83
00013000
00000000
00000000
00010000
00000000
00000000
00010000
00000000
00000020
00000000
00000000
00000000
00000230
00000000
00000000
00000000
,  // measure 84
00000301
00000000
00000000
00000001
00000000
00000000
00000001
00000000
00000020
00000000
00000000
00000000
00000230
00000000
00000000
00000000
,  // measure 85
00010300
00000000
00000000
00010000
00000000
00000000
00010000
00000000
00000020
00000000
00000000
00000000
00000130
00000000
00000000
00000000
,  // measure 86
00000110
00000000
00000010
00000000
00000010
00000100
00000010
00000100
,  // measure 87
00000010
00000100
00000010
00000000
00000001
00001000
00000001
00001000
,  // measure 88
00000000
00011000
00000000
00000000
01000000
00100000
01000000
00100000
,  // measure 89
01000000
00100000
01000000
00000000
10000000
00010000
10000000
00010000
,  // measure 90
00000000
00011000
00000000
00000000
00001000
00000001
00001000
00000001
,  // measure 91
00001000
00000001
00001000
00000000
00000010
00000100
00000010
00001000
,  // measure 92
00000000
00011000
00000000
00000000
00010000
10000000
00010000
10000000
,  // measure 93
00010000
10000000
00010000
00000000
01000000
00100000
01000000
00010000
,  // measure 94
00000000
00011000
00000000
00000000
01000000
00000000
00001000
00100000
,  // measure 95
00001000
00100000
02000000
03200000
,  // measure 96
02300000
00000000
23000000
00000000
30010000
00000000
01000000
00001000
,  // measure 97
01000000
00100000
02000000
03002000
,  // measure 98
00203000
00000000
00302000
00000000
00013000
00000000
00000100
00010000
,  // measure 99
00000100
00001000
00000020
00000230
,  // measure 100
00000320
00000000
00002030
00000000
00003001
00000000
00000010
00000001
,  // measure 101
00000010
00000100
00002000
00003100
,  // measure 102
00001100
00010100
00020000
00032000
,  // measure 103
00103000
00000000
00000000
00100000
00000000
00000000
00100000
00000000
02000000
00000000
00000000
00000000
23000000
00000000
00000000
00000000
,  // measure 104
30010000
00000000
00000000
00010000
00000000
00000000
00010000
00000000
02000000
00000000
00000000
00000000
03002000
00000000
00000000
00000000
,  // measure 105
00103000
00000000
00000000
00100000
00000000
00000000
00100000
00000000
00002000
00000000
00000000
00000000
00013000
00000000
00000000
00000000
,  // measure 106
00010100
00000000
00000000
00000000
00020200
00000000
00000000
00030300
00002000
00000000
00000000
00000000
00023000
00000000
00000000
00000000
,  // measure 107
00030100
00000000
00000000
00000100
00000000
00000000
00000100
00000000
00000020
00000000
00000000
00000000
00000230
00000000
00000000
00000000
,  // measure 108
00000310
00000000
00000000
00000010
00000000
00000000
00000010
00000000
00000002
00000000
00000000
00000000
00002003
00000000
00000000
00000000
,  // measure 109
00003010
00000000
00000000
00000010
00000000
00000000
00000010
00000000
00020000
00000000
00000000
00000000
00030010
00000000
00000000
00000000
,  // measure 110
00010010
00010000
00020100
00030200
,  // measure 111
00010300
00000000
00000000
00010000
00000000
00000000
00010000
00000000
00002000
00000000
00000000
00000000
02003000
00000000
00000000
00000000
,  // measure 112
03100000
00000000
00000000
00100000
00000000
00000000
00100000
00000000
20000000
00000000
00000000
00000000
30020000
00000000
00000000
00000000
,  // measure 113
00130000
00000000
00000000
00100000
00000000
00000000
00100000
00000000
00002000
00000000
00000000
00000000
00013000
00000000
00000000
00000000
,  // measure 114
00011000
00010000
00000200
00000320
,  // measure 115
00000130
00000000
00000000
00000100
00000000
00000000
00000100
00000000
00002000
00000000
00000000
00000000
00003002
00000000
00000000
00000000
,  // measure 116
00000103
00000000
00000000
00000100
00000000
00000000
00000100
00000000
00000020
00000000
00000000
00000000
00020030
00000000
00000000
00000000
,  // measure 117
00031000
00000000
00000000
00001000
00000000
00000000
00001000
00000000
01000000
00000000
00100000
00000000
01000000
00000000
00001000
00000000
,  // measure 118
02002000
03003000
00000000
00000000
;

//---------------dance-double - ----------------
#NOTEDATA:;
#CHARTNAME:;
#STEPSTYPE:dance-double;
#DESCRIPTION:;
#CHARTSTYLE:;
#DIFFICULTY:Easy;
#METER:3;
#RADARVALUES:0.228671,0.358698,0.172670,0.182003,0.000000,343.000000,306.000000,37.000000,39.000000,0.000000,0.000000,0.000000,0.000000,0.000000,0.228671,0.358698,0.172670,0.182003,0.000000,343.000000,306.000000,37.000000,39.000000,0.000000,0.000000,0.000000,0.000000,0.000000;
#CREDIT:;
#DISPLAYBPM:136.000000;
#NOTES:
// measure 0
00000000
00000000
00000000
00000000
,  // measure 1
00000000
00000000
00000000
00000000
,  // measure 2
00000000
00000000
00000000
00000000
,  // measure 3
00000000
00000000
00000000
00000000
,  // measure 4
00000000
00000000
00001000
00000000
,  // measure 5
00010000
00000000
00001000
00000000
,  // measure 6
01000000
00000000
01100000
00000000
,  // measure 7
00100000
00000000
10000000
00000000
,  // measure 8
10010000
00000000
00010000
00100000
,  // measure 9
00010000
00100000
00001000
00200000
,  // measure 10
00301000
00000000
00010000
00000100
,  // measure 11
00010000
00000100
00000010
00000100
,  // measure 12
00000110
00000000
00000010
00000001
,  // measure 13
00001000
00000001
00000100
00000002
,  // measure 14
00001003
00000000
00000100
00010000
,  // measure 15
00000100
00000000
00000010
00000000
00000100
00000000
00010000
00001000
,  // measure 16
00000000
00000000
00001000
00000000
,  // measure 17
01000000
00000000
00100000
00000000
,  // measure 18
01000000
00000000
00010000
00000000
,  // measure 19
10000000
00000000
01000000
00000000
,  // measure 20
01100000
00000000
00100000
00000000
,  // measure 21
00001000
00000000
00010000
00000000
,  // measure 22
00000100
00000000
00010000
00000000
,  // measure 23
00000010
00000000
00000100
00000000
,  // measure 24
00000110
00000000
00000020
00000230
,  // measure 25
00000320
00000230
00000320
00000230
,  // measure 26
00000320
00000230
00000310
00001000
,  // measure 27
00000010
00010000
00000010
00010000
,  // measure 28
00012000
00000000
00013000
00001000
,  // measure 29
01000000
00100000
01000000
00001000
,  // measure 30
00021000
00000000
00031000
00010000
,  // measure 31
00000100
00000010
00000001
00001000
,  // measure 32
00002010
00000000
00003010
00010000
,  // measure 33
00000100
00010000
00001000
00100000
,  // measure 34
00201000
00000000
00301000
00000000
,  // measure 35
01000000
00000000
00100000
00000000
,  // measure 36
01000000
00000000
00010000
00000000
,  // measure 37
10000000
00000000
01000000
01000000
,  // measure 38
01000000
01000000
01000000
00000000
,  // measure 39
00100000
00000000
00001000
00000000
,  // measure 40
00010000
00000000
00001000
00000000
,  // measure 41
00010000
00000000
00000100
00000100
,  // measure 42
00000100
00001100
00000100
00000000
,  // measure 43
00000010
00000000
00000001
00000000
,  // measure 44
00001000
00000000
00000010
00000000
,  // measure 45
00010000
00000000
00000010
00000000
,  // measure 46
00010000
00000000
00001000
00000000
,  // measure 47
00010000
00000000
00000100
00000000
,  // measure 48
00010000
00000000
00001000
00000000
,  // measure 49
01000000
00000000
00100000
00000000
,  // measure 50
10000000
00000000
10010000
00000000
,  // measure 51
00010000
00000000
00100000
00000000
,  // measure 52
00010000
00000000
00100000
00000000
,  // measure 53
00001000
00000000
00010000
00000000
,  // measure 54
00010100
00020000
00032000
00023000
,  // measure 55
00032000
02003000
03020000
02030000
,  // measure 56
03020000
00230000
02300000
03200000
,  // measure 57
02300000
03200000
02300000
03200000
,  // measure 58
02300000
03200000
01300000
00010000
,  // measure 59
01000000
00001000
01000000
00001000
,  // measure 60
00021000
00000000
00031000
00010000
,  // measure 61
00000010
00000100
00000010
00010000
,  // measure 62
00012000
00000000
00013000
00001000
,  // measure 63
00100000
01000000
10000000
00010000
,  // measure 64
01020000
00000000
01030000
00001000
,  // measure 65
00100000
00001000
00010000
00000100
,  // measure 66
00010200
00000000
00010300
00000000
,  // measure 67
00000010
00000000
00000100
00000000
,  // measure 68
00000010
00000000
00001000
00000000
,  // measure 69
00000001
00000000
00000010
00000010
,  // measure 70
00000010
00000010
00000010
00000000
,  // measure 71
00000100
00000000
00010000
00000000
,  // measure 72
00001000
00000000
00010000
00000000
,  // measure 73
00001000
00000000
00100000
00100000
,  // measure 74
00100000
00110000
00100000
00000000
,  // measure 75
01000000
00000000
10000000
00000000
,  // measure 76
00010000
00000000
01000000
00000000
,  // measure 77
00001000
00000000
01000000
00000000
,  // measure 78
00001000
00000000
00010000
00000000
,  // measure 79
00001000
00000000
00100000
00000000
,  // measure 80
00001000
00000000
00010000
00000000
,  // measure 81
00000010
00000000
00000100
00000000
,  // measure 82
00000001
00000000
00001001
00000000
,  // measure 83
00001000
00000000
00000100
00000000
,  // measure 84
00001000
00000000
00000100
00000000
,  // measure 85
00010000
00000000
00001000
00000000
,  // measure 86
00101000
00000000
00010000
01000000
,  // measure 87
10000000
00000000
10010000
00011000
,  // measure 88
00001001
00000000
00001000
00000100
,  // measure 89
00000001
00000000
00001001
00011000
,  // measure 90
10010000
00000000
10000000
00100000
,  // measure 91
00010000
00000000
10010000
00011000
,  // measure 92
00001001
00000000
00000001
00000010
,  // measure 93
00001000
00000000
00001001
00011000
,  // measure 94
10010000
00011000
00001000
00000100
,  // measure 95
00001000
00000100
00010000
00000200
,  // measure 96
00010300
00000000
00001000
00100000
,  // measure 97
00001000
00100000
01000000
00100000
,  // measure 98
01100000
00000000
01000000
10000000
,  // measure 99
00010000
10000000
00100000
20000000
,  // measure 100
30010000
00000000
00100000
00001000
,  // measure 101
00100000
00000000
01000000
00000000
00100000
00000000
00001000
00010000
,  // measure 102
00000000
00000000
00010000
00000000
,  // measure 103
00000010
00000000
00000100
00000000
,  // measure 104
00000010
00000000
00001000
00000000
,  // measure 105
00000001
00000000
00000010
00000000
,  // measure 106
00000110
00000000
00000100
00000000
,  // measure 107
00000010
00000000
00000001
00000000
,  // measure 108
00001000
00000000
00000010
00000000
,  // measure 109
00000100
00000000
00000010
00000000
,  // measure 110
00010010
00000000
00000010
00000000
,  // measure 111
00010000
00000000
00000100
00000000
,  // measure 112
00010000
00000000
00001000
00000000
,  // measure 113
01000000
00000000
00100000
00000000
,  // measure 114
01100000
00000000
01000000
00000000
,  // measure 115
00010000
00000000
10000000
00000000
,  // measure 116
01000000
00000000
00100000
00000000
,  // measure 117
00001000
00000000
00010000
00000000
,  // measure 118
00020200
00030300
00000000
00000000
;
