#VERSION:0.83;
#TITLE:Bumble Bee;
#SUBTITLE:;
#ARTIST:Bambee;
#TITLETRANSLIT:;
#SUBTITLETRANSLIT:;
#ARTISTTRANSLIT:;
#GENRE:Bubblegum Dance;
#ORIGIN:;
#CREDIT:;
#BANNER:Bumble Bee-banner.png;
#BACKGROUND:Bumble Bee-bg.png;
#PREVIEWVID:;
#JACKET:;
#CDIMAGE:;
#DISCIMAGE:DDRTM.png;
#LYRICSPATH:;
#CDTITLE:;
#MUSIC:Bumble Bee (Long Version).mp3;
#OFFSET:-2.042000;
#SAMPLESTART:15.720000;
#SAMPLELENGTH:11.800000;
#SELECTABLE:YES;
#BPMS:0.000=138.000;
#STOPS:;
#DELAYS:;
#WARPS:;
#TIMESIGNATURES:0.000=4=4;
#TICKCOUNTS:0.000=4;
#COMBOS:0.000=1;
#SPEEDS:0.000=1.000=0.000=0;
#SCROLLS:0.000=1.000;
#FAKES:;
#LABELS:0.000=Song Start;
#BGCHANGES:;
#KEYSOUNDS:;
#ATTACKS:
;

//---------------dance-single - ----------------
#NOTEDATA:;
#CHARTNAME:;
#STEPSTYPE:dance-single;
#DESCRIPTION:;
#CHARTSTYLE:;
#DIFFICULTY:Easy;
#METER:3;
#RADARVALUES:0.178377,0.276629,0.147197,0.000000,0.000000,246.000000,217.000000,29.000000,0.000000,0.000000,0.000000,0.000000,0.000000,0.000000,0.178377,0.276629,0.147197,0.000000,0.000000,246.000000,217.000000,29.000000,0.000000,0.000000,0.000000,0.000000,0.000000,0.000000;
#CREDIT:;
#NOTES:
0000
0000
0000
0000
,
0000
0000
0000
0000
,
0000
0000
0000
0000
,
0000
0000
0000
0000
,
1001
0000
0000
0000
,
1001
0000
0000
0000
,
0000
0000
0000
0000
,
0110
0000
0000
0000
,
1000
0000
0001
0000
,
1000
1000
1000
0000
,
0001
0000
0010
0000
,
0001
0000
0010
0000
,
1001
0000
1000
0000
,
0001
0000
0100
0000
,
0010
0000
0100
0000
,
0001
0000
1000
0001
,
1001
0000
0000
0000
,
1000
0000
0001
0000
,
0100
0000
0001
0000
,
1000
1000
1000
0000
,
0001
0001
0001
0000
,
1001
0000
0000
0000
,
0110
0000
0000
0000
,
1000
0001
1000
0000
,
0010
0100
0010
0000
,
1001
0000
0000
0000
,
0110
0000
0000
0000
,
1000
0000
0100
0000
,
0010
0000
0001
0000
,
0001
0000
0100
0000
,
1000
0000
0100
0000
,
0001
0000
0010
0000
,
1001
0000
0000
0000
,
0001
0000
0100
0000
,
0001
0000
1000
0000
,
0001
0000
1000
0000
,
0010
0000
0100
0000
,
0001
0000
0010
0000
,
0001
0000
1000
0001
,
1001
0000
0100
0000
,
0110
0000
0010
0000
,
1000
0000
0100
0000
,
0010
0000
0001
0000
,
1000
1000
1000
0000
,
0001
0001
0001
0000
,
0001
0000
0010
0000
,
0100
0000
1000
0000
,
1000
1000
1000
0000
,
0001
0001
0001
0000
,
0001
0000
1000
0000
,
0010
0000
1000
0000
,
0001
0001
0001
0000
,
1000
1000
1000
0000
,
1001
0000
0000
0000
,
0110
0000
0000
0000
,
0001
1000
0001
0000
,
0100
0010
0100
0000
,
1001
0000
0000
0000
,
0110
0000
0000
0000
,
0001
0000
0010
0000
,
0100
0000
1000
0000
,
1000
0000
0010
0000
,
0001
0000
0010
0000
,
1000
0000
0100
0000
,
1001
0000
0000
0000
,
1000
0000
0010
0000
,
1000
0000
0001
0000
,
1000
0000
0001
0000
,
0100
0000
0010
0000
,
1000
0000
0100
0000
,
1000
0000
0001
1000
,
1001
0000
0010
0000
,
0110
0000
0100
0000
,
0001
0000
0010
0000
,
0100
0000
1000
0000
,
0001
0001
0001
0000
,
1000
1000
1000
0000
,
1000
0000
0100
0000
,
0010
0000
0001
0000
,
0001
0001
0001
0000
,
1000
1000
1000
0000
,
1001
0000
0000
0000
,
0110
0000
0100
0010
,
0100
0000
0000
0000
,
0010
0100
0010
0000
,
1001
0000
0001
1000
,
0001
0000
0000
0000
,
1000
0001
1000
0000
,
1001
0000
0000
0000
,
0100
0000
0001
0000
,
0100
0000
1000
0000
,
0100
0000
1000
0000
,
0010
0000
0001
0000
,
0100
0000
0010
0000
,
0100
0000
1000
0100
,
1100
0000
0001
0000
,
0011
0000
0010
0000
,
1000
0000
0001
0000
,
0010
0000
0100
0000
,
1000
1000
1000
0000
,
0100
0100
0100
0000
,
0001
0000
0000
0000
,
0000
0000
0000
0000
,
0010
0010
0010
0000
,
0100
0100
0100
0000
,
0110
0000
0000
0000
,
0010
0000
0000
0000
,
1000
0001
1001
0000
,
0001
1000
1001
0000
,
1001
0000
0000
0000
;

//---------------dance-single - ----------------
#NOTEDATA:;
#CHARTNAME:;
#STEPSTYPE:dance-single;
#DESCRIPTION:;
#CHARTSTYLE:;
#DIFFICULTY:Medium;
#METER:4;
#RADARVALUES:0.258864,0.362917,0.289318,0.517727,0.000000,357.000000,300.000000,57.000000,102.000000,0.000000,0.000000,0.000000,0.000000,0.000000,0.258864,0.362917,0.289318,0.517727,0.000000,357.000000,300.000000,57.000000,102.000000,0.000000,0.000000,0.000000,0.000000,0.000000;
#CREDIT:;
#NOTES:
0000
0000
0000
0000
,
0000
0000
0000
0000
,
0000
0000
0000
0000
,
0000
0000
0000
0000
,
2000
3200
0320
0032
,
2003
0000
3200
0020
0300
0032
0000
0003
,
0000
0000
0000
0000
,
1001
0000
0000
0000
,
1000
1000
0001
0001
,
0100
0100
0010
0010
,
1000
1000
0020
0130
,
0001
0001
2000
3001
,
1001
0000
1100
0000
,
1001
0000
0011
0000
,
1000
1000
0002
1003
,
0100
0100
0020
0130
,
1001
0000
0000
0000
,
1000
0000
0100
0000
,
0010
0000
0001
0000
,
2000
3002
2003
3000
,
0010
0010
0010
0000
,
1001
0000
0110
0000
,
1100
0000
1001
0000
,
1000
0001
0100
0000
,
0001
1000
0100
0000
,
1001
0000
0000
0000
,
0011
0000
0000
0000
,
1000
0100
1000
0100
,
1000
0100
0010
0000
,
0001
0000
0100
0000
,
1000
0000
0100
0000
,
0001
1000
0010
0100
,
2002
0000
0000
3003
,
0001
0001
0100
0100
,
1000
1000
0100
0100
,
1001
0000
0220
0330
,
1001
0000
2200
3300
,
1000
1000
0100
0100
,
0010
0010
0100
0100
,
1001
0000
0220
0330
,
0011
0000
2200
3300
,
2000
3200
0320
0032
,
2003
3200
0320
0030
,
0001
0001
0200
0300
,
0010
0010
2000
3000
,
0002
0023
0230
2300
,
3200
0320
0032
0003
,
1000
0100
2000
3000
,
0001
0010
0002
0003
,
0001
0000
0010
0000
,
0100
0000
1000
0000
,
0002
2003
3002
0003
,
0100
0100
0100
0000
,
1001
0000
0110
0000
,
0011
0000
1001
0000
,
0001
1000
0010
0000
,
1000
0001
0010
0000
,
1001
0000
0000
0000
,
1100
0000
0000
0000
,
0001
0010
0001
0010
,
0001
0010
0100
0000
,
1000
0000
0010
0000
,
0001
0000
0010
0000
,
1000
0001
0100
0010
,
2002
0000
0000
3003
,
1000
1000
0010
0010
,
0001
0001
0010
0010
,
1001
0000
0220
0330
,
1001
0000
0022
0033
,
0001
0001
0010
0010
,
0100
0100
0010
0010
,
1001
0000
0220
0330
,
1100
0000
0022
0033
,
0002
0023
0230
2300
,
3002
0023
0230
0300
,
1000
1000
0020
0030
,
0100
0100
0002
0003
,
2000
3200
0320
0032
,
0023
0230
2300
3000
,
0001
0010
0002
0003
,
1000
0100
2000
3000
,
1000
1010
0001
0011
,
1000
1010
0001
0011
,
1000
0010
0002
0003
,
0001
0010
2000
3000
,
1000
1100
0001
0101
,
1000
1100
0001
0101
,
1000
0100
0002
0003
,
0001
0100
2000
3000
,
0100
0100
0001
0001
,
1000
1000
0001
0001
,
1100
0000
0022
0033
,
1100
0000
2002
3003
,
1000
1000
0001
0001
,
0010
0010
0001
0001
,
1100
0000
0022
0033
,
0110
0000
2002
3003
,
2000
3002
0023
0230
,
2300
3002
0023
0030
,
0100
0100
0002
0003
,
0010
0010
2000
3000
,
0200
0300
0000
0000
,
0101
0000
0000
0000
,
0001
0001
0200
0300
,
0010
0010
2000
3000
,
1001
0000
1000
0000
,
0010
0000
0100
0000
,
0001
0001
1002
1003
,
1000
1000
2001
3001
,
2002
0000
0000
0000
,
3003
0000
0000
0000
;

//---------------dance-single - ----------------
#NOTEDATA:;
#CHARTNAME:;
#STEPSTYPE:dance-single;
#DESCRIPTION:;
#CHARTSTYLE:;
#DIFFICULTY:Hard;
#METER:7;
#RADARVALUES:0.439415,0.474583,0.172576,0.466970,0.177651,606.000000,572.000000,34.000000,92.000000,0.000000,0.000000,0.000000,0.000000,0.000000,0.439415,0.474583,0.172576,0.466970,0.177651,606.000000,572.000000,34.000000,92.000000,0.000000,0.000000,0.000000,0.000000,0.000000;
#CREDIT:;
#NOTES:
0000
0000
0000
0000
,
0000
0000
0000
0000
,
0000
0000
0000
0000
,
0000
0000
0000
0000
,
1000
0000
0000
0000
0001
0000
0000
0010
0000
0000
0001
0000
0000
0000
0100
0000
,
1000
0000
0000
0000
0100
0000
0000
0001
0000
0000
0010
0000
0001
0000
0000
0000
,
0010
0001
0100
1000
,
2002
0000
0000
3003
,
2000
0000
3001
0010
0001
1000
0020
0000
,
0130
0001
0010
0100
1000
0010
2000
0000
,
3001
0000
1000
0100
0000
1000
0100
0000
0020
0000
0000
0000
0031
0000
0000
0000
,
1000
0000
0001
0010
0000
0001
0010
0000
0200
0000
0000
0000
1300
0000
0000
0000
,
1001
0000
1000
0100
1000
0001
1000
0000
,
1000
0001
0100
0001
1000
0100
1000
0000
,
0010
0000
0100
0010
0000
0100
0010
0000
2000
0000
0000
0000
3100
0000
0000
0000
,
0100
0000
0010
0100
0000
0010
0100
0000
2000
0000
0000
0000
3001
0000
0000
0000
,
1001
0000
0000
0000
0000
0000
0000
1000
,
0100
0000
0010
0100
0010
0000
0001
0100
,
0010
0100
0010
1000
0000
0000
0000
0000
,
1100
0101
1100
0000
,
0011
1010
0011
0000
,
0020
0130
0200
0310
,
0001
0010
0001
0110
0000
0000
0000
0010
,
1000
0001
1000
0100
1000
0000
0010
0000
,
0010
0000
0100
0100
0000
0000
0000
0000
,
1001
0000
0010
1000
0100
0000
0010
0001
,
0100
0000
0010
0010
0000
0000
0000
1000
,
0100
0000
0100
0000
0010
0000
0100
2000
,
0000
0020
0000
0000
3030
0000
0000
0000
,
1000
0000
1000
0010
0100
0000
0001
0010
,
0100
0000
0010
0001
0000
0000
0000
0000
,
0100
1000
0100
0001
,
2002
0000
0000
3003
,
1100
0000
1000
0100
1000
0100
0010
0000
,
0011
0001
0010
0001
0010
0100
1000
0000
,
0001
0000
1000
0010
0000
1000
0010
0000
2000
0000
0000
0000
3010
0000
0000
0000
,
0100
0000
0010
1000
0000
0010
1000
0000
0200
0000
0000
0000
0310
0000
0000
0000
,
1001
0000
1000
0100
0010
0001
0010
0000
,
0001
0010
0100
1000
0100
0010
0001
0000
,
0001
0000
0100
0001
0000
0100
0001
0000
0200
0000
0000
0000
0310
0000
0000
0000
,
0100
0000
0001
0100
0000
0001
0100
0000
0020
0000
0000
0000
1030
0000
0000
0000
,
2000
3002
0203
0320
,
2030
0000
3200
0020
0300
0130
0000
0000
,
1000
0000
0100
1000
0000
0100
1000
0000
0020
0000
0000
0000
0130
0000
0000
0000
,
0001
0000
0100
0001
0000
0100
0001
0000
0020
0000
0000
0000
0130
0000
0000
0000
,
2000
3002
0203
0320
,
2030
0000
3002
0200
0003
0310
0000
0000
,
0100
0000
0010
0100
0000
0010
0100
0000
0002
0000
0000
0000
0013
0000
0000
0000
,
0100
0000
1000
0100
0000
1000
0100
0000
0020
0000
0000
0000
0031
0000
0000
0000
,
0010
0000
0100
0010
0100
0000
1000
0010
,
0100
0010
0100
0001
0000
0000
0000
0000
,
0011
1010
0011
0000
,
1100
0101
1100
0000
,
0200
0310
0020
0130
,
1000
0100
1000
0110
0000
0000
0000
0100
,
0001
1000
0001
0010
0001
0000
0100
0000
,
0100
0000
0010
0010
0000
0000
0000
0000
,
1001
0000
0100
0001
0010
0000
0100
1000
,
0010
0000
0100
0100
0000
0000
0000
0001
,
0010
0000
0010
0000
0100
0000
0010
0002
,
0000
0200
0000
0000
0303
0000
0000
0000
,
0001
0000
0001
0100
0010
0000
1000
0100
,
0010
0000
0100
1000
0000
0000
0000
0000
,
0010
0001
0010
1000
,
2002
0000
0000
3003
,
0011
0000
0001
0010
0001
0010
0100
0000
,
1100
1000
0100
1000
0100
0010
0001
0000
,
1000
0000
0001
0100
0000
0001
0100
0000
0002
0000
0000
0000
0103
0000
0000
0000
,
0010
0000
0100
0001
0000
0100
0001
0000
0020
0000
0000
0000
0130
0000
0000
0000
,
1001
0000
0001
0010
0100
1000
0100
0000
,
1000
0100
0010
0001
0010
0100
1000
0000
,
1000
0000
0010
1000
0000
0010
1000
0000
0020
0000
0000
0000
0130
0000
0000
0000
,
0010
0000
1000
0010
0000
1000
0010
0000
0200
0000
0000
0000
0301
0000
0000
0000
,
0002
2003
3020
0230
,
0302
0000
0023
0200
0030
0310
0000
0000
,
0001
0000
0010
0001
0000
0010
0001
0000
0200
0000
0000
0000
0310
0000
0000
0000
,
1000
0000
0010
1000
0000
0010
1000
0000
0200
0000
0000
0000
0310
0000
0000
0000
,
0002
2003
3020
0230
,
0302
0000
2003
0020
3000
0130
0000
0000
,
0010
0000
0100
0010
0000
0100
0010
0000
2000
0000
0000
0000
3100
0000
0000
0000
,
0010
0000
0001
0010
0000
0001
0010
0000
0200
0000
0000
0000
1300
0000
0000
0000
,
1001
0000
0100
0010
0001
1000
0100
0010
,
0001
0000
0001
0010
0100
1000
0001
0100
,
1000
0000
0001
1000
0000
0001
1000
0000
0200
0000
0000
0000
0301
0000
0000
0000
,
1000
0000
0010
1000
0000
0010
1000
0000
0002
0000
0000
0000
0103
0000
0000
0000
,
1001
0000
0010
0100
1000
0001
0010
0100
,
1000
0000
1000
0100
0010
0001
1000
0100
,
0001
0000
1000
0001
0000
1000
0001
0000
0020
0000
0000
0000
1030
0000
0000
0000
,
0001
0000
0100
0001
0000
0100
0001
0000
2000
0000
0000
0000
3010
0000
0000
0000
,
1010
0000
1000
0010
1000
0010
0100
0000
,
0101
0001
0100
0001
0100
0010
1000
0000
,
0001
0000
1000
0100
0000
1000
0100
0000
2000
0000
0000
0000
3100
0000
0000
0000
,
0010
0000
0100
1000
0000
0100
1000
0000
0020
0000
0000
0000
0130
0000
0000
0000
,
1001
0000
1000
0010
0100
0001
0100
0000
,
0001
0100
0010
1000
0010
0100
0001
0000
,
0001
0000
0010
0001
0000
0010
0001
0000
0020
0000
0000
0000
0130
0000
0000
0000
,
0010
0000
0001
0010
0000
0001
0010
0000
0200
0000
0000
0000
1300
0000
0000
0000
,
2000
3002
0023
0230
,
2300
0000
3020
0200
0030
0310
0000
0000
,
1000
0000
0010
1000
0000
0010
1000
0000
0200
0000
0000
0000
0310
0000
0000
0000
,
0001
0000
0010
0001
0000
0010
0001
0000
0200
0000
0000
0000
0310
0000
0000
0000
,
2000
0000
3002
0000
0023
0000
0230
0300
,
0010
1000
0100
0001
,
0100
0000
1000
0100
0000
1000
0100
0000
0020
0000
0000
0000
0031
0000
0000
0000
,
0100
0000
0001
1000
0000
0001
1000
0000
0200
0000
0000
0000
0310
0000
0000
0000
,
1001
0001
0010
1000
,
0010
0100
1000
0100
,
0001
0000
0010
0001
0000
0010
0001
0000
2000
0000
0000
0000
3100
0000
0000
0000
,
0010
0000
0100
0010
0000
0100
0010
0000
0200
0000
0000
0000
1300
0000
0000
0000
,
0022
0000
0000
0000
,
0033
0000
0000
0000
;

//---------------dance-single - ----------------
#NOTEDATA:;
#CHARTNAME:;
#STEPSTYPE:dance-single;
#DESCRIPTION:;
#CHARTSTYLE:;
#DIFFICULTY:Challenge;
#METER:9;
#RADARVALUES:0.638820,0.753750,0.472045,0.299470,0.472045,881.000000,788.000000,93.000000,59.000000,0.000000,0.000000,0.000000,0.000000,0.000000,0.638820,0.753750,0.472045,0.299470,0.472045,881.000000,788.000000,93.000000,59.000000,0.000000,0.000000,0.000000,0.000000,0.000000;
#CREDIT:;
#NOTES:
0000
0000
0000
0000
,
0000
0000
0000
0000
,
0000
0000
0000
0000
,
0000
0000
0000
0000
,
0001
0000
0000
1000
0100
0000
0100
0010
0000
0000
0001
0000
0000
0000
0100
0000
,
0100
0000
0010
1000
0010
0000
1000
0100
0000
0000
1000
0010
1000
0000
0001
0000
,
0100
0000
0000
0000
0010
0000
0000
0010
0000
0000
0010
0000
0000
0000
1000
0000
,
2002
0000
0000
3003
,
2001
0000
3010
0010
0010
1000
2100
0000
,
3100
1000
0010
0100
0001
0010
1200
0000
,
1300
0000
0001
0100
0000
0010
1000
0000
1020
0000
0000
0000
0130
0000
0000
0000
,
0001
0000
0001
0100
0000
0010
1000
0000
2100
0000
0000
0000
3001
0000
0000
0000
,
1001
0000
1000
0001
0100
0010
1000
0000
,
0100
0010
0100
1000
0001
0001
0001
0000
,
0010
0000
0010
0001
0000
0001
0100
0000
0120
0000
0000
0000
1030
0000
0000
0000
,
0001
0000
0001
0100
0000
0100
0010
0000
0102
0000
0000
0000
1003
0000
0000
0000
,
1001
0000
0000
0000
0000
0000
1000
0100
0010
0000
0100
0010
0001
0000
0010
0001
,
1000
0000
0000
0000
0010
0000
0000
0010
0000
0000
0010
0000
0000
0000
1000
0000
,
0100
0000
0000
0000
0010
0000
0000
0010
0100
0000
1000
0000
0001
0000
0100
0000
,
1010
0101
0110
0000
,
0101
0110
1010
0000
,
0011
0000
0000
0000
0010
0000
0000
0001
0000
0000
0100
0000
0000
0000
0010
0000
,
0010
0000
0000
0000
1000
0000
0000
1000
0100
0000
0010
0000
0100
0000
1000
0000
,
0001
0000
0000
0000
0100
0000
0100
0010
0000
0000
0010
0000
0000
0000
1000
0000
,
0001
0000
0000
0000
0100
0000
0000
0100
0010
0000
1000
0000
0000
0000
0100
0000
,
0011
0000
0000
0000
0001
0000
1000
0100
0010
0000
0100
0010
0001
0000
0010
0001
,
1000
0000
0001
1000
0100
0000
1000
0100
1000
0000
0001
0100
0001
0000
1000
0010
,
1000
0000
0001
0100
0001
0000
0100
0010
0100
0000
0001
1000
0001
0000
0010
0100
,
0010
0000
0100
1000
0001
0000
0100
0001
1000
0000
0001
1000
0010
0000
1000
0001
,
0010
0000
0001
0100
0010
0000
1000
0001
0010
0000
0001
1000
0100
0000
1000
0001
,
0100
0000
0010
1000
0001
0000
0100
0010
1000
0000
0100
0010
0001
0000
0100
0010
,
1000
0000
0001
0100
0010
0000
1000
0001
0100
0000
0010
1000
0001
0000
1000
0010
,
0100
0000
0010
0100
0010
0000
1000
0100
0010
0001
1000
0100
0010
0001
1000
0100
,
0010
0000
0011
0001
0100
0010
1000
0000
,
1100
0001
0100
0010
0100
0001
0001
0000
,
1100
0000
0010
0001
0000
0001
0100
0000
0020
0000
0000
0000
0130
0000
0000
0000
,
0001
0000
0001
0100
0000
0100
0010
0000
0102
0000
0000
0000
1003
0000
0000
0000
,
1010
0000
0010
0100
0001
1000
0100
0000
,
0010
0001
0100
0010
1000
0100
0010
0000
,
0100
0000
0100
1000
0000
0001
0100
0000
1020
0000
0000
0000
0130
0000
0000
0000
,
0001
0000
0001
0100
0000
0100
0010
0000
0201
0000
0000
0000
0301
0000
0000
0000
,
1100
0000
0000
0000
0100
0000
0000
1000
0000
0000
0010
0000
0000
0000
0100
0000
,
0100
0000
0000
0000
0001
0000
0000
0001
0010
0000
0100
0000
0010
0000
0001
0000
,
0101
0000
0001
0010
0000
0010
0100
0000
0120
0000
0000
0000
0031
0000
0000
0000
,
1000
0000
0010
0100
0000
0100
0001
0000
0120
0000
0000
0000
1030
0000
0000
0000
,
2001
0000
0000
3000
0012
0000
0000
0003
1200
0000
0000
0300
0120
0000
0000
0030
,
0012
0000
0000
0003
1010
0000
0022
0000
0000
0033
2002
0000
0000
0000
3003
0000
,
0101
0000
0001
0100
0000
0100
0010
0000
0210
0000
0000
0000
0301
0000
0000
0000
,
0010
0000
0010
0100
0000
0100
1000
0000
1020
0000
0000
0000
0130
0000
0000
0000
,
0001
0000
0000
0000
0100
0000
0000
0100
0000
0000
0100
0000
0000
0000
0001
0000
,
0010
0000
0000
0000
0100
0000
0000
0100
0010
0000
0001
0000
1000
0000
0010
0000
,
0101
1010
0110
0000
,
1010
0110
0101
0000
,
1100
0000
0000
0000
0100
0000
0000
1000
0000
0000
0010
0000
0000
0000
0100
0000
,
0100
0000
0000
0000
0001
0000
0000
0001
0010
0000
0100
0000
0010
0000
0001
0000
,
1000
0000
0000
0000
0010
0000
0010
0100
0000
0000
0100
0000
0000
0000
0001
0000
,
1000
0000
0000
0000
0010
0000
0000
0010
0100
0000
0001
0000
0000
0000
0010
0000
,
1100
0000
0000
0000
1000
0000
0001
0010
0100
0000
0010
0100
1000
0000
0100
1000
,
0001
0000
1000
0001
0010
0000
0001
0010
0001
0000
1000
0010
1000
0000
0001
0100
,
0001
0000
1000
0010
1000
0000
0010
0100
0010
0000
1000
0001
1000
0000
0100
0010
,
0100
0000
0010
0001
1000
0000
0010
1000
0001
0000
1000
0001
0100
0000
0001
1000
,
0100
0000
1000
0010
0100
0000
0001
1000
0100
0000
1000
0001
0010
0000
0001
1000
,
0010
0000
0100
0001
1000
0000
0010
0100
0001
0000
0010
0100
1000
0000
0010
0100
,
0001
0000
1000
0010
0100
0000
0001
1000
0010
0000
0100
0001
1000
0000
0001
0100
,
0010
0000
0100
0010
0100
0000
0001
0010
0100
1000
0001
0010
0100
1000
0001
0010
,
0100
0000
0101
0001
0010
0100
1000
0000
,
1010
0001
0010
0100
0010
0001
0001
0000
,
1010
0000
0100
0001
0000
0001
0010
0000
0200
0000
0000
0000
0310
0000
0000
0000
,
0001
0000
0001
0010
0000
0010
0100
0000
0012
0000
0000
0000
1003
0000
0000
0000
,
1100
0000
0100
0010
0001
1000
0010
0000
,
0100
0001
0010
0100
1000
0010
0100
0000
,
0010
0000
0010
1000
0000
0001
0010
0000
1200
0000
0000
0000
0310
0000
0000
0000
,
0001
0000
0001
0010
0000
0010
0100
0000
0021
0000
0000
0000
0031
0000
0000
0000
,
1010
0000
0000
0000
0010
0000
0000
1000
0000
0000
0100
0000
0000
0000
0010
0000
,
0010
0000
0000
0000
0001
0000
0000
0001
0100
0000
0010
0000
0100
0000
0001
0000
,
0011
0000
0001
0100
0000
0100
0010
0000
0210
0000
0000
0000
0301
0000
0000
0000
,
1000
0000
0100
0010
0000
0010
0001
0000
0210
0000
0000
0000
1300
0000
0000
0000
,
2001
0000
0000
3000
0102
0000
0000
0003
1020
0000
0000
0030
0210
0000
0000
0300
,
0102
0000
0000
0003
1100
0000
0202
0000
0000
0303
2002
0000
0000
0000
3003
0000
,
0011
0000
0001
0010
0000
0010
0100
0000
0120
0000
0000
0000
0031
0000
0000
0000
,
0100
0000
0100
0010
0000
0010
1000
0000
1200
0000
0000
0000
0310
0000
0000
0000
,
1000
0000
0001
0100
0001
0000
1000
0100
1000
0000
0010
0100
0010
0000
0010
0001
,
0010
0000
0010
1000
0010
0000
0001
1000
0001
0000
0100
0010
0100
0000
0000
0000
,
1010
0000
0010
1000
0000
1000
0001
0000
2001
0000
0000
0000
3010
0000
0000
0000
,
0001
0000
0001
1000
0000
1000
0100
0000
0102
0000
0000
0000
1003
0000
0000
0000
,
0001
0000
1000
0010
1000
0000
0001
0010
0001
0000
0100
0010
0100
0000
0100
1000
,
0100
0000
0100
0001
0100
0000
1000
0001
1000
0000
0010
0100
0010
0000
0000
0000
,
0101
0000
0100
0001
0000
0001
1000
0000
1002
0000
0000
0000
0103
0000
0000
0000
,
1000
0000
1000
0001
0000
0001
0010
0000
2010
0000
0000
0000
3001
0000
0000
0000
,
0100
0000
0101
0001
0010
0100
1000
0000
,
1010
0001
0010
0100
0010
0001
0001
0000
,
1010
0000
0100
0001
0000
0001
0010
0000
0200
0000
0000
0000
0310
0000
0000
0000
,
0001
0000
0001
0010
0000
0010
0100
0000
0012
0000
0000
0000
1003
0000
0000
0000
,
1100
0000
0100
0010
0001
1000
0010
0000
,
0100
0001
0010
0100
1000
0010
0100
0000
,
0010
0000
0010
1000
0000
0001
0010
0000
1200
0000
0000
0000
0310
0000
0000
0000
,
0001
0000
0001
0010
0000
0010
0100
0000
0021
0000
0000
0000
0031
0000
0000
0000
,
1010
0000
0000
0000
0010
0000
0000
1000
0000
0000
0100
0000
0000
0000
0010
0000
,
0010
0000
0000
0000
0001
0000
0000
0001
0100
0000
0010
0000
0100
0000
0001
0000
,
0011
0000
0001
0100
0000
0100
0010
0000
0210
0000
0000
0000
0301
0000
0000
0000
,
1000
0000
0100
0010
0000
0010
0001
0000
0210
0000
0000
0000
1300
0000
1000
0010
,
1000
0000
0001
0100
0001
0000
0010
0100
0010
0000
0001
0010
0001
0000
1000
0100
,
1000
0000
0010
0100
0010
0000
1000
0001
1000
0000
0100
0010
0100
0000
1000
0100
,
0000
1000
0100
0000
0020
0000
0000
0000
0031
0000
0000
0000
0100
0000
0001
1000
,
0000
0001
1000
0000
0200
0000
0000
0000
0310
0000
0000
0000
0110
0000
0000
0000
,
1001
0000
0001
0000
0100
0000
0100
0010
0000
0000
0010
0100
0010
0000
1000
0000
,
0010
0000
0100
0000
0001
0000
0001
0010
0000
0000
0100
0000
0010
0000
0001
0000
,
0101
0000
0010
0100
0000
0001
0010
0000
2100
0000
0000
0000
3010
0000
0000
0000
,
0010
0000
0010
1000
0000
0001
0100
0000
2010
0000
0000
0000
3001
0000
0000
0000
,
2002
0000
0000
0000
,
3003
0000
0000
0000
;

//---------------dance-double - ----------------
#NOTEDATA:;
#CHARTNAME:;
#STEPSTYPE:dance-double;
#DESCRIPTION:;
#CHARTSTYLE:;
#DIFFICULTY:Easy;
#METER:3;
#RADARVALUES:0.224783,0.276629,0.121818,0.040606,0.000000,310.000000,286.000000,24.000000,8.000000,0.000000,0.000000,0.000000,0.000000,0.000000,0.224783,0.276629,0.121818,0.040606,0.000000,310.000000,286.000000,24.000000,8.000000,0.000000,0.000000,0.000000,0.000000,0.000000;
#CREDIT:;
#NOTES:
00000000
00000000
00000000
00000000
,
00000000
00000000
00000000
00000000
,
00000000
00000000
00000000
00000000
,
00000000
00000000
00000000
00000000
,
00100000
00000000
00000000
00000000
,
00000100
00000000
00000000
00000000
,
00000001
00000000
00001000
00000000
,
00002200
00000000
00000000
00003300
,
00000010
00000000
00010000
00000000
,
00001000
01000000
00010000
00000000
,
10000000
01000000
10010000
00000000
,
00010000
01000000
10010000
00000000
,
00100000
00000000
00001000
00000000
,
00010000
00000100
00001000
00000000
,
00000010
00001000
00000110
00000000
,
00000100
00000001
00000110
00000000
,
00002002
00000000
00000000
00003003
,
00000100
00000000
00000010
00000000
,
00010000
00001000
00100000
00000000
,
00010000
00000000
01000000
00000000
,
00100000
10000000
00100000
00000000
,
01000000
00010000
10000000
00000000
,
01000000
00100000
00010000
00000000
,
01000000
00001000
01000000
00001000
,
00010000
00000100
00001000
00000000
,
00000010
00000000
00000100
00000000
,
00000001
00001000
00000001
00000000
,
00000010
00000000
00000100
00000000
,
00001000
00000010
00001000
00000000
,
00000100
00000000
00010000
00000000
,
00001000
01000000
00010000
00000000
,
00100000
01000000
10000000
00010000
,
20020000
00000000
00000000
30030000
,
01000000
00000000
00100000
00000000
,
00010000
01000000
00001000
00000000
,
00010000
00000100
00010100
00000000
,
00001000
00010000
00010010
00000000
,
00000001
00000000
00000010
00000000
,
00000100
00001000
00000010
00000000
,
00010000
00001000
01001000
00000000
,
00001000
00010000
00101000
00000000
,
00010000
00000000
01000000
00000000
,
00100000
10000000
00100000
00000000
,
01000000
00010000
10000000
00000000
,
01000000
00100000
00010000
00000000
,
01000000
00000000
00001000
00000000
,
00010000
00001000
00010000
00000000
,
00000100
00001000
00000100
00000000
,
00000010
00000001
00001000
00010000
,
00100000
00000000
01000000
00000000
,
00010000
00001000
00000100
00000000
,
00001000
00000000
00000010
00000000
,
00000100
00000001
00000100
00000000
,
00000010
00001000
00000001
00000000
,
00000010
00000100
00001000
00000000
,
00000010
00010000
00000010
00010000
,
00001000
00100000
00010000
00000000
,
01000000
00000000
00100000
00000000
,
10000000
00010000
10000000
00000000
,
01000000
00000000
00100000
00000000
,
00010000
01000000
00010000
00000000
,
00100000
00000000
00001000
00000000
,
00010000
00000010
00001000
00000000
,
00000100
00000010
00000001
00001000
,
00002002
00000000
00000000
00003003
,
00000010
00000000
00000100
00000000
,
00001000
00000010
00010000
00000000
,
00001000
00100000
00101000
00000000
,
00010000
00001000
01001000
00000000
,
10000000
00000000
01000000
00000000
,
00100000
00010000
01000000
00000000
,
00001000
00010000
00010010
00000000
,
00010000
00001000
00010100
00000000
,
00001000
00000000
00000010
00000000
,
00000100
00000001
00000100
00000000
,
00000010
00001000
00000001
00000000
,
00000010
00000100
00001000
00000000
,
00000010
00000000
00010000
00000000
,
00001000
00010000
00001000
00000000
,
00100000
00010000
00100000
00000000
,
01000000
10000000
00010000
00001000
,
00000100
00000000
00000110
00000000
,
00000100
00001000
00010000
01100000
,
10000000
00100000
10000000
00000000
,
00010000
01000000
00100000
00001000
,
00010000
00000000
00001100
00000000
,
00010000
00100000
01000000
00000000
,
00010000
01000000
00010000
00000000
,
10000000
00100000
01000000
00001000
,
01000000
00000000
00100000
00000000
,
00010000
01000000
00001000
00000000
,
00010000
00000100
00010100
00000000
,
00001000
00010000
00010010
00000000
,
00000001
00000000
00000010
00000000
,
00000100
00001000
00000010
00000000
,
00010000
00001000
01001000
00000000
,
00001000
00010000
00101000
00000000
,
00010000
00000000
01000000
00000000
,
00100000
10000000
00100000
00000000
,
01000000
00010000
10000000
00000000
,
01000000
00100000
00010000
00000000
,
01000000
00000000
00001000
00000000
,
00010000
00001000
00010000
00000000
,
00000100
00001000
00000100
00000000
,
00000010
00000001
00001000
00010000
,
00100000
00000000
01000000
00000000
,
00100000
01000000
00100000
00000000
,
00001000
00000000
00000100
00000000
,
00000001
00000010
00000100
00001000
,
00011000
00000000
00000000
00000000
;

//---------------dance-double - ----------------
#NOTEDATA:;
#CHARTNAME:;
#STEPSTYPE:dance-double;
#DESCRIPTION:;
#CHARTSTYLE:;
#DIFFICULTY:Medium;
#METER:6;
#RADARVALUES:0.374881,0.414943,0.507576,0.040606,0.000000,517.000000,417.000000,100.000000,8.000000,0.000000,0.000000,0.000000,0.000000,0.000000,0.374881,0.414943,0.507576,0.040606,0.000000,517.000000,417.000000,100.000000,8.000000,0.000000,0.000000,0.000000,0.000000,0.000000;
#CREDIT:;
#NOTES:
00000000
00000000
00000000
00000000
,
00000000
00000000
00000000
00000000
,
00000000
00000000
00000000
00000000
,
00000000
00000000
00000000
00000000
,
10000000
00010000
01000000
00000000
,
00100000
00000000
00000000
10000000
00000000
00010000
00000000
00000000
,
10000000
00000000
01000000
00000000
00100000
00000000
00010000
01000000
,
20020000
00000000
00000000
30030000
,
10000000
00000000
01000000
00000000
00100000
00010000
00100000
00000000
,
00001000
00000000
00010000
00000000
00000100
00001000
00000100
00000000
,
00000010
00000001
00000101
00000011
,
00000100
00001000
00001010
00001100
,
00000010
00000000
00000100
00000000
00000001
00001000
00000001
00000000
,
00000010
00000000
00000100
00000000
00010000
00001000
00010000
00000000
,
00001000
01000000
00110000
01010000
,
00100000
10000000
11000000
10100000
,
20020000
00000000
00000000
30030000
,
00100000
00000000
01000000
00010000
01000000
00000000
00100000
00000000
,
10000000
01000000
00100000
00010000
,
10000000
10010000
10010000
01000000
,
00100000
00011000
00001001
00000010
,
00000100
00000001
00000010
00000100
,
00001000
00000001
00000110
00000000
,
00000001
00000100
00000010
00001000
,
00000100
00010000
00000100
00000000
00011000
00000000
00000000
00000000
,
00001000
00000000
01000000
00010000
10000000
00000000
01000000
00000000
,
00100000
00010000
10000000
00000000
,
00100000
01000000
00010000
10010000
,
01100000
00000000
00010000
00000000
,
01000000
00000000
00001000
00010000
00000100
00000000
00001000
00000000
,
00000010
00000100
00000001
00000000
,
00000010
00000100
00001010
00001100
,
00002002
00000000
00000000
00003003
,
00000010
00000000
00001000
00000000
00000100
00010000
00000100
00000000
,
00010000
00000000
00001000
00000000
01000000
00010000
01000000
00000000
,
00100000
10000000
11000000
10100000
,
00010000
00100000
01010000
00110000
,
00001000
00000000
00010000
00000000
00001000
01000000
00001000
00000000
,
00010000
00000000
00000100
00000000
00001000
00000010
00001000
00000000
,
00000100
00000010
00001001
00000110
,
00000001
00001000
00000110
00001001
,
00000010
00010000
00001000
01000000
,
00010000
00000000
01000000
00100000
00000000
10000000
00000000
00000000
,
01000000
00010000
11000000
01010000
,
00100000
00010000
10100000
00110000
,
01000000
00001000
00010000
00000100
,
00001000
00000000
00000010
00000100
00000000
00000001
00000000
00000000
,
00000010
00001000
00000011
00001010
,
00000100
00001000
00000101
00001100
,
00000100
00000000
00000010
00001000
00000010
00000000
00000100
00000000
,
00000001
00000010
00000100
00001000
,
00000001
00001001
00001001
00000010
,
00000100
00011000
10010000
01000000
,
00100000
10000000
01000000
00100000
,
00010000
10000000
01100000
00000000
,
10000000
00100000
01000000
00010000
,
00100000
00001000
00100000
00000000
00011000
00000000
00000000
00000000
,
00010000
00000000
00000010
00001000
00000001
00000000
00000010
00000000
,
00000100
00001000
00000001
00000000
,
00000100
00000010
00001000
00001001
,
00000110
00000000
00001000
00000000
,
00000010
00000000
00010000
00001000
00100000
00000000
00010000
00000000
,
01000000
00100000
10000000
00000000
,
01000000
00100000
01010000
00110000
,
20020000
00000000
00000000
30030000
,
01000000
00000000
00010000
00000000
00100000
00001000
00100000
00000000
,
00001000
00000000
00010000
00000000
00000010
00001000
00000010
00000000
,
00000100
00000001
00000011
00000101
,
00001000
00000100
00001010
00001100
,
00010000
00000000
00001000
00000000
00010000
00000010
00010000
00000000
,
00001000
00000000
00100000
00000000
00010000
01000000
00010000
00000000
,
00100000
01000000
10010000
01100000
,
10000000
00010000
01100000
10010000
,
01000000
00001000
00010000
00000010
,
00001000
00000000
00000010
00000100
00000000
00000001
00000000
00000000
,
00000010
00001000
00000011
00001010
,
00000100
00001000
00000101
00001100
,
00000010
00010000
00001000
00100000
,
00010000
00000000
01000000
00100000
00000000
10000000
00000000
00000000
,
01000000
00010000
11000000
01010000
,
00100000
00010000
10100000
00110000
,
10010000
00000000
10000000
01000000
00010000
00000000
00000000
00000000
,
00011000
00000000
00001000
00000100
00000001
00000000
00000000
00000000
,
00001000
00000100
00001010
00001100
,
00000001
00000100
00000011
00000101
,
00001001
00000000
00000001
00000100
00001000
00000000
00000000
00000000
,
00011000
00000000
00010000
01000000
10000000
00000000
00000000
00000000
,
01000000
00010000
11000000
01010000
,
00100000
00011000
00001100
00000101
,
00000010
00000000
00001000
00000000
00000100
00010000
00000100
00000000
,
00010000
00000000
00001000
00000000
01000000
00010000
01000000
00000000
,
00100000
10000000
11000000
10100000
,
00010000
00100000
01010000
00110000
,
00001000
00000000
00010000
00000000
00001000
01000000
00001000
00000000
,
00010000
00000000
00000100
00000000
00001000
00000010
00001000
00000000
,
00000100
00000010
00001001
00000110
,
00000001
00001000
00000110
00001001
,
00000010
00010000
00001000
01000000
,
00010000
00000000
01000000
00100000
00000000
10000000
00000000
00000000
,
01000000
00010000
11000000
01010000
,
00100000
00010000
10100000
00110000
,
01000000
00001000
00010000
00000100
,
00000001
00001000
00000100
00000000
00001100
00000000
00000000
00000000
,
00001000
01000000
01001000
00011000
,
00010000
00000010
00010010
00011000
,
01000000
00000000
00010000
00000000
,
00100000
00010000
01010000
00000000
,
00100000
10000000
11000000
10100000
,
01000000
00100000
01010000
00110000
,
10010000
00000000
00000000
00000000
;

//---------------dance-double - ----------------
#NOTEDATA:;
#CHARTNAME:;
#STEPSTYPE:dance-double;
#DESCRIPTION:;
#CHARTSTYLE:;
#DIFFICULTY:Hard;
#METER:8;
#RADARVALUES:0.520627,0.497932,0.522803,0.065985,0.175114,718.000000,615.000000,103.000000,13.000000,0.000000,0.000000,0.000000,0.000000,0.000000,0.520627,0.497932,0.522803,0.065985,0.175114,718.000000,615.000000,103.000000,13.000000,0.000000,0.000000,0.000000,0.000000,0.000000;
#CREDIT:;
#NOTES:
// measure 0
00000000
00000000
00000000
00000000
,  // measure 1
00000000
00000000
00000000
00000000
,  // measure 2
00000000
00000000
00000000
00000000
,  // measure 3
00000000
00000000
00000000
00000000
,  // measure 4
00100000
01000000
00001000
00010000
,  // measure 5
00000010
00000000
00000100
00000001
00000000
00001000
00000000
00000000
,  // measure 6
00000100
00000000
00000000
00000000
00000010
00000000
00000000
00000001
00000000
00000000
00001000
00000000
00000000
00000000
00000010
00000000
,  // measure 7
00000202
00000000
00000000
00000303
,  // measure 8
00001000
00000000
00000100
00001000
00000010
00001000
00000100
00000000
,  // measure 9
00010000
00001000
01000000
00001000
00010000
00100000
10000000
00000000
,  // measure 10
01000000
00000000
00100000
00010000
00000000
00010000
01000000
00000000
00100000
00000000
00000000
00000000
10010000
00000000
00000000
00000000
,  // measure 11
01000000
00000000
00100000
10000000
00000000
10000000
00010000
00000000
01000000
00000000
00000000
00000000
11000000
00000000
00000000
00000000
,  // measure 12
00100000
00000000
00010000
01000000
00010000
00100000
00010000
00000000
,  // measure 13
10000000
01000000
00100000
00010000
01000000
00001000
00010000
00000000
,  // measure 14
00000010
00000000
00001000
00000100
00000000
00000100
00000010
00000000
00000001
00000000
00000000
00000000
00000011
00000000
00000000
00000000
,  // measure 15
00000001
00000000
00000100
00000010
00000000
00000010
00001000
00000000
00000100
00000000
00000000
00000000
00001100
00000000
00000000
00000000
,  // measure 16
00002002
00000000
00000000
00003003
,  // measure 17
00000001
00000000
00000100
00000010
00001000
00000000
00000100
00000000
,  // measure 18
00000001
00000100
00010000
00001000
01000000
00000000
00010000
00100000
,  // measure 19
10010000
00000000
01100000
00000000
10010000
00000000
00100000
10000000
,  // measure 20
10010000
00000000
00011000
00000000
00001001
00000000
00000010
00000100
,  // measure 21
00001001
00000110
00011000
01100000
,  // measure 22
10010000
00100000
01000000
00010000
00100000
01000000
10000000
00000000
,  // measure 23
00100000
00010000
00100000
10000000
01000000
00100000
00001000
00000000
,  // measure 24
00010000
00000100
00001000
00000010
00000100
00000001
00001000
00000000
,  // measure 25
00000100
00000000
00000010
00000001
00000100
00000000
00000010
00001000
,  // measure 26
00000010
00000100
00001001
00000110
,  // measure 27
00000100
00001000
00000010
00000001
00000010
00010000
00001000
00000000
,  // measure 28
00000100
00001000
00010000
01000000
00100000
00010000
00100000
00000000
,  // measure 29
01000000
00000000
10000000
00100000
00010000
00000000
00100000
10000000
,  // measure 30
00100000
11000000
10100000
01000000
,  // measure 31
10010000
01100000
00011000
00000110
,  // measure 32
00002002
00000000
00000000
00003003
,  // measure 33
00000010
00000000
00001000
00000100
00001000
00000010
00001000
00000000
,  // measure 34
00000100
00000010
00000001
00000100
00000010
00010000
00001000
00000000
,  // measure 35
01000000
00000000
00010000
01000000
00000000
01000000
00100000
00000000
10000000
00000000
00000000
00000000
01100000
00000000
00000000
00000000
,  // measure 36
01000000
00000000
00100000
00010000
00000000
00010000
01000000
00000000
00100000
00000000
00000000
00000000
10010000
00000000
00000000
00000000
,  // measure 37
01000000
00000000
10000000
00100000
10000000
01000000
00100000
00000000
,  // measure 38
00010000
01000000
00001000
00010000
00001000
01000000
00001000
00000000
,  // measure 39
00010000
00000000
00000100
00001000
00000000
00001000
00000001
00000000
00000010
00000000
00000000
00000000
00000110
00000000
00000000
00000000
,  // measure 40
00000001
00000000
00000100
00000010
00000000
00000010
00001000
00000000
00000100
00000000
00000000
00000000
00001001
00000000
00000000
00000000
,  // measure 41
00000100
00000110
00011000
00010100
,  // measure 42
01001000
00000000
00010000
01000000
00000000
00200000
00000000
00000000
,  // measure 43
10300000
00000000
01000000
00100000
00000000
00100000
00010000
00000000
01000000
00000000
00000000
00000000
10010000
00000000
00000000
00000000
,  // measure 44
00010000
00000000
01000000
00001000
00000000
00001000
00010000
00000000
00000100
00000000
00000000
00000000
00010010
00000000
00000000
00000000
,  // measure 45
00001000
01001000
00011000
00000110
,  // measure 46
00001001
00000000
00000010
00000100
00000000
00002000
00000000
00000000
,  // measure 47
00003001
00000000
00000100
00000010
00000000
00000010
00001000
00000000
00000100
00000000
00000000
00000000
00001010
00000000
00000000
00000000
,  // measure 48
00010000
00000000
00001000
01000000
00000000
01000000
00010000
00000000
00100000
00000000
00000000
00000000
01010000
00000000
00000000
00000000
,  // measure 49
10000000
00000000
00100000
01000000
00010000
00000000
00100000
00000000
,  // measure 50
10000000
00100000
00001000
00010000
00000010
00000000
00001000
00000100
,  // measure 51
00001001
00000000
00000110
00000000
00001001
00000000
00000100
00000001
,  // measure 52
00001001
00000000
00011000
00000000
10010000
00000000
01000000
00100000
,  // measure 53
10010000
01100000
00011000
00000110
,  // measure 54
00001001
00000100
00000010
00001000
00000100
00000010
00000001
00000000
,  // measure 55
00000100
00001000
00000100
00000001
00000010
00000100
00010000
00000000
,  // measure 56
00001000
00100000
00010000
01000000
00100000
10000000
00010000
00000000
,  // measure 57
00100000
00000000
01000000
10000000
00100000
00000000
01000000
00010000
,  // measure 58
01000000
00100000
10010000
01100000
,  // measure 59
00100000
00010000
01000000
10000000
01000000
00001000
00010000
00000000
,  // measure 60
00100000
00010000
00001000
00000010
00000100
00001000
00000100
00000000
,  // measure 61
00000010
00000000
00000001
00000100
00001000
00000000
00000100
00000001
,  // measure 62
00000100
00000011
00000101
00000010
,  // measure 63
00001001
00000110
00011000
01100000
,  // measure 64
20020000
00000000
00000000
30030000
,  // measure 65
01000000
00000000
00010000
00100000
00010000
01000000
00010000
00000000
,  // measure 66
00100000
01000000
10000000
00100000
01000000
00001000
00010000
00000000
,  // measure 67
00000010
00000000
00001000
00000010
00000000
00000010
00000100
00000000
00000001
00000000
00000000
00000000
00000110
00000000
00000000
00000000
,  // measure 68
00000010
00000000
00000100
00001000
00000000
00001000
00000010
00000000
00000100
00000000
00000000
00000000
00001001
00000000
00000000
00000000
,  // measure 69
00000010
00000000
00000001
00000100
00000001
00000010
00000100
00000000
,  // measure 70
00001000
00000010
00010000
00001000
00010000
00000010
00010000
00000000
,  // measure 71
00001000
00000000
00100000
00010000
00000000
00010000
10000000
00000000
01000000
00000000
00000000
00000000
01100000
00000000
00000000
00000000
,  // measure 72
10000000
00000000
00100000
01000000
00000000
01000000
00010000
00000000
00100000
00000000
00000000
00000000
10010000
00000000
00000000
00000000
,  // measure 73
00100000
01100000
00011000
00101000
,  // measure 74
00010010
00000000
00001000
00000010
00000000
00000200
00000000
00000000
,  // measure 75
00000301
00000000
00000010
00000100
00000000
00000100
00001000
00000000
00000010
00000000
00000000
00000000
00001001
00000000
00000000
00000000
,  // measure 76
00001000
00000000
00000010
00010000
00000000
00010000
00001000
00000000
00100000
00000000
00000000
00000000
01001000
00000000
00000000
00000000
,  // measure 77
00010000
00010010
00011000
01100000
,  // measure 78
10010000
00000000
01000000
00100000
00000000
00020000
00000000
00000000
,  // measure 79
10030000
00000000
00100000
01000000
00000000
01000000
00010000
00000000
00100000
00000000
00000000
00000000
01010000
00000000
00000000
00000000
,  // measure 80
00001000
00000000
00010000
00000010
00000000
00000010
00001000
00000000
00000100
00000000
00000000
00000000
00001010
00000000
00000000
00000000
,  // measure 81
00000100
00000010
00001000
00010000
00100000
00010000
00001000
00000000
,  // measure 82
00011000
00000000
00100000
01000000
00100000
00010000
00000010
00000000
,  // measure 83
00000001
00000000
00000100
00000010
00000000
00000010
00001000
00000000
00000100
00000000
00000000
00000000
00001010
00000000
00000000
00000000
,  // measure 84
00010000
00000000
00001000
01000000
00000000
01000000
00010000
00000000
00100000
00000000
00000000
00000000
01010000
00000000
00000000
00000000
,  // measure 85
00100000
01000000
00010000
00001000
00000100
00001000
00010000
00000000
,  // measure 86
00011000
00000000
00000100
00000010
00000100
00001000
01000000
00000000
,  // measure 87
10000000
00000000
00100000
01000000
00000000
01000000
00010000
00000000
00100000
00000000
00000000
00000000
01010000
00000000
00000000
00000000
,  // measure 88
00001000
00000000
00010000
00000010
00000000
00000010
00001000
00000000
00000100
00000000
00000000
00000000
00001010
00000000
00000000
00000000
,  // measure 89
00000010
00000000
00001000
00000100
00001000
00000010
00001000
00000000
,  // measure 90
00000100
00000010
00000001
00000100
00000010
00010000
00001000
00000000
,  // measure 91
01000000
00000000
00010000
01000000
00000000
01000000
00100000
00000000
10000000
00000000
00000000
00000000
01100000
00000000
00000000
00000000
,  // measure 92
01000000
00000000
00100000
00010000
00000000
00010000
01000000
00000000
00100000
00000000
00000000
00000000
10010000
00000000
00000000
00000000
,  // measure 93
01000000
00000000
10000000
00100000
10000000
01000000
00100000
00000000
,  // measure 94
00010000
01000000
00001000
00010000
00001000
01000000
00001000
00000000
,  // measure 95
00010000
00000000
00000100
00001000
00000000
00001000
00000001
00000000
00000010
00000000
00000000
00000000
00000110
00000000
00000000
00000000
,  // measure 96
00000001
00000000
00000100
00000010
00000000
00000010
00001000
00000000
00000100
00000000
00000000
00000000
00001001
00000000
00000000
00000000
,  // measure 97
00000100
00000110
00011000
00010100
,  // measure 98
01001000
00000000
00010000
01000000
00000000
00200000
00000000
00000000
,  // measure 99
10300000
00000000
01000000
00100000
00000000
00100000
00010000
00000000
01000000
00000000
00000000
00000000
10010000
00000000
00000000
00000000
,  // measure 100
00010000
00000000
01000000
00001000
00000000
00001000
00010000
00000000
00000100
00000000
00000000
00000000
00010010
00000000
00000000
00000000
,  // measure 101
00001000
01001000
00011000
00000110
,  // measure 102
00001001
00000000
00000010
00000000
00000001
00000010
00000100
00000000
,  // measure 103
00001000
00000000
00000010
00010000
00000000
00010000
00001000
00000000
00100000
00000000
00000000
00000000
01010000
00000000
00000000
00000000
,  // measure 104
00100000
00000000
10000000
01000000
00000000
01000000
10000000
00000000
00010000
00000000
00000000
00000000
10100000
00000000
00000000
00000000
,  // measure 105
00100000
00000000
00010000
00000000
00001000
00100000
00001000
00000000
,  // measure 106
00010000
00000000
00000010
00000000
00001000
00000001
00000010
00000000
,  // measure 107
00000100
00000000
00001000
00000010
00000000
00000010
00000100
00000000
00000001
00000000
00000000
00000000
00000011
00000000
00000000
00000000
,  // measure 108
00000100
00000000
00001000
00000010
00000000
00000010
00010000
00000000
00001000
00000000
00000000
00000000
00101000
00000000
00000000
00000000
,  // measure 109
01100000
00000000
00000000
00000000
;

//---------------dance-double - ----------------
#NOTEDATA:;
#CHARTNAME:;
#STEPSTYPE:dance-double;
#DESCRIPTION:;
#CHARTSTYLE:;
#DIFFICULTY:Challenge;
#METER:9;
#RADARVALUES:0.635920,0.746897,0.335000,0.121818,0.421288,877.000000,811.000000,66.000000,24.000000,4.000000,16.000000,0.000000,0.000000,0.000000,0.635920,0.746897,0.335000,0.121818,0.421288,877.000000,811.000000,66.000000,24.000000,4.000000,16.000000,0.000000,0.000000,0.000000;
#CREDIT:;
#NOTES:
// measure 0
00000000
00000000
00000000
00000000
,  // measure 1
00000000
00000000
00000000
00000000
,  // measure 2
00000000
00000000
00000000
00000000
,  // measure 3
00000000
00000000
00000000
00000000
,  // measure 4
10000000
00000000
00000000
00000000
00100000
00000000
00000000
01000000
00000000
00000000
00000100
00000000
00000000
00000000
00001000
00000000
,  // measure 5
00000010
00000000
00000000
00000000
00000100
00000000
00000000
00000001
00000000
00000000
00000010
00000000
00000100
00000000
00001000
00000000
,  // measure 6
00000001
00000000
00000000
00000000
00000100
00000000
00000000
00000010
00000000
00000000
00100000
00000000
00000000
00000000
00010000
00000000
,  // measure 7
01000000
00000000
00000000
00000000
00100000
00000000
00000000
10000000
00000000
00000000
01000000
00000000
00100000
00000000
00010000
00000000
,  // measure 8
10000000
00000000
00100000
00000000
01000000
00000000
00001000
01000000
00000000
00000000
00010000
00000000
01000000
00000000
00100000
00000000
,  // measure 9
10000000
00000000
01000000
00000000
00100000
00000000
00010000
01000000
00000000
00000000
00001000
00000000
00010000
00000000
00000010
00000000
,  // measure 10
00001000
00000000
00000100
00000010
00000000
00000010
00000001
00000000
00000100
00000000
00001000
00000000
00000100
00000000
00000001
00000000
,  // measure 11
00000010
00000000
00000100
00010000
00000000
00010000
00001000
00000000
01000000
00000000
10000000
00000000
01000000
00000000
00010000
00000000
,  // measure 12
00100000
00000000
00010000
00000000
01000000
00000000
00001000
00010000
00000000
00000000
00100000
00000000
10000000
00000000
00100000
00000000
,  // measure 13
00010000
00000000
00001000
00000000
00100000
00000000
00001000
00010000
00000000
00000000
00000100
00000000
00000010
00000000
00000001
00000000
,  // measure 14
00000010
00000000
00000100
00001000
00000000
00001000
00000001
00000000
00000100
00000000
00000010
00000000
00010000
00000000
01000000
00000000
,  // measure 15
00010000
00000000
00000100
00010000
00000000
00010000
00001000
00000000
00010000
00000000
00100000
00000000
10000000
00000000
01000000
00000000
,  // measure 16
20020000
00000000
00000000
30030000
,  // measure 17
10000000
00100000
01000000
00001000
00000100
00001000
01000000
00000000
,  // measure 18
00001000
00010000
00000100
00001000
00001001
00000000
00000010
00000100
,  // measure 19
00001001
00000000
00000110
00000000
00001001
00000000
00000100
00000010
,  // measure 20
00000101
00000000
00011000
00000000
11000000
00000000
00100000
10000000
,  // measure 21
02000000
00000000
00000000
00000000
00200000
00000000
00000000
00000000
00010000
03300000
00000000
00000000
01010000
00000000
00000000
00000000
,  // measure 22
10100000
01000000
00100000
00010000
00000000
10000000
00100000
00010000
,  // measure 23
00001000
01000000
00001000
00000100
00000010
00001000
00000200
00000000
,  // measure 24
00000020
00000000
00000000
00000000
00000001
00000000
00000000
00000000
00001000
00000330
00000000
00000000
00000001
00000000
00000000
00000000
,  // measure 25
00000100
00000000
00000010
00001000
00000010
00000000
00000100
00000001
00000100
00000000
00001000
00000100
00001000
00000000
00010000
00001000
,  // measure 26
00010000
00000000
00001000
01000000
00001000
00000000
01000000
00100000
01000000
00000000
00010000
01000000
00010000
00000000
10000000
00100000
,  // measure 27
10000000
00000000
01000000
10000000
01000000
00000000
00100000
00010000
00100000
00000000
00001000
00100000
00001000
00000000
00010000
00000100
,  // measure 28
00010000
00000000
00001000
01000000
00001000
00000000
00010000
00000010
00010000
00000000
00000010
00001000
00000010
00000000
00000100
00000001
,  // measure 29
00000100
00000000
00000010
00001000
00000010
00000000
00000100
00000010
00000100
00000000
00000001
00001000
00000001
00000000
00000100
00010000
,  // measure 30
00000100
00000000
01000000
00010000
01000000
00000000
00100000
10000000
00100000
00000000
01000000
00001000
01000000
00000000
00001000
00010000
,  // measure 31
00001000
00000000
00000010
00000100
00000010
00000000
00001000
00000010
00001000
00000000
00010000
00100000
00010000
00000000
00100000
01000000
,  // measure 32
20020000
00000000
00000000
00000000
00000000
00000000
30030000
M00M0000
,  // measure 33
00010000
00000000
01000000
00000000
00100000
00000000
10000000
01000000
00000000
00000000
00100000
00000000
00000010
00000000
00001000
00000000
,  // measure 34
00000100
00000000
00000010
00000000
00000001
00000000
00000100
00000010
00000000
00000000
00001000
00000000
00000001
00000000
00000010
00000000
,  // measure 35
00000100
00000000
00001000
00000010
00000000
00000010
00010000
00000000
00001000
00000000
01000000
00000000
10000000
00000000
01000000
00000000
,  // measure 36
00010000
00000000
00100000
01000000
00000000
01000000
00010000
00000000
00001000
00000000
01000000
00000000
00001000
00000000
00000010
00000000
,  // measure 37
00000001
00000000
00000010
00000000
00000100
00000000
00001000
00000001
00000000
00000000
00000100
00000000
00000010
00000000
00001000
00000000
,  // measure 38
00000100
00000000
00100000
00000000
00010000
00000000
01000000
00100000
00000000
00000000
10000000
00000000
01000000
00000000
00100000
00000000
,  // measure 39
00010000
00000000
01000000
00100000
00000000
00100000
10000000
00000000
01000000
00000000
00010000
00000000
00000100
00000000
00001000
00000000
,  // measure 40
00000010
00000000
00000100
00000001
00000000
00000001
00001000
00000000
00000100
00000000
00000010
00000000
00000001
00000000
00000000
00000000
,  // measure 41
00000200
00000000
00000000
00000000
00000020
00000000
00000000
00000000
00001000
00000000
00000000
00000000
00000001
00000330
00000000
00000000
,  // measure 42
00000100
00000000
00000010
00001010
00000000
01010000
00000000
00100000
,  // measure 43
10000000
00000000
01000000
00100000
00000000
00010000
01000000
00000000
10010000
00000000
00000000
00000000
00011000
00000000
00000000
00000000
,  // measure 44
00100000
00000000
01000000
10000000
00000000
00100000
01000000
00000000
01010000
00000000
00000000
00000000
00001100
00000000
00000000
00000000
,  // measure 45
00020000
00000000
00000000
00000000
00002000
00000000
00000000
00000000
00000010
00000000
00000000
00000000
00000100
00033000
00000000
00000000
,  // measure 46
00001000
00000000
00001000
00001001
00000000
00001100
00000000
00000001
,  // measure 47
00000100
00000000
00000010
00001000
00000000
00000100
00010000
00000000
00001100
00000000
00000000
00000000
01010000
00000000
00000000
00000000
,  // measure 48
00100000
00000000
10000000
01000000
00000000
00100000
00010000
00000000
01100000
00000000
00000000
00000000
00011000
00000000
00000000
00000000
,  // measure 49
00001000
00000100
00000010
00010000
00100000
00010000
00000010
00000000
,  // measure 50
00010000
00001000
00100000
00010000
10010000
00000000
01000000
00100000
,  // measure 51
10010000
00000000
01100000
00000000
10010000
00000000
00100000
01000000
,  // measure 52
10100000
00000000
00011000
00000000
00000011
00000000
00000100
00000001
,  // measure 53
00000020
00000000
00000000
00000000
00000200
00000000
00000000
00000000
00001000
00000330
00000000
00000000
00001010
00000000
00000000
00000000
,  // measure 54
00000101
00000010
00000100
00001000
00000000
00000001
00000100
00001000
,  // measure 55
00010000
00000010
00010000
00100000
01000000
00010000
00200000
00000000
,  // measure 56
02000000
00000000
00000000
00000000
10000000
00000000
00000000
00000000
00010000
03300000
00000000
00000000
10000000
00000000
00000000
00000000
,  // measure 57
00100000
00000000
01000000
00010000
01000000
00000000
00100000
10000000
00100000
00000000
00010000
00100000
00010000
00000000
00001000
00010000
,  // measure 58
00001000
00000000
00010000
00000010
00010000
00000000
00000010
00000100
00000010
00000000
00001000
00000010
00001000
00000000
00000001
00000100
,  // measure 59
00000001
00000000
00000010
00000001
00000010
00000000
00000100
00001000
00000100
00000000
00010000
00000100
00010000
00000000
00001000
00100000
,  // measure 60
00001000
00000000
00010000
00000010
00010000
00000000
00001000
01000000
00001000
00000000
01000000
00010000
01000000
00000000
00100000
10000000
,  // measure 61
00100000
00000000
01000000
00010000
01000000
00000000
00100000
01000000
00100000
00000000
10000000
00010000
10000000
00000000
00100000
00001000
,  // measure 62
00100000
00000000
00000010
00001000
00000010
00000000
00000100
00000001
00000100
00000000
00000010
00010000
00000010
00000000
00010000
00001000
,  // measure 63
00010000
00000000
01000000
00100000
01000000
00000000
00010000
01000000
00010000
00000000
00001000
00000100
00001000
00000000
00000100
00000010
,  // measure 64
00002002
00000000
00000000
00000000
00000000
00000000
00003003
0000M00M
,  // measure 65
00001000
00000000
00000010
00000000
00000100
00000000
00000001
00000010
00000000
00000000
00000100
00000000
01000000
00000000
00010000
00000000
,  // measure 66
00100000
00000000
01000000
00000000
10000000
00000000
00100000
01000000
00000000
00000000
00010000
00000000
10000000
00000000
01000000
00000000
,  // measure 67
00100000
00000000
00010000
01000000
00000000
01000000
00001000
00000000
00010000
00000000
00000010
00000000
00000001
00000000
00000010
00000000
,  // measure 68
00001000
00000000
00000100
00000010
00000000
00000010
00001000
00000000
00010000
00000000
00000010
00000000
00010000
00000000
01000000
00000000
,  // measure 69
10000000
00000000
01000000
00000000
00100000
00000000
00010000
10000000
00000000
00000000
00100000
00000000
01000000
00000000
00010000
00000000
,  // measure 70
00100000
00000000
00000100
00000000
00001000
00000000
00000010
00000100
00000000
00000000
00000001
00000000
00000010
00000000
00000100
00000000
,  // measure 71
00001000
00000000
00000010
00000100
00000000
00000100
00000001
00000000
00000010
00000000
00001000
00000000
00100000
00000000
00010000
00000000
,  // measure 72
01000000
00000000
00100000
10000000
00000000
10000000
00010000
00000000
00100000
00000000
01000000
00000000
10000000
00000000
00000000
00000000
,  // measure 73
00200000
00000000
00000000
00000000
02000000
00000000
00000000
00000000
00010000
00000000
00000000
00000000
10000000
03300000
00000000
00000000
,  // measure 74
00100000
00000000
01000000
01010000
00000000
00001010
00000000
00000100
,  // measure 75
00000001
00000000
00000010
00000100
00000000
00001000
00000010
00000000
00001001
00000000
00000000
00000000
00011000
00000000
00000000
00000000
,  // measure 76
00000100
00000000
00000010
00000001
00000000
00000100
00000010
00000000
00001010
00000000
00000000
00000000
00110000
00000000
00000000
00000000
,  // measure 77
00002000
00000000
00000000
00000000
00020000
00000000
00000000
00000000
01000000
00000000
00000000
00000000
00100000
00033000
00000000
00000000
,  // measure 78
00010000
00000000
00010000
10010000
00000000
00110000
00000000
10000000
,  // measure 79
00100000
00000000
01000000
00010000
00000000
00100000
00001000
00000000
00110000
00000000
00000000
00000000
00001010
00000000
00000000
00000000
,  // measure 80
00000100
00000000
00000001
00000010
00000000
00000100
00001000
00000000
00000110
00000000
00000000
00000000
00011000
00000000
00000000
00000000
,  // measure 81
00010000
01000000
00010000
00000000
10000000
00010000
10000000
00000000
00010000
01000000
00010000
00000000
00010000
00001000
00010000
00000000
,  // measure 82
00000001
00001000
00000001
00000000
00001000
00000100
00001000
00000000
00001000
00010000
00001000
00000000
00010000
10000000
00010000
00000000
,  // measure 83
10000000
00000000
00010000
00100000
00000000
00010000
00001000
00000000
00001100
00000000
00000000
00000000
00000110
00000000
00000000
00000000
,  // measure 84
00000001
00000000
00000010
00001000
00000000
00000001
00000100
00000000
00001001
00000000
00000000
00000000
00011000
00000000
00000000
00000000
,  // measure 85
00001000
00000010
00001000
00000000
00000001
00001000
00000001
00000000
00001000
00000010
00001000
00000000
00001000
00010000
00001000
00000000
,  // measure 86
10000000
00010000
10000000
00000000
00010000
00100000
00010000
00000000
00010000
00001000
00010000
00000000
00001000
00000001
00001000
00000000
,  // measure 87
00000001
00000000
00001000
00000100
00000000
00001000
00010000
00000000
00110000
00000000
00000000
00000000
01100000
00000000
00000000
00000000
,  // measure 88
10000000
00000000
01000000
00010000
00000000
10000000
00100000
00000000
10010000
00000000
00000000
00000000
00011000
00000000
00000000
00000000
,  // measure 89
00010000
00000000
01000000
00000000
00100000
00000000
10000000
01000000
00000000
00000000
00100000
00000000
00000010
00000000
00001000
00000000
,  // measure 90
00000100
00000000
00000010
00000000
00000001
00000000
00000100
00000010
00000000
00000000
00001000
00000000
00000001
00000000
00000010
00000000
,  // measure 91
00000100
00000000
00001000
00000010
00000000
00000010
00010000
00000000
00001000
00000000
01000000
00000000
10000000
00000000
01000000
00000000
,  // measure 92
00010000
00000000
00100000
01000000
00000000
01000000
00010000
00000000
00001000
00000000
01000000
00000000
00001000
00000000
00000010
00000000
,  // measure 93
00000001
00000000
00000010
00000000
00000100
00000000
00001000
00000001
00000000
00000000
00000100
00000000
00000010
00000000
00001000
00000000
,  // measure 94
00000100
00000000
00100000
00000000
00010000
00000000
01000000
00100000
00000000
00000000
10000000
00000000
01000000
00000000
00100000
00000000
,  // measure 95
00010000
00000000
01000000
00100000
00000000
00100000
10000000
00000000
01000000
00000000
00010000
00000000
00000100
00000000
00001000
00000000
,  // measure 96
00000010
00000000
00000100
00000001
00000000
00000001
00001000
00000000
00000100
00000000
00000010
00000000
00000001
00000000
00000000
00000000
,  // measure 97
00000200
00000000
00000000
00000000
00000020
00000000
00000000
00000000
00001000
00000000
00000000
00000000
00000001
00000330
00000000
00000000
,  // measure 98
00000100
00000000
00000010
00001010
00000000
01010000
00000000
00100000
,  // measure 99
10000000
00000000
01000000
00100000
00000000
00010000
01000000
00000000
10010000
00000000
00000000
00000000
00011000
00000000
00000000
00000000
,  // measure 100
00100000
00000000
01000000
10000000
00000000
00100000
01000000
00000000
01010000
00000000
00000000
00000000
00001100
00000000
00000000
00000000
,  // measure 101
00001000
00100000
01000000
10000000
01000000
00100000
00010000
00000000
,  // measure 102
10000000
00100000
00000100
00000010
00010000
00001000
00000010
00000000
,  // measure 103
00000001
00000000
00000010
00000100
00000000
00001000
00000010
00000000
00001100
00000000
00000000
00000000
01010000
00000000
00000000
00000000
,  // measure 104
00001000
00000000
00010000
00000010
00000000
00001000
00000010
00000000
00000011
00000000
00000000
00000000
00001100
00000000
00000000
00000000
,  // measure 105
00000001
00000010
00000100
00001000
00000010
00010000
00100000
00000000
,  // measure 106
01000000
00010000
00100000
01000000
10000000
00100000
00010000
00000000
,  // measure 107
00100000
00000000
10000000
00010000
00000000
00100000
01000000
00000000
11000000
00000000
00000000
00000000
00110000
00000000
00000000
00000000
,  // measure 108
01000000
00010000
01000000
00100000
01000000
00010000
00100000
00001000
00010000
00001000
00010000
00000010
00001000
00000010
00000100
00000001
,  // measure 109
00000101
00000000
00000000
00000000
;

//---------------dance-single - ----------------
#NOTEDATA:;
#CHARTNAME:;
#STEPSTYPE:dance-single;
#DESCRIPTION:;
#CHARTSTYLE:;
#DIFFICULTY:Beginner;
#METER:1;
#RADARVALUES:0.084838,0.138314,0.045682,0.000000,0.000000,117.000000,108.000000,9.000000,0.000000,0.000000,0.000000,0.000000,0.000000,0.000000,0.084838,0.138314,0.045682,0.000000,0.000000,117.000000,108.000000,9.000000,0.000000,0.000000,0.000000,0.000000,0.000000,0.000000;
#CREDIT:;
#NOTES:
0000
0000
0000
0000
,
0000
0000
0000
0000
,
0000
0000
0000
0000
,
0000
0000
0000
0000
,
1000
0000
0000
0000
,
0001
0000
0000
0000
,
0010
0000
0000
0000
,
0001
0000
0000
0000
,
1000
0000
0000
0000
,
0001
0000
0000
0000
,
0100
0000
0000
0000
,
0010
0000
0000
0000
,
1000
0000
0000
0000
,
0010
0000
0000
0000
,
0100
0000
0000
0000
,
0001
0000
0000
0000
,
1001
0000
0000
0000
,
0100
0000
0000
0000
,
0010
0000
0000
0000
,
1000
0000
0000
0000
,
0001
0000
0000
0000
,
0010
0000
0010
0000
,
0000
0000
0000
0000
,
0100
0000
0100
0000
,
0000
0000
0000
0000
,
0001
0000
0000
0000
,
1000
0000
0000
0000
,
0100
0000
0000
0000
,
1000
0000
0000
0000
,
0010
0000
0000
0000
,
0001
0000
0000
0000
,
0010
0000
0000
0000
,
1001
0000
0000
0000
,
0100
0000
0000
0000
,
0010
0000
0000
0000
,
1000
0000
0000
0000
,
0001
0000
0000
0000
,
0010
0000
0000
0000
,
0100
0000
0000
0000
,
0010
0000
0000
0000
,
0001
0000
0000
0000
,
1000
0000
0000
0000
,
0100
0000
0000
0000
,
0010
0000
0000
0000
,
0001
0000
0000
0000
,
0001
0000
0000
0000
,
0010
0000
0000
0000
,
0100
0000
0000
0000
,
1000
0000
0000
0000
,
0100
0000
0000
0000
,
0010
0000
0000
0000
,
1000
0000
0000
0000
,
0001
0000
0000
0000
,
0010
0000
0010
0000
,
0000
0000
0000
0000
,
0100
0000
0100
0000
,
0000
0000
0000
0000
,
0001
0000
0000
0000
,
1000
0000
0000
0000
,
0100
0000
0000
0000
,
1000
0000
0000
0000
,
0010
0000
0000
0000
,
0001
0000
0000
0000
,
0010
0000
0000
0000
,
1001
0000
0000
0000
,
0100
0000
0000
0000
,
0010
0000
0000
0000
,
1000
0000
0000
0000
,
0001
0000
0000
0000
,
0010
0000
0000
0000
,
0100
0000
0000
0000
,
0010
0000
0000
0000
,
0001
0000
0000
0000
,
1000
0000
0000
0000
,
0100
0000
0000
0000
,
0010
0000
0000
0000
,
0001
0000
0000
0000
,
0001
0000
0000
0000
,
0010
0000
0000
0000
,
0100
0000
0000
0000
,
1000
0000
0000
0000
,
0100
0000
0000
0000
,
0100
0000
0000
0000
,
1001
0000
0000
0000
,
1001
0000
0000
0000
,
0010
0000
0000
0000
,
0010
0000
0000
0000
,
1001
0000
0000
0000
,
1001
0000
0000
0000
,
1000
0000
0000
0000
,
0100
0000
0000
0000
,
0001
0000
0000
0000
,
0010
0000
0000
0000
,
1000
0000
0000
0000
,
0010
0000
0000
0000
,
0001
0000
0000
0000
,
0100
0000
0000
0000
,
1000
0000
0000
0000
,
0001
0000
0000
0000
,
0010
0000
0000
0000
,
0100
0000
0000
0000
,
0110
0000
0000
0000
,
0010
0000
0000
0000
,
0100
0000
0100
0000
,
0001
0000
0001
0000
,
0010
0000
0000
0000
,
0100
0000
0000
0000
,
1000
0000
0000
0000
,
0001
0000
0000
0000
,
1001
0000
0000
0000
;
