#TITLE:BUMBLE BEE;
#SUBTITLE:(Long Version);
#ARTIST:Bambee;
#TITLETRANSLIT:;
#SUBTITLETRANSLIT:;
#ARTISTTRANSLIT:;
#GENRE:;
#CREDIT:;
#BANNER:BUMBLE BEE.png;
#BACKGROUND:BUMBLE BEE-bg.png;
#LYRICSPATH:;
#CDTITLE:DDRTM.PNG;
#MUSIC:Bumble Bee (Long Version).mp3;
#OFFSET:-1.527000;
#SAMPLESTART:15.299999;
#SAMPLELENGTH:15.000000;
#SELECTABLE:YES;
#DISPLAYBPM:138.000000;
#BPMS:0.000000=137.970001
;
#STOPS:
;
#BGCHANGES:;
#KEYSOUNDS:;
#ATTACKS:;

//---------------dance-single - ----------------
#NOTES:
     dance-single:
     :
     Easy:
     4:
     0.326299,0.502500,0.385757,0.010152,0.000000,450.000000,374.000000,76.000000,2.000000,0.000000,0.000000,0.326299,0.502500,0.385757,0.010152,0.000000,450.000000,374.000000,76.000000,2.000000,0.000000,0.000000:
0000
0000
0000
0000
,
0000
0000
0000
0000
,
0000
0000
0000
0000
,
0000
0000
0000
0000
,
0000
1000
0000
0000
,
0000
0001
0000
0000
,
0000
0100
0000
0000
,
0000
1001
0000
0000
,
0000
1000
1000
0001
,
0001
0010
0001
0100
,
1000
0001
0001
1000
,
0001
1000
1000
0001
,
1000
0100
0100
0010
,
0010
0100
1000
0010
,
0001
1000
1000
0001
,
1000
0001
0001
1000
,
0001
1001
0000
0000
,
0000
0010
0000
0010
,
0000
0001
1000
0100
,
0000
1000
1000
1000
,
0000
0001
0001
0001
,
0000
0010
0000
0100
,
0000
0001
1000
0001
,
0000
0001
0001
0010
,
0001
0010
0001
0100
,
0000
0001
0001
1000
,
1000
0001
0001
1000
,
1000
0010
0010
0010
,
0010
0100
0100
0100
,
0100
1000
1000
0001
,
0001
1000
1000
0001
,
0001
0100
0100
0010
,
0010
1001
0000
0000
,
0000
1000
1000
0001
,
0001
0010
0001
0100
,
1000
0001
0001
1000
,
0001
1000
1000
0001
,
1000
0100
0100
0010
,
0010
0100
1000
0010
,
0001
0100
0100
0010
,
0100
0010
0010
0100
,
0010
0001
0000
0100
,
0000
1000
0000
0010
,
0000
0001
0001
0001
,
0100
0001
0001
0001
,
0010
0001
0000
1000
,
0000
0010
0000
1000
,
0000
1000
1000
1000
,
0100
1000
1000
1000
,
0010
1001
0000
1000
,
0100
0001
0100
1000
,
0000
0010
0010
0010
,
0000
0100
0100
0100
,
0000
1000
0010
0001
,
0010
1000
0010
0001
,
0000
1000
0100
1000
,
0100
0001
0100
0001
,
0100
1000
1000
0001
,
0001
1000
1000
0001
,
0001
0100
0100
0100
,
0100
0010
0010
0010
,
0010
0001
0001
1000
,
1000
0001
0001
1000
,
1000
0010
0010
0100
,
0100
1001
0000
0000
,
0000
0100
0100
0010
,
0010
1000
0001
1000
,
0001
0010
0010
0010
,
1001
0100
0100
0100
,
1001
0010
0010
0100
,
0100
0001
1000
0001
,
1000
0100
0100
0100
,
1001
0010
0010
0010
,
1001
0010
1000
0100
,
0001
0010
1000
0100
,
0001
1000
1000
1000
,
0110
0001
0001
0001
,
0110
0010
0001
0100
,
1000
0010
0001
0100
,
1000
0001
0001
0001
,
0110
1000
1000
1000
,
0110
0010
1001
0100
,
1001
0010
1001
0100
,
1001
0110
0110
0110
,
1001
0110
0110
0110
,
1001
1000
0110
0001
,
0110
1000
0110
0001
,
0110
1001
1001
1001
,
0110
1001
1001
1001
,
0110
1000
0100
0001
,
0100
1000
0010
0001
,
0010
1100
1100
1100
,
0110
0101
0101
0101
,
0110
0001
0010
1000
,
0010
0001
0100
1000
,
0100
1010
1010
1010
,
1001
0011
0011
0011
,
1001
1000
0100
1000
,
0100
0001
0100
0001
,
0100
0110
1001
0110
,
0110
1001
0110
1001
,
1001
0001
0010
0001
,
0010
1000
0010
1000
,
0010
1010
1100
1010
,
1001
0011
0101
0011
,
1001
0100
0100
0100
,
0000
0010
0010
0010
,
0000
1001
1001
1001
,
0000
0110
0110
0110
,
0000
2002
0000
0000
,
3003
0000
0000
0000
;

//---------------dance-single - ----------------
#NOTES:
     dance-single:
     :
     Medium:
     5:
     0.395909,0.447174,0.390833,0.010152,0.000000,546.000000,469.000000,77.000000,2.000000,0.000000,0.000000,0.395909,0.447174,0.390833,0.010152,0.000000,546.000000,469.000000,77.000000,2.000000,0.000000,0.000000:
0000
0000
0000
0000
,
0000
0000
0000
0000
,
0000
0000
0000
0000
,
0000
0000
0000
0000
,
0000
0001
0010
1000
,
0100
1000
0010
0001
,
0100
0001
0010
0100
,
1000
1000
0010
0100
,
0001
0000
1000
0000
1000
0000
0001
0100
,
0001
0000
0010
0000
0010
0000
0100
0010
,
0100
1001
1001
0010
,
0100
1001
1001
0010
,
0100
0000
0001
0000
0001
0000
1000
0010
,
1000
0000
0100
0000
0100
0000
0010
0100
,
0010
1001
1001
0100
,
0010
1001
1001
0100
,
0010
1001
0000
0000
,
0000
1000
0100
0000
0010
0001
0010
0000
,
0000
0000
1000
0000
0100
0010
0000
0000
,
0000
1001
1100
0101
,
0010
1000
0100
0000
0001
0000
0100
0000
,
0010
1000
0010
0000
0100
0001
0100
0000
,
0000
0000
0010
0000
0001
0100
0000
0000
,
0000
0000
1000
0100
1000
0100
1000
0000
,
0010
0001
0001
0000
1000
0000
0010
0000
,
0000
0000
0100
0000
0001
0010
0001
0000
,
1000
0000
1000
0000
1000
0100
0000
0000
,
0000
0000
1000
0000
0001
1000
0001
0000
,
1000
0001
0000
0000
,
0000
0000
1000
0000
0001
0010
0001
0000
,
1000
0000
0010
0000
0100
0001
0000
0000
,
0000
0000
1000
0000
0100
0010
0100
0000
,
1000
0001
0000
0000
,
0000
0000
0001
0000
0001
0000
0010
0100
,
0010
0000
0001
0000
0001
0000
1000
0100
,
1000
1001
1001
0100
,
0010
1001
0110
1000
,
0001
0000
0010
0000
0100
1000
0100
1000
,
0100
0000
0010
0000
0001
0000
0100
0010
,
0100
1001
1100
0001
,
0100
1001
0101
1000
,
0100
0010
0001
1000
,
0010
0100
0001
1000
,
0010
0000
0101
0000
1100
0000
0010
0001
,
0010
0000
1100
0000
0101
0000
1000
0010
,
1000
0001
0100
1000
,
0100
0010
0001
1000
,
0010
0000
0101
0000
1010
0000
0100
0010
,
0100
0000
1001
0000
0110
0000
1000
0100
,
0001
0000
0001
0010
0000
0100
1000
0100
,
0000
0000
0000
0001
0000
0010
0100
0000
,
0000
0000
0000
1001
0000
0011
0000
1010
,
0000
0100
0001
0010
0000
1000
0000
0010
,
0000
0100
0001
0100
0000
0010
1000
0010
,
0000
0000
0000
0100
0000
1000
0010
0000
,
0000
0000
0000
0001
0010
0001
0010
0001
,
0000
0100
1000
1000
0000
0001
0000
0100
,
0000
0000
0000
0010
0000
1000
0100
1000
,
0000
0001
0000
0001
0000
0001
0010
0000
,
0000
0000
0000
0001
0000
1000
0001
1000
,
0000
0001
0000
1000
0000
0000
0000
0000
,
0000
0000
0000
0001
0000
1000
0100
1000
,
0000
0001
0000
0100
0000
0010
1000
0000
,
0000
0000
0000
0001
0000
0010
0100
0010
,
0000
0001
0000
1000
0000
0000
0000
0000
,
0000
0000
1000
0000
1000
0000
0100
0010
,
0100
0000
1000
0000
1000
0000
0001
0010
,
0001
1001
1001
0010
,
0100
1001
0110
0001
,
1000
0000
0100
0000
0010
0001
0010
0001
,
0010
0000
0100
0000
1000
0000
0010
0100
,
0010
1001
0011
1000
,
0010
1001
1010
0001
,
0010
0100
1000
0001
,
0100
0010
1000
0001
,
0100
0000
1010
0000
0011
0000
0100
1000
,
0100
0000
0011
0000
1010
0000
0001
0100
,
0001
1000
0010
0001
,
0010
0100
1000
0001
,
0100
0000
1010
0000
0101
0000
0010
0100
,
0010
0000
1001
0000
0110
0000
0001
0010
,
1000
0000
0010
0100
0010
0100
0010
0000
,
0001
1000
0001
1000
0001
1000
0001
1000
,
0001
0000
0101
0000
1010
0000
0100
0010
,
0100
0000
1001
0000
0110
0000
1000
0100
,
0001
0000
0100
0010
0100
0010
0100
0000
,
1000
0001
1000
0001
1000
0001
1000
0001
,
1000
0000
1100
0000
0011
0000
1000
0001
,
1000
0000
0110
0000
1001
0000
0010
1000
,
0100
0000
0100
0000
0100
0000
1000
0001
,
1000
0000
0100
0000
0100
0000
0010
0001
,
0010
0110
0110
0001
,
1000
0110
1001
0010
,
0100
0000
1000
0000
0001
0010
0001
0010
,
0001
0000
1000
0000
0100
0000
0001
1000
,
0001
0110
0011
0100
,
0001
0110
0101
0010
,
0001
1000
0100
0010
,
1000
0001
0100
0010
,
1000
0000
0101
0000
0011
0000
1000
0100
,
1000
0000
0011
0000
0101
0000
0010
1000
,
0010
0100
0001
0010
,
0001
1000
0100
0010
,
1000
0000
0101
0000
1010
0000
0001
1000
,
0001
0000
0110
0000
1001
0000
0010
0001
,
0100
0000
0010
0010
0100
0100
0000
1000
,
0100
1000
0100
0000
0001
0010
0001
0000
,
1000
0100
0001
0000
1000
0010
0001
0000
,
1001
0110
1001
0110
,
1001
0220
0000
0000
,
0000
0330
0000
0000
0000
0000
0000
0000
;

//---------------dance-single - ----------------
#NOTES:
     dance-single:
     :
     Hard:
     7:
     0.474221,0.642813,0.142121,0.010152,0.177651,654.000000,626.000000,28.000000,2.000000,0.000000,0.000000,0.474221,0.642813,0.142121,0.010152,0.177651,654.000000,626.000000,28.000000,2.000000,0.000000,0.000000:
0000
0000
0000
0000
,
0000
0000
0000
0000
,
0000
0000
0000
0000
,
0000
0000
0000
0000
,
0000
0000
0000
0000
0001
0000
0000
0000
1000
0000
0000
0100
0000
0000
1000
0000
,
0000
0000
1000
0000
0001
0000
0000
0000
0010
0000
0000
0100
0000
0000
1000
0000
,
0010
0000
1000
0000
0001
0000
0000
0000
1000
0000
0000
0100
0000
0000
0010
0000
,
0000
0000
0010
0000
0001
0000
0000
0000
1000
0000
0000
0100
0000
0000
0010
0000
,
0001
0010
0100
0000
1000
0000
0001
0100
,
0001
0000
0010
0100
1000
0100
0010
0001
,
0010
0000
0000
0000
0100
0000
1000
0100
0000
1000
0100
0000
0010
0000
0000
0000
,
0001
0000
0000
0000
1000
0000
0100
0010
0000
0100
0010
0000
0001
0000
0000
0000
,
1000
0000
0010
0000
0100
0001
0100
0010
,
1000
0000
0001
0010
0100
1000
0001
0010
,
0001
0000
0000
0000
0100
0000
0001
0010
0000
0100
1000
0000
0001
0000
0000
0000
,
0100
0000
0000
0000
0010
0000
1000
0001
0000
0100
0010
0000
1000
0000
0000
0000
,
0100
0101
0000
0000
,
0000
0000
1000
0100
0010
0100
0010
0001
,
1000
0000
0010
0100
0001
0100
0000
0000
,
0000
0000
0001
0010
0100
0010
0001
0000
,
1100
0000
0010
0001
1000
0001
0100
0000
,
1100
0000
0010
0001
0100
0010
1000
0100
,
0010
0000
0001
0100
0010
0100
0000
0000
,
0000
0000
0010
1000
0001
0010
0100
0000
,
1001
0000
0100
0010
0100
0000
1001
0000
,
0000
0000
0010
0100
1000
0100
0010
0000
,
0001
0100
0010
0000
1000
0100
0000
0000
,
0000
0000
0010
0000
0001
0100
0001
0000
,
1000
0100
0000
0010
0000
0000
0000
0000
,
0000
0000
0001
0000
1000
0010
1000
0000
,
1000
0100
1000
0000
0010
0001
0000
0000
,
0000
0000
1000
0000
0010
0100
0010
0000
,
0100
1001
0000
0000
,
0000
0000
1100
0000
0010
0001
1000
0100
,
0010
0000
0001
1000
0001
0100
0001
0010
,
0010
0000
0000
0000
0100
0000
1000
0010
0000
0100
0010
0000
1000
0000
0000
0000
,
0001
0000
0000
0000
0010
0000
0100
1000
0000
0100
0010
0000
0001
0000
0000
0000
,
0100
0000
1100
0000
0010
0001
1000
0100
,
0010
0000
0001
1000
0001
0100
0010
0100
,
0100
0000
0000
0000
0001
0000
0010
0100
0000
1000
0100
0000
0010
0000
0000
0000
,
0001
0000
0000
0000
1000
0000
0010
0100
0000
0001
0100
0000
0010
0000
0000
0000
,
1000
0000
0100
0000
0010
0001
0000
1000
,
0000
1000
0100
0000
0010
0001
0000
0001
,
0010
0000
0100
0000
1000
0000
0100
0010
0000
0100
1000
0000
0001
0000
0000
0000
,
0010
0000
0000
0000
0100
0000
1000
0010
0000
0100
0001
0000
0100
0000
0000
0000
,
0010
0000
1000
0000
0100
0010
0000
0001
,
0000
1000
0010
0000
0100
0010
0000
1000
,
0100
0000
0010
0000
0001
0000
0100
0010
0000
1000
0100
0000
0010
0000
0000
0000
,
0001
0000
0000
0000
0100
0000
0010
1000
0000
0100
0010
0000
0001
0000
0000
0000
,
1000
0000
0110
0001
1000
0001
1000
0010
,
0100
0000
1000
0001
0010
0001
0000
0000
,
0000
0000
0010
1000
0001
1000
0010
0000
,
0101
0000
1000
0010
0100
0010
0001
0000
,
0101
0000
1000
0010
0001
1000
0100
0001
,
1000
0000
0010
0001
1000
0001
0000
0000
,
0000
0000
1000
0100
0010
1000
0001
0000
,
0110
0000
0001
1000
0001
0000
0110
0000
,
0000
0000
1000
0001
0100
0001
1000
0000
,
0010
0001
1000
0000
0100
0001
0000
0000
,
0000
0000
1000
0000
0010
0001
0010
0000
,
0100
0001
0000
1000
0000
0000
0000
0000
,
0000
0000
0010
0000
0100
1000
0100
0000
,
0100
0001
0100
0000
1000
0010
0000
0000
,
0000
0000
0100
0000
1000
0001
1000
0000
,
0001
0110
0000
0000
,
0000
0000
0011
0000
0100
1000
0001
0010
,
0100
0000
1000
0001
1000
0010
1000
0100
,
0100
0000
0000
0000
0010
0000
0001
0100
0000
0010
0100
0000
0001
0000
0000
0000
,
1000
0000
0000
0000
0100
0000
0010
0001
0000
0010
0100
0000
1000
0000
0000
0000
,
0010
0000
0011
0000
0100
1000
0001
0010
,
0100
0000
1000
0001
1000
0010
0100
0010
,
0010
0000
0000
0000
1000
0000
0100
0010
0000
0001
0010
0000
0100
0000
0000
0000
,
1000
0000
0000
0000
0001
0000
0100
0010
0000
1000
0010
0000
0100
0000
0000
0000
,
0001
0000
0010
0000
0100
1000
0000
0001
,
0000
0001
0010
0000
0100
1000
0000
1000
,
0100
0000
0010
0000
0001
0000
0010
0100
0000
0010
0001
0000
1000
0000
0000
0000
,
0100
0000
0000
0000
0010
0000
0001
0100
0000
0010
1000
0000
0010
0000
0000
0000
,
0100
0000
0001
0000
0010
0100
0000
1000
,
0000
0001
0100
0000
0010
0100
0000
0001
,
0010
0000
0100
0000
1000
0000
0010
0100
0000
0001
0010
0000
0100
0000
0000
0000
,
1000
0000
0000
0000
0010
0000
0100
0001
0000
0010
0100
0000
1000
0000
0000
0000
,
0001
0000
1000
0001
1000
0001
1000
0000
,
0001
0010
0100
1000
0001
0010
0100
1000
,
0001
0000
0000
0000
0001
0000
0100
0010
0000
1000
0100
0000
0010
0000
0000
0000
,
0001
0000
0000
0000
0100
0000
0010
1000
0000
0100
0010
0000
0001
0000
0000
0000
,
1000
0000
0001
1000
0001
1000
0001
0000
,
1000
0100
0010
0001
1000
0100
0010
0001
,
1000
0000
0000
0000
0100
0000
1000
0001
0000
0010
1000
0000
0001
0000
0000
0000
,
0100
0000
0000
0000
1000
0000
0001
0010
0000
1000
0001
0000
0100
0000
0000
0000
,
0010
0000
1100
0000
0001
0010
0100
1000
,
0001
0000
0010
0100
0010
1000
0010
0001
,
0001
0000
0000
0000
1000
0000
0100
0001
0000
1000
0001
0000
0100
0000
0000
0000
,
0010
0000
0000
0000
0001
0000
1000
0100
0000
1000
0001
0000
0010
0000
0000
0000
,
1000
0000
1100
0000
0001
0010
0100
1000
,
0001
0000
0010
0100
0010
1000
0001
1000
,
1000
0000
0000
0000
0010
0000
0001
1000
0000
0100
1000
0000
0001
0000
0000
0000
,
0010
0000
0000
0000
0100
0000
0001
1000
0000
0010
1000
0000
0001
0000
0000
0000
,
0100
0000
1000
0000
0001
0010
0000
0100
,
0000
0100
1000
0000
0001
0010
0000
0010
,
0001
0000
1000
0000
0100
0000
1000
0001
0000
1000
0100
0000
0010
0000
0000
0000
,
0001
0000
0000
0000
1000
0000
0100
0001
0000
1000
0010
0000
1000
0000
0000
0000
,
0001
0000
0100
0000
1000
0001
0000
0010
,
0000
0100
0001
0000
1000
0001
0000
0100
,
1000
0000
0001
0000
0010
0000
1000
0001
0000
0100
1000
0000
0001
0000
0000
0000
,
0010
0000
0000
0000
1000
0000
0001
0100
0000
1000
0001
0000
0010
0000
0000
0000
,
0100
0000
0000
0000
1001
0000
0010
0000
0100
0000
0010
0100
0000
0000
1000
0000
,
0010
0001
0100
1000
0010
0001
0100
1000
,
0010
0000
0001
0000
0100
0000
1000
0000
0001
0000
1000
0001
0000
0000
0000
0000
,
1001
0110
0110
1001
1001
0110
0110
0000
,
1001
0220
0000
0000
,
0000
0330
0000
0000
0000
0000
0000
0000
;

//---------------dance-double - ----------------
#NOTES:
     dance-double:
     :
     Easy:
     3:
     0.242186,0.279167,0.055833,0.010152,0.000000,334.000000,323.000000,11.000000,2.000000,0.000000,0.000000,0.242186,0.279167,0.055833,0.010152,0.000000,334.000000,323.000000,11.000000,2.000000,0.000000,0.000000:
00000000
00000000
00000000
00000000
,
00000000
00000000
00000000
00000000
,
00000000
00000000
00000000
00000000
,
00000000
00000000
00000000
00000000
,
00000000
00010000
00000000
00001000
,
00000000
00000100
00000000
00000001
,
00000000
00001000
00000000
00000000
,
00000000
00011000
00000000
00000000
,
00000000
00100000
00100000
01000000
,
10000000
00010000
01000000
10000000
,
00100000
01000000
01000000
00001000
,
00000100
00000010
00000010
00010000
,
01000000
00100000
00100000
01000000
,
10000000
00010000
01000000
10000000
,
00100000
01000000
01000000
00001000
,
00000100
00000010
00000010
00010000
,
01000000
10010000
00000000
00000000
,
00000000
00001000
00000000
00001000
,
00000000
00010000
00001000
00000100
,
00000000
00000001
00000001
00000001
,
00000000
00001000
00001000
00001000
,
00000000
00000100
00000000
00010000
,
00000000
00001000
00100000
01000000
,
00000000
10000000
00010000
01000000
,
00100000
10000000
00010000
01000000
,
00000000
00100000
00000000
10000000
,
00000000
01000000
00000000
00010000
,
00000000
00001000
00000000
00000100
,
00000000
00000001
00000000
00000010
,
00000000
00000010
00000000
00000001
,
00000000
00000100
00000000
00001000
,
00000000
00010000
00000000
01000000
,
10000000
01100000
00000000
00000000
,
00000000
00100000
00100000
01000000
,
10000000
00010000
01000000
10000000
,
00100000
01000000
01000000
00001000
,
00000100
00000010
00000010
00010000
,
01000000
00100000
00100000
01000000
,
10000000
00010000
01000000
10000000
,
00100000
01000000
01000000
00001000
,
00000100
00000010
00000010
00010000
,
01000000
10000000
00000000
00010000
,
00000000
10000000
00000000
00010000
,
00000000
01000000
01000000
00010000
,
00010000
00000100
00000100
00000001
,
00000001
00001000
00000000
00000001
,
00000000
00000010
00000000
00000001
,
00000000
00001000
00001000
01000000
,
01000000
10000000
10000000
00010000
,
00010000
00011000
00000000
00010000
,
00000000
00001000
00010000
00100000
,
00000000
10000000
10000000
10000000
,
00000000
00010000
00010000
00010000
,
00000000
00100000
00000000
00001000
,
00000000
00010000
00000100
00000010
,
00000000
00000001
00001000
00000010
,
00000100
00000001
00001000
00000010
,
00000000
00000100
00000000
00000001
,
00000000
00000010
00000000
00001000
,
00000000
00010000
00000000
00100000
,
00000000
10000000
00000000
01000000
,
00000000
01000000
00000000
10000000
,
00000000
00100000
00000000
00010000
,
00000000
00001000
00000000
00000010
,
00000001
00000110
00000000
00000000
,
00000000
00000100
00000100
00000010
,
00000001
00001000
00000010
00000001
,
00000100
00000010
00000010
00010000
,
00100000
01000000
01000000
00001000
,
00000010
00000100
00000100
00000010
,
00000001
00001000
00000010
00000001
,
00000100
00000010
00000010
00010000
,
00100000
01000000
01000000
00001000
,
00000010
00000001
00000000
00001000
,
00000000
00000001
00000000
00001000
,
00000000
00000010
00000010
00001000
,
00001000
00100000
00100000
10000000
,
10000000
00010000
00000000
10000000
,
00000000
01000000
00000000
10000000
,
00000000
00010000
00010000
00000010
,
00000010
00000001
00000001
00001000
,
00001000
00000010
00000100
00001000
,
00000000
00010000
00100000
10000000
,
00000000
00100000
00100000
00001000
,
00001000
00000010
00000010
00000100
,
00000100
00001000
00010000
00100000
,
00000000
00010000
00001000
00000010
,
00000000
00000100
00010000
00010000
,
01000000
01000000
00100000
00100000
,
00000000
00000001
00000001
00001000
,
00000010
00000100
00001000
00000010
,
00000001
00001000
00001000
00100000
,
10000000
00010000
00010000
00000100
,
00001000
00000001
00000001
00001000
,
00000010
00000100
00001000
00000010
,
00000001
00001000
00001000
00100000
,
10000000
00010000
00010000
00000100
,
00001000
00000010
00000000
00000100
,
00000000
00000010
00000000
00000100
,
00000000
00001000
00001000
00000100
,
00000100
00010000
00010000
01000000
,
01000000
00100000
00000000
01000000
,
00000000
00010000
00000000
01000000
,
00000000
00100000
00100000
00001000
,
00001000
00000010
00000010
00000100
,
00000100
00001000
00000000
00001001
,
00000000
00000101
00000000
00001100
,
00000000
00110000
00000000
11000000
,
00000000
00010000
00001000
00010000
,
00001000
00022000
00000000
00000000
,
00033000
00000000
00000000
00000000
;

//---------------dance-double - ----------------
#NOTES:
     dance-double:
     :
     Medium:
     5:
     0.377781,0.390833,0.512651,0.010152,0.000000,521.000000,420.000000,101.000000,2.000000,0.000000,0.000000,0.377781,0.390833,0.512651,0.010152,0.000000,521.000000,420.000000,101.000000,2.000000,0.000000,0.000000:
00000000
00000000
00000000
00000000
,
00000000
00000000
00000000
00000000
,
00000000
00000000
00000000
00000000
,
00000000
00000000
00000000
00000000
,
00000000
00000001
00000010
00000100
,
00010000
00001000
00100000
01000000
,
10000000
00000000
00010000
00000000
01000000
01000000
00000000
00100000
,
00100000
00000000
10010000
00000000
01000000
01000000
00000000
00000000
,
00000000
00000000
00011000
00000000
00001010
00000000
00000000
00000001
,
00000001
00000000
00001100
00000000
00011000
00000000
00000000
00100000
,
00100000
10010000
01100000
00001000
,
00010000
00001010
00000101
00001000
,
00000100
00000000
00011000
00000000
00110000
00000000
00000000
10000000
,
10000000
00000000
01100000
00000000
10010000
00000000
00000000
01000000
,
01000000
00011000
00001010
00000100
,
00000001
00001100
00011000
00100000
,
01000000
10010000
00000000
00000000
,
00000000
00000000
00100000
00001000
00010000
00000000
00000100
00010000
,
00001000
00000000
00100000
00010000
01000000
00000000
11000000
00000000
,
00000000
00100000
00001000
00010000
,
00000100
00000010
00000001
00001100
,
00000000
00000000
00010000
00001000
01000000
00000000
00010000
10000000
,
01000000
00000000
00100000
00001000
00010000
00000000
00001010
00000000
,
00000000
00010000
00000100
00000010
,
00000001
00001000
00000100
00011000
,
00000000
00000000
00100000
00000000
01000000
10000000
00000000
10000000
,
01000000
00000000
00100000
00000000
00001000
00010000
00000000
00000000
,
00000000
00000010
00000100
00000001
,
00001000
00000110
00000000
00000000
,
00000000
00000000
00010000
00001000
00010000
00000100
00000000
00010000
,
00001000
00000000
00100000
00000000
00010000
01000000
00000000
00000000
,
00000000
00001000
00010000
00000010
,
00000100
00001001
00000000
00000000
,
00000000
00000000
00011000
00000000
01010000
00000000
00000000
00100000
,
00100000
00000000
10010000
00000000
01100000
00000000
00000000
00010000
,
00010000
00011000
00001010
00000001
,
00000010
00001100
00011000
00100000
,
00010000
00000000
11000000
00000000
01010000
00000000
00000000
00001000
,
00001000
00000000
00011000
00000000
00001010
00000000
00000000
00000100
,
00000100
00011000
00110000
10000000
,
01000000
00110000
00011000
00000100
,
00000010
00000001
00000100
00000010
,
00010000
00001000
00100000
01000000
,
10000000
00000000
01010000
00000000
00001000
00001000
00000000
00010000
,
00010000
00000000
00001010
00000000
00000100
00000100
00000000
00000000
,
00001001
00000010
00000100
00010000
,
00001000
00100000
01000000
10000000
,
00100000
00000000
01010000
00000000
00001000
00001000
00000000
00010000
,
00010000
00000000
00001010
00000000
00000001
00000001
00000000
00000000
,
00000110
00000000
00000100
00010000
00001000
00000000
00100000
00001000
,
00010000
00000000
00000100
00001000
00000010
00000000
00000011
00000000
,
00000000
00000100
00010000
00001000
,
00100000
01000000
10000000
00110000
,
00000000
00000000
00001000
00010000
00000010
00000000
00001000
00000001
,
00000010
00000000
00000100
00010000
00001000
00000000
01010000
00000000
,
00000000
00001000
00100000
01000000
,
10000000
00010000
00100000
00011000
,
00000000
00000000
00000100
00000000
00000010
00000001
00000000
00000001
,
00000010
00000000
00000100
00000000
00010000
00001000
00000000
00000000
,
00000000
01000000
00100000
10000000
,
00010000
01100000
00000000
00000000
,
00000000
00000000
00001000
00010000
00001000
00100000
00000000
00001000
,
00010000
00000000
00000100
00000000
00001000
00000010
00000000
00000000
,
00000000
00010000
00001000
01000000
,
00100000
10010000
00000000
00000000
,
00000000
00000000
00011000
00000000
00001010
00000000
00000000
00000100
,
00000100
00000000
00001001
00000000
00000110
00000000
00000000
00001000
,
00001000
00011000
01010000
10000000
,
01000000
00110000
00011000
00000100
,
00001000
00000000
00000011
00000000
00001010
00000000
00000000
00010000
,
00010000
00000000
00011000
00000000
01010000
00000000
00000000
00100000
,
00100000
00011000
00001100
00000001
,
00000010
00001100
00011000
00100000
,
01000000
10000000
00100000
01000000
,
00001000
00010000
00000100
00000010
,
00000001
00000000
00001010
00000000
00010000
00010000
00000000
00001000
,
00001000
00000000
01010000
00000000
00100000
00100000
00000000
00000000
,
10010000
01000000
00100000
00001000
,
00010000
00000100
00000010
00000001
,
00000100
00000000
00001010
00000000
00010000
00010000
00000000
00001000
,
00001000
00000000
01010000
00000000
10000000
10000000
00000000
00000000
,
01100000
10000000
01000000
00100000
,
00010000
00001000
00000100
00000010
,
00000001
00000000
00000001
00000000
00001100
00000000
00010000
00010000
,
00000000
00001000
00001000
00000000
00110000
00000000
00001000
00001000
,
00000000
00000001
00000010
00000100
,
00001000
00010000
00100000
01000000
,
10000000
00000000
10000000
00000000
00110000
00000000
00010000
00010000
,
00000000
00001000
00001000
00000000
01010000
00000000
00100000
00100000
,
00000000
00000000
10010000
00000000
01010000
00000000
00000000
00100000
,
00100000
00000000
10010000
00000000
01100000
00000000
00000000
00010000
,
00010000
00011000
00001010
00000001
,
00000010
00001100
00011000
00100000
,
00010000
00000000
11000000
00000000
01010000
00000000
00000000
00001000
,
00001000
00000000
00011000
00000000
00001010
00000000
00000000
00000100
,
00000100
00011000
00110000
10000000
,
01000000
00110000
00011000
00000100
,
00000010
00000001
00000100
00000010
,
00010000
00001000
00100000
01000000
,
10000000
00000000
01010000
00000000
00001000
00001000
00000000
00010000
,
00010000
00000000
00001010
00000000
00000100
00000100
00000000
00000000
,
00001001
00000010
00000100
00010000
,
00001000
00100000
01000000
10000000
,
00100000
00000000
01010000
00000000
00001000
00001000
00000000
00010000
,
00010000
00000000
00001010
00000000
00000001
00000001
00000000
00000000
,
00000110
00000000
00000010
00000000
00000100
00000000
00001000
00001000
,
00000000
00000000
00010000
00000000
00100000
00000000
00010000
00010000
,
00000000
00000000
00001000
00000000
00000100
00000000
00000010
00001000
,
00000000
00000000
00010000
00001000
00000000
00000000
00001000
00010000
,
00000000
00022000
00000000
00000000
,
00033000
00000000
00000000
00000000
;

//---------------dance-double - ----------------
#NOTES:
     dance-double:
     :
     Hard:
     7:
     0.464069,0.446666,0.314697,0.010152,0.000000,640.000000,578.000000,62.000000,2.000000,0.000000,0.000000,0.464069,0.446666,0.314697,0.010152,0.000000,640.000000,578.000000,62.000000,2.000000,0.000000,0.000000:
00000000
00000000
00000000
00000000
,
00000000
00000000
00000000
00000000
,
00000000
00000000
00000000
00000000
,
00000000
00000000
00000000
00000000
,
00000000
00000000
10000000
00010000
00100000
00001000
00000000
00010000
,
00000000
00010000
00000100
00000010
00000001
00000100
00000000
00000010
,
00000010
00000010
00010000
00001000
00100000
00010000
00000000
01000000
,
00000000
01000000
00100000
10000000
01000000
00100000
00000000
00010000
,
00010000
00010000
01000000
00000000
00001000
00010000
00000100
00001000
,
00000100
00000000
00010000
00001000
00010000
00000000
00000010
00001000
,
00000010
00000000
00000100
00000001
00000100
00000001
00000100
00000000
,
00001100
00000000
00010000
00001000
00010000
00001000
00010000
00000000
,
00110000
00000000
10000000
00000000
00100000
01000000
00010000
00100000
,
00001000
00000000
00010000
00000010
00001000
00000000
00000100
00010000
,
00001000
00000000
00100000
00010000
01000000
00100000
10000000
00000000
,
01010000
00000000
00100000
00001000
00010000
00000100
00001000
00000000
,
00000101
00001100
00000000
00000000
,
00000000
00000000
00010000
00001000
00100000
00000000
00010000
01000000
,
00100000
00000000
10000000
01000000
00100000
00010000
01000000
00000000
,
00000000
00011000
00001001
00000110
,
00011000
00000000
00100000
00010000
10000000
01000000
00100000
00000000
,
00000000
00000000
00010000
01000000
00001000
00000000
00010000
00001000
,
00100000
00000000
00001000
00010000
00000010
00001000
00000100
00000000
,
00000000
00011000
10010000
01100000
,
00011000
00000000
00000010
00000100
00000001
00000000
00001100
00000000
,
00000000
00000000
00010000
00000000
00001000
00001000
00001000
00000000
,
00100000
00010000
00100000
00000000
01000000
10000000
00000000
00000000
,
00000000
00000000
00100000
01000000
00001000
00010000
00000100
00000000
,
00000010
00000001
00000000
00000001
00000000
00000000
00000000
00000000
,
00000000
00000000
00001000
00000000
00000100
00010000
00001000
00000000
,
00100000
00010000
10000000
00000000
00100000
01000000
00000000
00000000
,
00000000
00000000
00010000
00100000
00001000
00010000
00000010
00000000
,
00001001
00000100
00000010
00001000
,
00000100
00000000
00010000
00000000
00001000
00100000
00010000
01000000
,
00100000
00000000
10000000
01000000
00100000
00010000
01000000
00001000
,
00001000
00000000
00010010
00000000
00001001
00000000
00000100
00000010
,
00000010
00000000
00011000
00000000
10010000
00000000
01000000
00100000
,
00100000
00000000
10000000
01000000
00100000
00010000
01000000
00000000
,
00011000
00000000
00000010
00001000
00000100
00000010
00000000
00000001
,
00000001
00000000
00001000
00000100
00010000
00001000
00100000
00000000
,
10010000
00000000
01000000
00010000
01000000
00000000
00011000
00000000
,
00001001
00000000
00000100
00000010
00001000
00000100
00000000
00010000
,
00000000
00010000
00001000
00100000
01000000
10000000
00000000
00100000
,
01000000
00000000
00010000
01000000
00001000
00010000
00000010
00000000
,
00001001
00000000
00000010
00000100
00010000
00001000
00000000
00100000
,
00100000
00000000
01000000
10000000
00100000
01000000
00010000
00000000
,
00011000
00000000
00000010
00000100
00000001
00000010
00000000
00000100
,
00000100
00000000
00010000
00001000
00100000
00010000
10000000
00000000
,
01100000
00000000
00001000
00000000
00010000
00000100
00000000
00000010
,
00000001
00000000
00001000
00010000
00000100
00000000
00001000
00000010
,
00000100
00000000
00000001
00000010
00000100
00001000
00000010
00000000
,
00000000
00011000
10010000
01100000
,
00011000
00000000
00000100
00001000
00000001
00000010
00000100
00000000
,
00000000
00000000
00001000
00000010
00010000
00000000
00001000
00010000
,
00000100
00000000
00010000
00001000
01000000
00010000
00100000
00000000
,
00000000
00011000
00001001
00000110
,
00011000
00000000
01000000
00100000
10000000
00000000
00110000
00000000
,
00000000
00000000
00001000
00000000
00010000
00010000
00010000
00000000
,
00000100
00001000
00000100
00000000
00000010
00000001
00000000
00000000
,
00000000
00000000
00000100
00000010
00010000
00001000
00100000
00000000
,
01000000
10000000
00000000
10000000
00000000
00000000
00000000
00000000
,
00000000
00000000
00010000
00000000
00100000
00001000
00010000
00000000
,
00000100
00001000
00000001
00000000
00000100
00000010
00000000
00000000
,
00000000
00000000
00001000
00000100
00010000
00001000
01000000
00000000
,
10010000
00100000
00000000
00000000
,
00000000
00000000
00001000
00000000
00010000
00000100
00001000
00000010
,
00000100
00000000
00000001
00000010
00000100
00001000
00000010
00010000
,
00010000
00000000
01001000
00000000
10010000
00000000
00100000
01000000
,
01000000
00000000
00011000
00000000
00001001
00000000
00000010
00000100
,
00000100
00000000
00000001
00000010
00000100
00001000
00000010
00000000
,
00011000
00000000
01000000
00010000
00100000
01000000
00000000
10000000
,
10000000
00000000
00010000
00100000
00001000
00010000
00000100
00000000
,
00001001
00000000
00000010
00001000
00000010
00000000
00011000
00000000
,
10010000
00000000
00100000
01000000
00010000
00100000
00000000
00001000
,
00000000
00001000
00010000
00000100
00000010
00000001
00000000
00000100
,
00000010
00000000
00001000
00000010
00010000
00001000
01000000
00000000
,
10010000
00000000
01000000
00100000
00001000
00010000
00000000
00000100
,
00000100
00000000
00000010
00000001
00000100
00000010
00001000
00000000
,
00011000
00000000
01000000
00100000
10000000
01000000
00000000
00100000
,
00100000
00000000
00001000
00010000
00000100
00001000
00000001
00000000
,
00000110
00000000
00010000
00000000
00001000
00100000
00000000
01000000
,
10000000
00000000
10000000
01000000
10000000
00000000
01000000
00010000
,
01000000
00000000
00010000
00001000
00010000
00000000
00000100
00001000
,
00000100
00000000
00001000
00000010
00010000
00001000
00100000
00000000
,
10010000
00000000
00100000
01000000
00010000
00001000
00000000
00000100
,
00000100
00000000
00000010
00001000
00010000
00001000
01000000
00000000
,
10010000
00000000
01000000
00100000
00001000
00010000
00000000
00000100
,
00000100
00000000
00000001
00000010
00000100
00001000
00010000
00000000
,
01010000
00000000
01000000
00010000
00001000
00000100
00000000
00000100
,
00001000
00000000
00010000
00000000
00001000
00100000
00010000
01000000
,
00100000
00000000
10000000
01000000
00100000
00010000
01000000
00001000
,
00001000
00000000
00010010
00000000
00001001
00000000
00000100
00000010
,
00000010
00000000
00011000
00000000
10010000
00000000
01000000
00100000
,
00100000
00000000
10000000
01000000
00100000
00010000
01000000
00000000
,
00011000
00000000
00000010
00001000
00000100
00000010
00000000
00000001
,
00000001
00000000
00001000
00000100
00010000
00001000
00100000
00000000
,
10010000
00000000
01000000
00010000
01000000
00000000
00011000
00000000
,
00001001
00000000
00000100
00000010
00001000
00000100
00000000
00010000
,
00000000
00010000
00001000
00100000
01000000
10000000
00000000
00100000
,
01000000
00000000
00010000
01000000
00001000
00010000
00000010
00000000
,
00001001
00000000
00000010
00000100
00010000
00001000
00000000
00100000
,
00100000
00000000
01000000
10000000
00100000
01000000
00010000
00000000
,
00011000
00000000
00000010
00000100
00000001
00000010
00000000
00000100
,
00000100
00000000
00010000
00001000
00100000
00010000
10000000
00000000
,
01100000
00000000
00001000
00000000
00010000
00000100
00000000
00000010
,
00000001
00000000
00000001
00000010
00000100
00001000
00010000
00100000
,
01000000
00000000
10000000
01000000
00100000
00010000
00001000
00000100
,
00000010
00000000
00000001
00000100
00001000
00010000
00100000
10000000
,
01000000
00000000
00010000
00001000
00000010
00000001
00000100
00001000
,
00010000
00022000
00000000
00000000
,
00033000
00000000
00000000
00000000
;

//---------------dance-couple - ----------------
#NOTES:
     dance-couple:
     :
     Medium:
     7:
     0.276266,0.475662,0.187803,0.010152,0.050758,381.000000,344.000000,37.000000,2.000000,0.000000,0.000000,0.278441,0.475662,0.187803,0.010152,0.048220,384.000000,347.000000,37.000000,2.000000,0.000000,0.000000:
00000000
00000000
00000000
00000000
,
00000000
00000000
00000000
00000000
,
00000000
00000000
00000000
00000000
,
00000000
00000000
00000000
00000000
,
00000000
00000000
00000000
00000000
00010000
00000000
00000000
00000000
10000000
00000000
00000000
01000000
00000000
00000000
10000000
00000000
,
00000000
00000000
10000000
00000000
00010000
00000000
00000000
00000000
00100000
00000000
00000000
01000000
00000000
00000000
10000000
00000000
,
00100000
00000000
10000000
00000000
00000001
00000000
00000000
00000000
00001000
00000000
00000000
00000100
00000000
00000000
00000010
00000000
,
00000000
00000000
00000010
00000000
00000001
00000000
00000000
00000000
00001000
00000000
00000000
00000100
00000000
00000000
00000010
00000000
,
00000001
00000010
10000000
00000000
10000001
00000000
00010000
01000000
,
00010001
00000000
00100000
00000000
00100001
00000000
01000000
00100000
,
01000001
10010000
10010001
00100000
,
01000001
10010000
10010001
00100000
,
01000000
00000000
00000001
00000000
10000001
00000000
00001000
00000010
,
10001000
00000000
00000100
00000000
10000100
00000000
00000010
00000100
,
10000010
00001001
10001001
00000100
,
10000010
00001001
10001001
00000100
,
00000010
10011001
00000000
00000000
,
01000000
10000000
01000000
00000000
00100100
00010000
00100000
00000000
,
00000100
00000000
10000000
00000000
01000100
00100000
00000000
00000000
,
00000100
10010000
00000101
01010000
,
00100000
10000000
01000000
00000000
00100100
00000000
00010100
00000000
,
00000010
00001000
00000010
00000000
01000100
00000001
00000100
00000000
,
01000000
00000000
00000010
00000000
01000001
00000100
00000000
00000000
,
01000000
00001001
11000000
00000101
,
00000010
00001000
00000100
00000000
01000010
00000000
01000001
00000000
,
00000000
00000000
01000010
00000000
00010000
00100000
00010000
00000000
,
10000000
00000000
10000010
00000000
10000000
01000000
00000000
00000000
,
00000000
00000000
10000010
00000000
00010000
10000000
00010000
00000000
,
10000000
00010010
00000000
00000000
,
00000000
00000000
00101000
00000000
00000001
00000010
00000001
00000000
,
00001000
00000000
00100010
00000000
00000100
00000001
00000000
00000000
,
00000000
00000000
00101000
00000000
00000100
00000010
00000100
00000000
,
00001000
00100001
00000000
00000000
,
00000000
00000000
10000000
00000000
10000000
00000000
00000010
00000100
,
00000010
00000000
10000000
00000000
10000000
00000000
00001000
00000100
,
00001000
10010000
10010000
00000001
,
00000100
10010000
01100000
00001000
,
00000100
00000000
00000001
00000000
00000001
00000000
00010000
10000000
,
00010000
00000000
00000001
00000000
00000001
00000000
01000000
00100000
,
01000000
00001001
00001001
00010000
,
01000000
00001001
00000110
10000000
,
01000000
00000000
01000100
00000000
00100010
00010001
00000000
10001000
,
00000000
10001000
01000100
00000000
00100010
00010001
00000000
00010001
,
00100010
00000000
01000100
00000000
10001000
00000000
01000100
00100010
00000000
01000100
10001000
00000000
00010001
00000000
00000000
00000000
,
00100010
00000000
00000000
00000000
01000100
00000000
10001000
00100010
00000000
01000100
00010001
00000000
01000100
00000000
00000000
00000000
,
00100010
00000000
10001000
00000000
01000100
00100010
00000000
00010001
,
00000000
10001000
00100010
00000000
01000100
00100010
00000000
10001000
,
01000100
00000000
00100010
00000000
00010000
00000000
01000000
00100000
00000000
10000000
01000000
00000000
00100000
00000000
00000000
00000000
,
00010000
00000000
00000000
00000000
00000001
00000000
00000100
00000010
00000000
00001000
00000100
00000000
00000010
00000000
00000000
00000000
,
00000001
00000000
00000010
00000001
00000010
00000000
00100100
00001000
,
00000100
00000000
00100000
00000000
00000001
00000000
00100010
00000100
,
00000000
00100000
00001001
10100000
,
00001010
00000000
00000100
00000001
00000010
00000000
00100100
00000000
,
00101000
00000000
01000000
00010000
01000000
00000000
00100010
10000000
,
00100000
00000000
01000010
00000000
10000010
00100000
00000000
00000000
,
00000010
10010000
00000011
10100000
,
01000000
00010000
00100000
00000000
01000010
00000000
10000010
00000000
,
00000000
00000000
01000010
00000000
00001000
00000100
00001000
00000000
,
00000001
00000000
01000001
00000000
00000001
00000010
00000000
00000000
,
00000000
00000000
01000001
00000000
00001000
00000001
00001000
00000000
,
00000001
01001000
00000000
00000000
,
00000000
00000000
00010100
00000000
10000000
01000000
10000000
00000000
,
00010000
00000000
01000100
00000000
00100000
10000000
00000000
00000000
,
00000000
00000000
00010100
00000000
00100000
01000000
00100000
00000000
,
00001000
00100001
00000000
00000000
,
00000000
00000000
00000001
00000000
00000001
00000000
01000000
00100000
,
01000000
00000000
00000001
00000000
00000001
00000000
00010000
00100000
,
00010000
00001001
00001001
10000000
,
00100000
00001001
00000110
00010000
,
00100000
00000000
10000000
00000000
10000000
00000000
00001000
00000001
,
00001000
00000000
10000000
00000000
10000000
00000000
00000010
00000100
,
00000010
10010000
10010000
00001000
,
00000010
10010000
01100000
00000001
,
00000010
00000000
00100010
00000000
01000100
10001000
00000000
00010001
,
00000000
00010001
00100010
00000000
01000100
10001000
00000000
10001000
,
01000100
00000000
00100010
00000000
00010001
00000000
00100010
01000100
00000000
00100010
00010001
00000000
10001000
00000000
00000000
00000000
,
01000100
00000000
00000000
00000000
00100010
00000000
00010001
01000100
00000000
00100010
10001000
00000000
00100010
00000000
00000000
00000000
,
01000100
00000000
00010001
00000000
00100010
01000100
00000000
10001000
,
00000000
00010001
01000100
00000000
00100010
01000100
00000000
00010001
,
00100010
00000000
01000100
00000000
00001000
00000000
00000010
00000100
00000000
00000001
00000010
00000000
00000100
00000000
00000000
00000000
,
00001000
00000000
00000000
00000000
10000000
00000000
00100000
01000000
00000000
00010000
00100000
00000000
01000000
00000000
00000000
00000000
,
10000000
00000000
10000000
01000000
10001000
00000000
00000001
00000100
,
00010001
00000000
01000000
00100000
01000110
00000000
00000010
00000100
,
01100010
00000000
10000000
10000000
01000000
01000000
00010000
00000000
,
00011001
00000000
00000001
00000001
00000100
00000100
00001000
00000000
,
10011000
00000000
10000000
01000000
00010101
00000000
00000001
00000100
,
10011000
00000000
00100000
10000000
01001100
00000000
00000010
00000001
,
01010100
00000000
00000001
00000001
00000010
00000010
00001000
00000000
,
10011000
00000000
10000000
10000000
00100000
00100000
00010000
00000000
,
00011001
00000000
00100000
00000000
00100000
00000000
10000000
00000001
,
10000000
00000000
00100000
00000000
00100000
00000000
00000010
00000001
,
00000010
00100100
00100100
00010000
,
00000001
00100100
01001000
00000010
,
00000001
00000000
00010000
00000000
00010000
00000000
00000100
00100000
,
00000100
00000000
00010000
00000000
00010000
00000000
00001000
01000000
,
00001000
00010010
00010010
00000100
,
00001000
00010010
10000001
00100000
,
00001000
00000000
00001001
00000000
10000000
00010100
00000000
00100010
,
00000000
00100010
00000001
00000000
10000000
00010100
00000000
00010100
,
10000000
00000000
00001001
00000000
00100010
00000000
00000001
11001000
00000000
00000001
00100010
00000000
00010100
00000000
00000000
00000000
,
11000000
00000000
00000000
00000000
00001001
00000000
00100010
10001000
00000000
01000001
00010100
00000000
00001001
00000000
00000000
00000000
,
11000000
00000000
00100010
00000000
00001001
11000000
00000000
00010100
,
00000000
00100010
11000000
00000000
00001001
11000000
00000000
00100010
,
00001001
00000000
11000000
00000000
00000100
00000000
00001000
01000000
00000000
00100000
00001000
00000000
01000000
00000000
00000000
00000000
,
00000100
00000000
00000000
00000000
00010000
00000000
00000001
10000000
00000000
00000010
00000001
00000000
10000000
00000000
00000000
00000000
,
00010000
00000000
00100100
10000000
01000010
10000000
00100100
00000000
,
00000000
00000000
01000010
00000001
00100100
00000001
01000010
00000000
,
00000000
00000000
10001100
01000000
00010110
01000000
10000101
00000000
,
01010001
00000100
01101000
00000100
11000001
00000000
00000000
01100110
,
01100110
20022002
00000000
00000000
,
00000000
30033003
00000000
00000000
;

//---------------dance-solo - ----------------
#NOTES:
     dance-solo:
     :
     Easy:
     3:
     0.257413,0.307781,0.050758,0.010152,0.000000,355.000000,345.000000,10.000000,2.000000,0.000000,0.000000,0.257413,0.307781,0.050758,0.010152,0.000000,355.000000,345.000000,10.000000,2.000000,0.000000,0.000000:
// measure 0
000000
000000
000000
000000
,  // measure 1
000000
000000
000000
000000
,  // measure 2
000000
000000
000000
000000
,  // measure 3
000000
000000
000000
000000
,  // measure 4
000000
000010
000000
001000
,  // measure 5
000000
010000
000000
001000
,  // measure 6
000000
000100
001000
000010
,  // measure 7
010000
000001
000001
100000
,  // measure 8
100000
000010
001000
100000
,  // measure 9
001000
000001
001000
010000
,  // measure 10
001000
000010
000010
100000
,  // measure 11
000001
001000
001000
100000
,  // measure 12
000001
010000
001000
000001
,  // measure 13
001000
100000
001000
000010
,  // measure 14
001000
000100
000100
100000
,  // measure 15
000001
001000
001000
100000
,  // measure 16
000010
100001
000000
000000
,  // measure 17
000000
000010
000010
100000
,  // measure 18
000001
010000
010000
000001
,  // measure 19
001000
000010
010000
001000
,  // measure 20
000000
010000
000010
001000
,  // measure 21
000000
010000
010000
000001
,  // measure 22
100000
000010
000010
100000
,  // measure 23
001000
000010
010000
001000
,  // measure 24
000000
010000
000010
001000
,  // measure 25
000000
000100
000000
000100
,  // measure 26
000000
001000
000000
001000
,  // measure 27
000000
000001
001000
100000
,  // measure 28
001000
000010
000010
010000
,  // measure 29
010000
001000
000000
001000
,  // measure 30
000000
000100
000000
000100
,  // measure 31
000000
100000
001000
000001
,  // measure 32
001000
001000
001000
001000
,  // measure 33
000000
000010
001000
100000
,  // measure 34
001000
000001
001000
010000
,  // measure 35
001000
000100
000100
100000
,  // measure 36
000010
001000
001000
100000
,  // measure 37
000001
010000
001000
000001
,  // measure 38
001000
100000
001000
000010
,  // measure 39
001000
000100
000100
100000
,  // measure 40
000001
001000
001000
010000
,  // measure 41
000001
100000
000000
000000
,  // measure 42
000000
000001
000000
000000
,  // measure 43
000000
010000
010000
000001
,  // measure 44
100000
000010
000010
100000
,  // measure 45
000001
010000
000000
000000
,  // measure 46
000000
000001
000000
000000
,  // measure 47
000000
000100
001000
000010
,  // measure 48
100001
001000
001000
000001
,  // measure 49
000010
010000
010000
000001
,  // measure 50
100000
000010
000010
100000
,  // measure 51
000100
010000
000010
000100
,  // measure 52
000000
000010
010000
000100
,  // measure 53
000000
000010
000010
100000
,  // measure 54
000001
010000
010000
000001
,  // measure 55
000100
010000
000010
000100
,  // measure 56
000000
000010
010000
000100
,  // measure 57
000000
001000
000000
001000
,  // measure 58
000000
000100
000000
000100
,  // measure 59
000000
100000
000100
000001
,  // measure 60
000100
010000
010000
000010
,  // measure 61
000010
000100
000000
000100
,  // measure 62
000000
001000
000000
001000
,  // measure 63
000000
000001
000100
100000
,  // measure 64
000100
000100
000100
000100
,  // measure 65
000000
010000
000100
000001
,  // measure 66
000100
100000
000100
000010
,  // measure 67
000100
001000
001000
000001
,  // measure 68
010000
000100
000100
000001
,  // measure 69
100000
000010
000100
100000
,  // measure 70
000100
000001
000100
010000
,  // measure 71
000100
001000
001000
000001
,  // measure 72
100000
000100
000100
000010
,  // measure 73
100000
000001
000000
000000
,  // measure 74
000000
100000
000000
000000
,  // measure 75
000000
000010
000010
100000
,  // measure 76
000001
010000
010000
000001
,  // measure 77
100000
000010
000000
000000
,  // measure 78
000000
100000
000000
000000
,  // measure 79
000000
001000
000100
010000
,  // measure 80
100001
000100
000100
100000
,  // measure 81
000010
100000
010000
110000
,  // measure 82
000000
000001
000010
000011
,  // measure 83
000000
000001
000001
100000
,  // measure 84
001000
000100
000100
010000
,  // measure 85
001000
100000
010000
001000
,  // measure 86
000000
000001
000010
001000
,  // measure 87
000000
100000
100000
001000
,  // measure 88
000001
000100
000100
010000
,  // measure 89
000001
000001
001000
000100
,  // measure 90
001000
010000
001000
100000
,  // measure 91
001000
000010
000010
000100
,  // measure 92
000001
001000
001000
000100
,  // measure 93
010000
100000
001000
010000
,  // measure 94
001000
000100
001000
000001
,  // measure 95
001000
000010
000010
000100
,  // measure 96
010000
001000
001000
100000
,  // measure 97
010000
000100
000000
000000
,  // measure 98
000000
010000
000000
000000
,  // measure 99
000000
100000
100000
010000
,  // measure 100
000100
000001
000001
000100
,  // measure 101
010000
100000
000000
000000
,  // measure 102
000000
010000
000000
000000
,  // measure 103
000000
000010
001000
000001
,  // measure 104
010100
001000
001000
010000
,  // measure 105
100000
100000
010000
010100
,  // measure 106
000000
000001
000010
000110
,  // measure 107
000000
100000
000001
001100
,  // measure 108
000000
010000
000010
010000
,  // measure 109
000010
020020
000000
000000
,  // measure 110
000000
030030
000000
000000
;

//---------------dance-solo - ----------------
#NOTES:
     dance-solo:
     :
     Medium:
     5:
     0.290768,0.502500,0.395909,0.010152,0.000000,401.000000,323.000000,78.000000,2.000000,0.000000,0.000000,0.290768,0.502500,0.395909,0.010152,0.000000,401.000000,323.000000,78.000000,2.000000,0.000000,0.000000:
000000
000000
000000
000000
,
000000
000000
000000
000000
,
000000
000000
000000
000000
,
000000
000000
000000
000000
,
000000
000010
001000
100000
,
001000
000001
001000
010000
,
001000
000010
000010
010000
,
010000
001000
001000
100000
,
100000
000000
000010
000000
010000
000000
000001
100000
,
001000
000000
010000
000000
000010
000000
100000
000001
,
001000
010100
010010
001000
,
001000
000110
010010
001000
,
001000
000000
000010
000000
010000
000000
000001
100000
,
001000
000000
010000
000000
000010
000000
100000
000001
,
001000
010100
010010
001000
,
001000
000110
010010
001000
,
001000
100001
000000
000000
,
000000
000000
010000
000000
000010
010000
000001
000000
,
010000
000010
100000
000000
100000
000001
000000
000000
,
000000
010010
001001
101000
,
000001
100000
001000
000000
000100
000000
100001
000000
,
000000
000001
100000
000010
,
010000
000000
001000
000000
100000
000001
000000
000000
,
000000
010010
001001
101000
,
000001
100000
001000
000000
000100
001000
000000
000000
,
000000
000000
000100
000000
100000
000001
001000
000000
,
010000
000000
000010
000000
100000
000001
000000
000000
,
000000
000100
001000
100000
,
000001
001000
001000
000100
,
000100
000000
100000
000000
000001
001000
000001
000000
,
010000
000000
000010
000000
100000
001000
000000
000000
,
000000
000000
100000
000000
001000
000100
001000
000000
,
010000
000010
001000
001000
,
000000
000000
000010
000000
010000
000000
000001
100000
,
001000
000000
010000
000000
000010
000000
100000
000001
,
001000
000110
010010
001000
,
001000
010100
010010
001000
,
001000
000000
000010
000000
010000
000000
000001
100000
,
001000
000000
010000
000000
000010
000000
100000
000001
,
001000
000110
010010
001000
,
001000
010100
010010
001000
,
001000
100000
001000
000001
,
001000
010000
000010
100000
,
001000
000110
101000
000001
,
000001
010100
001001
100000
,
001000
000100
000001
100000
,
001000
100000
000001
000100
,
001000
000110
000110
101000
,
101000
010100
010100
001001
,
001001
100001
000000
000000
,
000000
000000
000000
000000
,
000000
000000
000000
000000
,
000000
000000
000000
000000
,
000000
000000
000000
000000
,
000000
000000
000000
000000
,
000000
000000
000000
000000
,
000000
000000
000000
000000
,
000000
000000
000000
000000
,
000000
000000
000000
000000
,
000000
000000
000000
000000
,
000000
000000
000000
000000
,
000000
000000
000000
000000
,
000000
000000
000000
000000
,
000000
000000
000000
000000
,
000000
000000
000000
000000
,
000000
000000
010000
000000
000010
000000
100000
000001
,
000100
000000
000010
000000
010000
000000
000001
100000
,
000100
011000
010010
000100
,
000100
001010
010010
000100
,
000100
000000
010000
000000
000010
000000
100000
000001
,
000100
000000
000010
000000
010000
000000
000001
100000
,
000100
011000
010010
000100
,
000100
001010
010010
000100
,
000100
000001
000100
100000
,
000100
000010
010000
000001
,
000100
011000
000101
100000
,
100000
001010
100100
000001
,
000100
001000
100000
000001
,
000100
000001
100000
001000
,
000100
011000
011000
000101
,
000101
001010
001010
100100
,
100100
000000
000000
000000
,
000000
000000
000000
000000
,
000000
000000
000000
000000
,
000000
000000
000000
000000
,
000000
000000
000000
000000
,
000000
000000
000000
000000
,
000000
000000
000000
000000
,
000000
000000
000000
000000
,
000000
000000
000001
000000
100000
000000
010000
000100
,
001000
000000
100000
000000
000001
000000
000100
010000
,
001000
000011
100001
001000
,
001000
100010
100001
001000
,
001000
000000
000001
000000
100000
000000
010000
000100
,
001000
000000
100000
000000
000001
000000
000100
010000
,
001000
000011
100001
001000
,
001000
100010
100001
001000
,
001000
000100
001000
010000
,
001000
100000
000001
000100
,
001000
000011
001100
010000
,
010000
100010
011000
000100
,
001000
000010
010000
000100
,
001000
000100
010000
000010
,
001000
000011
000011
001100
,
001100
100010
100010
011000
,
011000
000000
000000
000000
,
000000
000000
000000
000000
,
000000
000000
000000
000000
,
000000
000000
000000
000000
,
000000
020020
000000
000000
,
030030
000000
000000
000000
;

//---------------dance-solo - ----------------
#NOTES:
     dance-solo:
     :
     Hard:
     7:
     0.334275,0.502500,0.238561,0.010152,0.142121,461.000000,414.000000,47.000000,2.000000,0.000000,0.000000,0.334275,0.502500,0.238561,0.010152,0.142121,461.000000,414.000000,47.000000,2.000000,0.000000,0.000000:
000000
000000
000000
000000
,
000000
000000
000000
000000
,
000000
000000
000000
000000
,
000000
000000
000000
000000
,
000000
000000
010000
000000
000001
001000
000001
000000
,
000100
000000
001000
100000
001000
100000
000000
000001
,
010000
000010
000010
100000
,
100000
000000
000001
100000
000001
001000
000000
100000
,
001000
000000
010000
000000
000001
000000
100000
000001
,
001000
000000
000010
000000
100000
000000
000001
100000
,
001000
000000
000000
000000
100000
000000
000100
100000
000000
000100
100000
000000
000010
000000
000000
000000
,
001000
000000
000000
000000
000001
000000
000100
000001
000000
000100
000001
000000
010000
000000
000000
000000
,
001000
000000
000010
000000
100000
000000
000001
100000
,
001000
000000
010000
000000
000001
000000
100000
000001
,
001000
000000
000000
000000
000001
000000
000100
000001
000000
000100
000001
000000
010000
000000
000000
000000
,
001000
000000
000000
000000
100000
000000
000100
100000
000000
000100
100000
000000
000010
000000
000000
000000
,
001000
100001
000000
000000
,
000000
000100
001000
000000
100000
000001
001000
000000
,
010000
000010
001000
000000
100000
000001
000000
000000
,
000000
010010
101000
001001
,
100000
001000
100001
000000
000100
000000
010010
000000
,
000001
100000
001000
000000
100000
000000
000001
000000
,
001000
000000
000100
000000
100000
000001
000000
000000
,
000000
010010
101000
001001
,
100000
000000
000001
000000
000100
001000
000000
000000
,
000000
000000
100000
000000
000001
001000
000001
000000
,
100000
000000
000001
000000
000100
000001
000000
000000
,
000000
010000
010000
000010
,
000010
000100
000001
100000
,
001000
000000
000001
000000
100000
001000
100000
000000
,
000010
000000
010000
000000
000001
100000
000000
000000
,
000000
000000
000010
000000
000010
010000
001000
000000
,
100000
001000
001000
001000
,
000000
000000
010000
000000
000001
000000
100000
000001
,
001000
000000
000010
000000
100000
000000
000001
100000
,
001000
000000
000000
000000
100000
000000
000100
100000
000000
000100
100000
000000
000010
000000
000000
000000
,
001000
000000
000000
000000
000001
000000
000100
000001
000000
000100
000001
000000
010000
000000
000000
000000
,
001000
000000
000010
000000
100000
000000
000001
100000
,
001000
000000
010000
000000
000001
000000
100000
000001
,
001000
000000
000000
000000
000001
000000
000100
000001
000000
000100
000001
000000
010000
000000
000000
000000
,
001000
000000
000000
000000
100000
000000
000100
100000
000000
000100
100000
000000
000010
000000
000000
000000
,
001000
000010
101000
010000
,
001001
100000
101000
000001
,
001001
000000
000000
000000
000001
000000
000100
000001
000000
000100
000001
000000
010000
000000
000000
000000
,
001000
000000
000000
000000
100000
000000
000100
100000
000000
000100
100000
000000
000010
000000
000000
000000
,
001000
000001
101000
100000
,
001001
101000
101000
001001
,
001001
000000
000000
000000
000001
000000
000100
000001
000000
000100
000001
000000
010000
000000
000000
000000
,
101000
000000
000000
000000
100000
000000
000100
100000
000000
000100
100000
000000
000010
000000
000000
000000
,
001001
100001
000000
000000
,
000000
000000
000000
000000
,
000000
000000
000000
000000
,
000000
000000
000000
000000
,
000000
000000
000000
000000
,
000000
000000
000000
000000
,
000000
000000
000000
000000
,
000000
000000
000000
000000
,
000000
000000
000000
000000
,
000000
000000
000000
000000
,
000000
000000
000000
000000
,
000000
000000
000000
000000
,
000000
000000
000000
000000
,
000000
000000
000000
000000
,
000000
000000
000000
000000
,
000000
000000
000000
000000
,
000000
000000
000010
000000
100000
000000
000001
100000
,
000100
000000
010000
000000
000001
000000
100000
000001
,
000100
000000
000000
000000
000001
000000
001000
000001
000000
001000
000001
000000
010000
000000
000000
000000
,
000100
000000
000000
000000
100000
000000
001000
100000
000000
001000
100000
000000
000010
000000
000000
000000
,
000100
000000
010000
000000
000001
000000
100000
000001
,
000100
000000
000010
000000
100000
000000
000001
100000
,
000100
000000
000000
000000
100000
000000
001000
100000
000000
001000
100000
000000
000010
000000
000000
000000
,
000100
000000
000000
000000
000001
000000
001000
000001
000000
001000
000001
000000
010000
000000
000000
000000
,
000100
010000
000101
000010
,
100100
000001
000101
100000
,
100100
000000
000000
000000
100000
000000
001000
100000
000000
001000
100000
000000
000010
000000
000000
000000
,
000100
000000
000000
000000
000001
000000
001000
000001
000000
001000
000001
000000
010000
000000
000000
000000
,
000100
100000
000101
000001
,
100100
000101
000101
100100
,
100100
000000
000000
000000
100000
000000
001000
100000
000000
001000
100000
000000
000010
000000
000000
000000
,
000101
000000
000000
000000
000001
000000
001000
000001
000000
001000
000001
000000
010000
000000
000000
000000
,
100100
000000
000000
000000
,
000000
000000
000000
000000
,
000000
000000
000000
000000
,
000000
000000
000000
000000
,
000000
000000
000000
000000
,
000000
000000
000000
000000
,
000000
000000
000000
000000
,
000000
000000
000000
000000
,
000000
000000
100000
000000
010000
000000
000100
010000
,
001000
000000
000001
000000
000100
000000
010000
000100
,
001000
000000
000000
000000
000100
000000
000010
000100
000000
000010
000100
000000
000001
000000
000000
000000
,
001000
000000
000000
000000
010000
000000
000010
010000
000000
000010
010000
000000
100000
000000
000000
000000
,
001000
000000
000001
000000
000100
000000
010000
000100
,
001000
000000
100000
000000
010000
000000
000100
010000
,
001000
000000
000000
000000
010000
000000
000010
010000
000000
000010
010000
000000
100000
000000
000000
000000
,
001000
000000
000000
000000
000100
000000
000010
000100
000000
000010
000100
000000
000001
000000
000000
000000
,
001000
000001
001100
100000
,
011000
000100
001100
010000
,
011000
000000
000000
000000
010000
000000
000010
010000
000000
000010
010000
000000
100000
000000
000000
000000
,
001000
000000
000000
000000
000100
000000
000010
000100
000000
000010
000100
000000
000001
000000
000000
000000
,
001000
010000
001100
000100
,
011000
001100
001100
011000
,
011000
000000
000000
000000
010000
000000
000010
010000
000000
000010
010000
000000
100000
000000
000000
000000
,
001100
000000
000000
000000
000100
000000
000010
000100
000000
000010
000100
000000
000001
000000
000000
000000
,
011000
000000
000000
000000
,
000000
000000
000000
000000
,
000000
000000
000000
000000
,
000000
000000
000000
000000
,
000000
020020
000000
000000
,
030030
000000
000000
000000
;

//---------------dance-single - ----------------
#NOTES:
     dance-single:
     :
     Beginner:
     1:
     0.214632,0.390833,0.213182,0.010152,0.000000,296.000000,254.000000,42.000000,2.000000,0.000000,0.000000,0.214632,0.390833,0.213182,0.010152,0.000000,296.000000,254.000000,42.000000,2.000000,0.000000,0.000000:
0000
0000
0000
0000
,
0000
0000
0000
0000
,
0000
0000
0000
0000
,
0000
0000
0000
0000
,
0000
0001
0000
0000
,
0000
1000
0000
0000
,
0000
0010
0000
0000
,
0000
1001
0000
0000
,
0000
0001
0000
1000
,
0000
0100
0100
0100
,
0000
1000
1000
1000
,
0000
0001
0001
0001
,
0000
0010
0000
0100
,
0000
0010
0010
0010
,
0000
0001
0001
0001
,
0000
1000
1000
1000
,
0000
1001
0000
0000
,
0000
0100
0000
0100
,
0000
0010
0010
0010
,
0000
0001
0001
0001
,
0000
1000
1000
1000
,
0000
0100
0000
0010
,
0000
0001
0001
0001
,
0000
1000
1000
1000
,
1000
1000
1000
1000
,
0000
1000
0000
0001
,
0000
1000
0000
0001
,
0000
0100
0100
0100
,
0000
0010
0010
0010
,
0000
0001
0000
1000
,
0000
0001
0000
1000
,
0000
0010
0000
0100
,
0000
1001
0000
0000
,
0000
0001
0000
1000
,
0000
0100
0100
0100
,
0000
1000
1000
1000
,
0000
0001
0001
0001
,
0000
0010
0000
0100
,
0000
0010
0000
0100
,
0000
0010
0010
0010
,
0000
0100
0100
0100
,
0000
1000
0000
0010
,
0000
0001
0000
0100
,
0000
1000
1000
1000
,
0000
0001
0001
0001
,
0000
1000
0000
0001
,
0000
0100
0000
0001
,
0000
1000
1000
1000
,
0000
0001
0001
0001
,
0000
1001
0000
0100
,
0000
0010
0010
0010
,
0000
0100
0100
0100
,
0000
0010
0010
0010
,
0000
0001
0000
1000
,
0000
0001
0000
1000
,
0000
0100
0000
0010
,
0000
0100
0000
0010
,
0000
0001
0000
1000
,
0000
0001
0000
1000
,
0000
0010
0010
0010
,
0000
0100
0100
0100
,
0000
1000
0000
0001
,
0000
1000
0000
0001
,
0000
0100
0000
0010
,
0000
1001
0000
0000
,
0000
0010
0000
0100
,
0000
1000
0000
0001
,
0000
0100
0100
0000
,
1001
0000
0010
0000
,
1001
0000
0010
0010
,
0010
0000
1000
1000
,
0000
0010
0010
0000
,
1001
0000
0100
0000
,
1001
0000
0100
0100
,
0100
0100
0100
0100
,
0000
0001
0001
0000
,
0110
0000
1000
0000
,
0110
0000
0010
0010
,
0010
0010
0010
0010
,
0000
1000
1000
0000
,
0110
0000
0001
0000
,
0110
0000
1001
0000
,
1001
0000
1001
0000
,
0000
0100
0100
0000
,
1001
0000
0010
0000
,
1001
0000
0110
0000
,
0110
0000
0110
0000
,
0000
1001
1001
1001
,
0000
1001
1001
1001
,
0000
0001
0000
1000
,
0000
0001
0000
1000
,
0000
0001
0001
0000
,
0110
0000
1000
0000
,
0110
0000
0100
0000
,
0100
0000
0010
0010
,
0000
0001
0001
0001
,
0000
1000
1000
1000
,
0000
0001
0000
0001
,
0000
1000
0000
1000
,
0000
0110
0110
0110
,
0000
1001
1001
1001
,
0000
1000
0000
1000
,
0000
0001
0000
0001
,
0000
0001
0001
0001
,
0000
1000
1000
1000
,
0000
0010
0010
0010
,
0000
0100
0100
0100
,
0000
1001
1001
1001
,
0000
0110
0110
0110
,
0000
2002
0000
0000
,
3003
0000
0000
0000
;
