#VERSION:0.83;
#TITLE:All The Things She Said;
#SUBTITLE:;
#ARTIST:t.A.T.u.;
#TITLETRANSLIT:;
#SUBTITLETRANSLIT:;
#ARTISTTRANSLIT:;
#GENRE:;
#ORIGIN:;
#CREDIT:;
#BANNER:TATU - All The Things She Said.png;
#BACKGROUND:TATU - All The Things She Said-bg.png;
#PREVIEWVID:;
#JACKET:TATU - All The Things She Said-jacket.png;
#CDIMAGE:;
#DISCIMAGE:;
#LYRICSPATH:t.A.T.u. - All the Things She said.lrc;
#CDTITLE:DDRTM.PNG;
#MUSIC:TATU - All The Things She Said.mp3;
#OFFSET:11.167017;
#SAMPLESTART:57.246883;
#SAMPLELENGTH:15.000000;
#SELECTABLE:YES;
#BPMS:0.000=180.000;
#STOPS:;
#DELAYS:;
#WARPS:;
#TIMESIGNATURES:0.000=4=4;
#TICKCOUNTS:0.000=4;
#COMBOS:0.000=1;
#SPEEDS:0.000=1.000=0.000=0;
#SCROLLS:0.000=1.000;
#FAKES:;
#LABELS:0.000=Song Start;
#BGCHANGES:0.250=t.A.T.u. - All The Things She Said.avi=1.000=1=0=1===CrossFade==,
99999=-nosongbg-=1.000=0=0=0 // don't automatically add -songbackground-
;
#KEYSOUNDS:;
#ATTACKS:
;

//---------------dance-single - ----------------
#NOTEDATA:;
#CHARTNAME:;
#STEPSTYPE:dance-single;
#DESCRIPTION:;
#CHARTSTYLE:;
#DIFFICULTY:Beginner;
#METER:2;
#RADARVALUES:0.249913,0.390406,0.023325,0.065311,0.006998,375.000000,370.000000,5.000000,14.000000,0.000000,0.000000,0.000000,0.000000,0.000000,0.249913,0.390406,0.023325,0.065311,0.006998,375.000000,370.000000,5.000000,14.000000,0.000000,0.000000,0.000000,0.000000,0.000000;
#CREDIT:;
#NOTES:
// measure 0
0000
0000
0000
0000
,  // measure 1
0000
0000
0000
0000
,  // measure 2
0000
0000
0000
0000
,  // measure 3
0000
0000
0000
0000
,  // measure 4
0000
0000
0000
0000
,  // measure 5
0000
0000
0000
0000
,  // measure 6
0000
0000
0000
0000
,  // measure 7
0000
0000
0000
0000
,  // measure 8
0000
0000
2002
0000
,  // measure 9
0000
0000
0000
0000
,  // measure 10
0000
0000
0000
0000
,  // measure 11
0000
0000
0000
0000
,  // measure 12
0000
0000
0000
0000
,  // measure 13
0000
0000
0000
0000
,  // measure 14
0000
0000
0000
0000
,  // measure 15
0000
0000
0000
0000
,  // measure 16
3003
0000
0000
0010
,  // measure 17
0010
0000
0100
0100
,  // measure 18
0100
0000
0010
0010
,  // measure 19
0010
0000
1000
1000
,  // measure 20
1000
0000
0001
0001
,  // measure 21
0001
0000
0100
0100
,  // measure 22
0100
0000
0001
0001
,  // measure 23
0001
0000
0010
0010
,  // measure 24
0010
0000
0100
0100
,  // measure 25
0100
0000
0010
0000
,  // measure 26
0100
0000
0010
0000
,  // measure 27
1000
0000
2000
0000
0000
3000
0000
0000
,  // measure 28
0000
0002
0000
0000
0000
0000
0000
0000
0003
0000
0000
0000
0000
0000
0000
0000
,  // measure 29
0000
2000
0000
0000
0000
0000
0000
0000
3000
0000
0000
0000
0000
0000
0000
0000
,  // measure 30
0000
0002
0000
0000
0000
0000
0000
0000
0003
0000
0000
0000
0000
0000
0000
0000
,  // measure 31
1000
0000
0001
0000
,  // measure 32
0001
0000
1000
0000
,  // measure 33
0000
0100
0100
0000
,  // measure 34
1000
0000
0010
0010
,  // measure 35
0010
0000
1000
1000
,  // measure 36
1000
0000
0100
0100
,  // measure 37
0100
0000
1000
1000
,  // measure 38
1000
0000
0010
0010
,  // measure 39
0010
0000
0100
0100
,  // measure 40
0100
0000
0001
0001
,  // measure 41
0001
0000
0100
0100
,  // measure 42
0100
0000
0001
0001
,  // measure 43
0001
0000
0010
0010
,  // measure 44
0010
0000
0100
0100
,  // measure 45
0100
0000
0010
0010
,  // measure 46
0010
0000
0010
0010
,  // measure 47
0010
0000
1001
1001
,  // measure 48
1001
0000
0100
0100
,  // measure 49
0100
0000
0010
0000
,  // measure 50
0010
0000
0010
0000
,  // measure 51
0010
0000
0001
0001
,  // measure 52
0001
0000
1000
1000
,  // measure 53
1000
0000
0100
0100
,  // measure 54
0100
0000
0010
0010
,  // measure 55
0010
0000
1000
1000
,  // measure 56
1000
0000
0010
0010
,  // measure 57
0010
0000
0100
0100
,  // measure 58
0100
0000
0010
0010
,  // measure 59
0010
0000
0100
0000
,  // measure 60
0001
0000
1000
0000
,  // measure 61
0100
0200
0000
0000
,  // measure 62
0300
0000
0001
0000
,  // measure 63
1000
0000
0100
0000
,  // measure 64
1000
0000
0100
0000
,  // measure 65
0001
0002
0000
0003
,  // measure 66
0000
0100
0100
0000
,  // measure 67
0010
0010
0010
0000
,  // measure 68
0010
0010
0000
0100
,  // measure 69
0100
0000
0000
1000
,  // measure 70
1000
0000
0001
0001
,  // measure 71
0001
0000
0000
0001
,  // measure 72
0000
0001
0000
0100
,  // measure 73
0000
0100
0000
0001
,  // measure 74
0000
0001
0000
0100
,  // measure 75
0000
0100
0000
1000
,  // measure 76
0000
1000
0000
0001
,  // measure 77
0000
0001
0000
0100
,  // measure 78
0000
0100
0000
0001
,  // measure 79
0000
0001
0000
0010
,  // measure 80
0000
0010
0000
1000
,  // measure 81
0000
1000
0000
0001
,  // measure 82
0000
0001
0000
0100
,  // measure 83
0000
0100
0000
0100
,  // measure 84
0000
0100
0000
0010
,  // measure 85
0000
0010
0000
0001
,  // measure 86
0000
0001
0000
1000
,  // measure 87
0000
1000
0000
0010
,  // measure 88
0000
0010
0000
0001
,  // measure 89
0001
0000
0100
0100
,  // measure 90
0100
0000
0001
0001
,  // measure 91
0001
0000
1000
1000
,  // measure 92
1000
0000
0001
0001
,  // measure 93
0001
0000
1000
1000
,  // measure 94
1000
0000
0010
0010
,  // measure 95
0010
0000
0010
0010
,  // measure 96
0010
0000
1000
1000
,  // measure 97
1000
0000
0010
0010
,  // measure 98
0010
0000
0001
0001
,  // measure 99
0001
0000
0100
0100
,  // measure 100
0100
0000
1000
1000
,  // measure 101
1000
0000
0010
0010
,  // measure 102
0010
0000
0100
0100
,  // measure 103
0100
0000
0001
0001
,  // measure 104
0001
0000
1000
1000
,  // measure 105
1000
0000
0001
0001
,  // measure 106
0001
0000
1000
1000
,  // measure 107
1000
0000
0100
0100
,  // measure 108
0100
0000
0010
0010
,  // measure 109
0010
0000
0100
0100
,  // measure 110
0100
0000
0001
0001
,  // measure 111
0001
0000
1000
0000
,  // measure 112
0010
0000
0001
0000
,  // measure 113
0001
0002
0000
0000
,  // measure 114
0003
0000
0010
0000
,  // measure 115
0010
0000
0010
0000
,  // measure 116
0100
0000
0001
0000
,  // measure 117
1000
2000
0000
3000
,  // measure 118
0000
0001
0001
0001
,  // measure 119
0000
1000
1000
0000
,  // measure 120
0010
0010
0000
0100
,  // measure 121
0100
0000
0000
0010
,  // measure 122
0010
0000
0100
0100
,  // measure 123
0000
0010
0010
0010
,  // measure 124
0000
1000
1000
0000
,  // measure 125
0000
1000
1000
1000
,  // measure 126
0000
0010
0010
0010
,  // measure 127
0010
0000
0100
0000
,  // measure 128
0100
0000
0010
0010
,  // measure 129
0010
0000
1000
0000
,  // measure 130
0010
0000
0100
0100
,  // measure 131
0100
0000
0100
0000
,  // measure 132
1000
0000
0001
0000
,  // measure 133
0001
0002
0000
0000
,  // measure 134
0000
0000
0003
0000
,  // measure 135
0000
0000
1000
0000
,  // measure 136
0010
0000
0001
0001
,  // measure 137
0001
0000
0100
0000
,  // measure 138
0001
0000
1000
1000
,  // measure 139
1000
0000
0010
0000
,  // measure 140
0100
0000
0010
0000
,  // measure 141
0010
0020
0000
0000
,  // measure 142
0000
0000
0000
0030
,  // measure 143
0000
0000
0010
0010
,  // measure 144
0010
0000
1000
1000
,  // measure 145
1000
0000
0001
0001
,  // measure 146
0001
0000
0100
0100
,  // measure 147
0100
0000
1000
1000
,  // measure 148
1000
0000
0001
0001
,  // measure 149
0001
0000
1000
1000
,  // measure 150
1000
0000
0010
0010
,  // measure 151
0010
0000
0010
0000
,  // measure 152
0001
0000
0100
0000
,  // measure 153
0010
0020
0000
0000
,  // measure 154
0000
0030
0000
0000
,  // measure 155
0010
0000
0100
0000
,  // measure 156
1000
0000
0010
0000
,  // measure 157
0001
0002
0000
0000
,  // measure 158
0000
0000
0000
0000
0000
0003
0000
0000
,  // measure 159
0100
0100
0100
0000
,  // measure 160
1000
1000
0000
0010
,  // measure 161
0010
0000
0100
0100
,  // measure 162
0000
0001
0001
0000
,  // measure 163
1000
1000
0000
0100
,  // measure 164
0100
0000
0010
0010
,  // measure 165
0000
1000
1000
0000
,  // measure 166
0010
0010
0000
1001
,  // measure 167
0000
0010
0010
0010
0000
0000
0000
0000
;

//---------------dance-single - ----------------
#NOTEDATA:;
#CHARTNAME:;
#STEPSTYPE:dance-single;
#DESCRIPTION:;
#CHARTSTYLE:;
#DIFFICULTY:Hard;
#METER:13;
#RADARVALUES:0.787060,0.858894,0.704422,0.214592,0.275238,1181.000000,1030.000000,151.000000,46.000000,0.000000,0.000000,0.000000,0.000000,0.000000,0.787060,0.858894,0.704422,0.214592,0.275238,1181.000000,1030.000000,151.000000,46.000000,0.000000,0.000000,0.000000,0.000000,0.000000;
#CREDIT:;
#NOTES:
// measure 0
0000
0000
0000
0000
,  // measure 1
0000
0000
0000
0000
,  // measure 2
0000
0000
0000
0000
,  // measure 3
0000
0000
0000
0000
,  // measure 4
0000
0000
0000
0000
,  // measure 5
0000
0000
0000
0000
,  // measure 6
0000
0000
0000
0000
,  // measure 7
0000
0000
0000
0000
,  // measure 8
0000
0000
2000
0100
,  // measure 9
0001
0001
3100
0000
0002
0000
0010
0000
,  // measure 10
1000
1000
0013
0000
0200
0000
0001
0000
,  // measure 11
1000
1000
0301
0000
0020
0000
1000
0000
,  // measure 12
0001
0001
1030
0000
0002
0000
0100
0000
,  // measure 13
1000
1000
0103
0000
2000
0000
0010
0000
,  // measure 14
0001
0001
3010
0000
0020
0000
1000
0000
,  // measure 15
0100
0100
1030
0000
0200
0000
1000
0000
,  // measure 16
1000
0000
1000
0000
1300
0000
0000
0000
0001
0000
1000
0000
0000
0000
0100
0010
,  // measure 17
0100
0000
0000
0000
0110
0000
0000
0000
0001
1000
0001
0000
0010
0000
0100
0000
,  // measure 18
1001
0000
0100
0001
0100
1000
0011
0000
,  // measure 19
0001
0100
1000
0010
0101
0000
0100
1000
,  // measure 20
0100
0010
1001
0000
1000
0010
0001
0100
,  // measure 21
1000
0000
0001
0000
0110
0000
0000
0000
1000
0001
1000
0000
0100
0000
0010
0000
,  // measure 22
1001
0000
1000
0100
0010
0001
0101
0000
,  // measure 23
1000
0100
0001
0010
1001
0000
0001
0010
,  // measure 24
0100
1000
0011
0000
0001
0010
1000
0001
,  // measure 25
0220
0000
0000
0000
0330
0000
0000
0000
1000
0010
1000
0010
1000
0000
0000
0000
,  // measure 26
0001
0010
0001
0010
0001
0000
0000
0000
1000
0010
1000
0010
1000
0000
0000
0000
,  // measure 27
0000
0100
0010
0000
0000
1000
0001
0000
0000
0010
0100
0000
0000
0001
1000
0000
,  // measure 28
0000
0010
0100
0000
0000
0001
1000
0000
0000
1000
0001
0000
0000
0100
0010
0000
,  // measure 29
0000
1000
0001
0000
0000
0010
0100
0000
0000
0100
0010
0000
0000
1000
0001
0000
,  // measure 30
0000
0010
0100
0000
0000
1000
0001
0000
0000
0001
1000
0000
0000
0010
0100
0000
,  // measure 31
0000
0220
0330
0220
0330
0001
0100
1000
,  // measure 32
0010
0000
0001
0000
1000
0000
0100
0000
0001
0000
1000
0000
0010
0100
0010
0100
,  // measure 33
0010
0000
1100
0001
1100
0000
0000
0110
,  // measure 34
0000
0000
1000
0001
0100
0010
0100
0100
,  // measure 35
0000
1001
0000
0001
1000
0010
0100
0010
,  // measure 36
0000
1001
0000
0010
1000
0100
0001
1000
,  // measure 37
0000
1001
0000
0010
1000
0001
0100
0010
,  // measure 38
0000
1001
0000
0010
0100
0001
1000
0010
,  // measure 39
0000
1001
0000
0100
0100
0001
1000
0010
,  // measure 40
0000
1001
0000
0010
0001
0010
0100
1000
,  // measure 41
0000
1001
0000
0010
1000
0001
1000
0100
,  // measure 42
0001
0110
0000
1000
0100
0010
0100
0001
,  // measure 43
1000
0110
0000
0001
0010
0100
0010
1000
,  // measure 44
0001
0110
0000
1000
0001
1000
0010
0100
,  // measure 45
0001
0110
0000
0001
0100
0010
1000
0100
,  // measure 46
0001
0110
0000
0001
0100
0010
0100
0001
,  // measure 47
1000
0110
0001
1000
0100
0010
0100
0001
,  // measure 48
1000
0110
0000
0001
1000
0010
0100
1000
,  // measure 49
0001
0110
0000
1000
0001
0010
0100
0010
,  // measure 50
0001
0010
0000
1000
0100
0001
0010
0100
,  // measure 51
1000
0000
0001
0000
0100
0000
0000
0000
1000
0001
1000
0000
0010
0000
0100
0000
,  // measure 52
1010
0000
0001
1000
0010
0100
0011
0000
,  // measure 53
0100
0001
0010
1000
0110
0000
0100
1000
,  // measure 54
0010
0001
1100
0000
0001
0100
1000
1000
,  // measure 55
0010
0000
0001
0000
0101
0000
0000
0000
0001
1000
0001
0000
0100
0000
1000
0000
,  // measure 56
1000
0000
0010
0100
0010
0001
1100
0000
,  // measure 57
0100
0010
0100
1000
0101
0000
0010
0001
,  // measure 58
1000
0100
0011
0000
0100
0010
0001
1000
,  // measure 59
0010
0100
0010
0100
0010
0000
0000
0000
1000
0100
1000
0100
1000
0000
0000
0000
,  // measure 60
0001
0100
0001
0100
0001
0000
0000
0000
1000
0001
1000
0001
1000
0000
0000
0000
,  // measure 61
0000
0011
0000
0000
2020
0000
0000
0000
0000
0000
0000
0000
0000
0000
0000
0000
,  // measure 62
3030
0000
1001
0000
0000
0001
0100
1000
,  // measure 63
1001
0000
0000
0000
0000
0001
0010
0001
0010
0000
0000
0000
0000
1000
0010
1000
,  // measure 64
0010
0000
0000
0000
0000
0100
0010
0100
0010
0000
0000
0000
0000
0000
0000
0000
,  // measure 65
0000
1100
0000
0000
0202
0000
0000
0000
0000
0000
0000
0000
0303
0000
0000
0000
,  // measure 66
0001
1000
0001
0100
0011
0000
1000
0100
,  // measure 67
0010
0100
0101
0000
0000
0000
0010
0100
,  // measure 68
0010
1000
1001
0000
0010
0001
1000
0100
,  // measure 69
0110
0000
0000
0000
0100
1000
0001
1000
,  // measure 70
0011
0000
0010
0001
1000
0001
1010
0000
,  // measure 71
0000
0000
0000
0000
1001
0001
0100
1000
,  // measure 72
0101
0100
0001
0010
0100
1000
0001
0001
,  // measure 73
0110
0100
1000
0010
0100
0001
0010
1000
,  // measure 74
0101
0100
0010
1000
0001
0100
1000
0010
,  // measure 75
0101
0100
1000
0001
0100
0010
0001
0100
,  // measure 76
1010
1000
0001
0010
0100
0010
1000
0001
,  // measure 77
1100
1000
0001
0100
0010
1000
0001
0010
,  // measure 78
1010
0000
1000
0000
0001
0000
0010
0000
0100
0000
0010
0000
1000
0001
1000
0001
,  // measure 79
1000
0100
0010
1000
0001
0100
0010
0001
,  // measure 80
0011
0010
0100
1000
0001
0010
1000
0100
,  // measure 81
0011
0001
1000
0100
0010
0001
0100
0010
,  // measure 82
1010
1000
0100
0010
0001
1000
0010
0001
,  // measure 83
0101
0100
0010
1000
0001
1000
0100
0010
,  // measure 84
0101
0100
0010
0001
1000
0100
0010
1000
,  // measure 85
0101
0100
1000
0010
0100
0001
1000
0010
,  // measure 86
1010
0000
1000
0000
0001
0000
0100
0000
0010
0000
0010
0000
0001
1000
0001
1000
,  // measure 87
0001
0000
1100
0001
1000
0010
0201
0000
,  // measure 88
0310
0000
1100
0001
0010
0100
0001
0210
,  // measure 89
0000
0000
0310
1000
0100
0010
0001
0120
,  // measure 90
0000
0000
0130
1000
0010
0100
0001
0120
,  // measure 91
0000
0030
0100
0010
0001
0100
0010
0120
,  // measure 92
0000
0000
0130
0001
0100
0001
0010
2100
,  // measure 93
0000
0000
3100
0010
0001
1000
0001
0021
,  // measure 94
0000
0000
0130
0100
0001
0001
1000
1020
,  // measure 95
0000
0000
1030
0100
0100
0001
0010
0100
,  // measure 96
0101
0100
1000
0010
0001
0100
0001
1200
,  // measure 97
0000
0000
0000
0310
1000
0010
0100
1020
,  // measure 98
0000
0000
0031
0100
1000
0001
0100
0012
,  // measure 99
0000
0000
0103
0100
1000
0010
0100
0210
,  // measure 100
0000
0000
0301
1000
0100
0010
0001
0201
,  // measure 101
0000
0000
1300
0100
0001
0100
0100
2001
,  // measure 102
0000
0000
0000
3001
0100
0010
0001
0100
,  // measure 103
1001
0000
0000
0000
0000
0000
0000
0000
1000
0010
1000
0000
0001
0000
0010
0000
,  // measure 104
0110
0000
1000
0100
0001
0010
1010
0000
,  // measure 105
0010
1000
0001
0100
0101
0000
0010
0100
,  // measure 106
0001
1000
1010
0000
1000
0010
0100
0100
,  // measure 107
0001
0000
1100
0000
0101
0000
0000
0000
0001
0010
0001
0000
0010
0000
0100
0000
,  // measure 108
0110
0000
0001
0010
0001
1000
1100
0000
,  // measure 109
0010
0001
0010
0100
1001
0000
0001
1000
,  // measure 110
0100
0010
1010
0000
0010
0001
1000
0010
,  // measure 111
0001
0000
0100
0000
0110
0000
0000
0000
0100
0010
0100
0010
0100
0000
0000
0000
,  // measure 112
1000
0100
1000
0100
1000
0000
0000
0000
0010
0001
0010
0001
0010
0000
0000
0000
,  // measure 113
0000
0110
0000
0000
2002
0000
0000
0000
0000
0000
0000
0000
0000
0000
0000
0000
,  // measure 114
3003
0000
0100
0000
1010
1000
0010
0100
,  // measure 115
1000
0000
1001
0000
0000
0000
0100
0001
0100
0001
0100
0000
0000
0000
1000
0010
,  // measure 116
1000
0010
1000
0000
0000
0000
0001
0100
0001
0100
0001
0000
0000
0000
0000
0000
,  // measure 117
0000
1010
0000
0000
0022
0000
0000
0000
0000
0000
0000
0000
0033
0000
0000
0000
,  // measure 118
1000
0100
1000
0000
1000
0000
0010
0000
0011
0000
0000
0000
0100
0010
0100
0000
,  // measure 119
0001
0000
0010
0000
0110
0000
0000
0000
0000
0000
0000
0000
0001
0010
0001
0000
,  // measure 120
1000
0000
0100
0000
0101
0000
0000
0000
0001
1000
0001
0000
0100
0000
0010
0000
,  // measure 121
0011
0000
0000
0000
0000
0000
0000
0000
0010
0100
0010
0000
1000
0000
0100
0000
,  // measure 122
0101
0000
0000
0000
0001
1000
0001
0000
0100
0000
1000
0000
1001
0000
0000
0000
,  // measure 123
1000
0010
1000
0000
0010
0000
0100
0000
0110
0000
0000
0000
0001
0010
0001
0000
,  // measure 124
1000
0100
0110
0000
0000
0000
0000
0000
,  // measure 125
0000
0000
0110
0000
0110
0000
0000
0000
1000
0001
1000
0000
0010
0000
0100
0000
,  // measure 126
0101
0000
0000
0000
0010
1000
0010
0000
0001
0000
0010
0000
0110
0000
0000
0000
,  // measure 127
0000
0000
0000
0000
0000
0000
0000
0000
1000
0100
1000
0100
1000
0000
0000
0000
,  // measure 128
1000
0010
1000
0010
1000
0000
0000
0000
0001
0010
0001
0010
0001
0000
0000
0000
,  // measure 129
2002
0000
0000
0000
3003
0000
0000
0000
0010
1000
0010
1000
0010
0000
0000
0000
,  // measure 130
0100
0001
0100
0001
0100
0000
0000
0000
0001
0010
0001
0010
0001
0000
0000
0000
,  // measure 131
0110
0000
0000
0000
0000
0000
0000
0000
1000
0001
1000
0001
1000
0000
0000
0000
,  // measure 132
0010
0100
0010
0100
0010
0000
0000
0000
0001
1000
0001
1000
0001
0000
0000
0000
,  // measure 133
1100
0202
0000
0000
,  // measure 134
0000
0000
0303
0000
,  // measure 135
0000
0000
0000
0000
0000
0000
0000
0000
0010
0001
0010
0001
0010
0000
0000
0000
,  // measure 136
0100
1000
0100
1000
0100
0000
0000
0000
0010
1000
0010
1000
0010
0000
0000
0000
,  // measure 137
1010
0000
0000
0000
0000
0000
0000
0000
1000
0010
1000
0010
1000
0000
0000
0000
,  // measure 138
0001
0100
0001
0100
0001
0000
0000
0000
0010
0100
0010
0100
0010
0000
0000
0000
,  // measure 139
0011
0000
0000
0000
0000
0000
0000
0000
0001
0100
0001
0100
0001
0000
0000
0000
,  // measure 140
1000
0100
1000
0100
1000
0000
0000
0000
0001
1000
0001
1000
0001
0000
0000
0000
,  // measure 141
0011
2200
0000
0000
,  // measure 142
0000
0000
0000
3300
,  // measure 143
0001
1000
0001
0000
0000
0000
0000
0000
0001
0100
0001
0000
0010
0000
0001
0000
,  // measure 144
1001
0000
0010
0100
0001
0010
1010
0000
,  // measure 145
0001
0010
0010
1000
1001
0000
0010
1000
,  // measure 146
0100
0010
0110
0000
0100
0010
0001
1000
,  // measure 147
0110
0000
0000
0000
0000
0000
0000
0000
0001
0010
0001
0000
0100
0000
0010
0000
,  // measure 148
0011
0000
0001
0100
0010
0100
0101
0000
,  // measure 149
0010
0001
1000
0001
0011
0000
0010
1000
,  // measure 150
0001
1000
1010
0000
1000
0001
0010
0001
,  // measure 151
1001
0000
0000
0000
0100
0001
1100
0000
,  // measure 152
0100
1000
0101
0000
0100
0001
1100
0000
,  // measure 153
1010
0202
0000
0000
,  // measure 154
0000
0303
0010
0000
,  // measure 155
0100
0000
0000
0000
0100
1100
0100
0000
,  // measure 156
0010
0011
0010
0000
0100
0110
0100
0000
,  // measure 157
1001
2002
0000
0000
,  // measure 158
0000
0000
0000
0000
0000
3003
0000
0010
,  // measure 159
1000
0000
0001
0000
0100
0000
0000
0000
1000
0100
1000
0000
0001
0000
0010
0000
,  // measure 160
0110
0000
1000
0010
1000
0100
0101
0000
,  // measure 161
0100
0010
0001
0100
0110
0000
1000
0100
,  // measure 162
0010
0100
0101
0000
0001
0100
1000
0010
,  // measure 163
0110
0000
0100
0010
1000
0001
0011
0000
,  // measure 164
1000
0100
0010
0100
0101
0000
1000
1000
,  // measure 165
0100
0001
1001
0000
0010
0001
1000
0010
,  // measure 166
0110
0000
1000
1000
0100
1000
1100
0000
,  // measure 167
1000
0001
1000
0001
1000
0001
1000
0000
0000
0000
0000
0000
0000
0000
0000
0000
;

//---------------dance-single - ----------------
#NOTEDATA:;
#CHARTNAME:;
#STEPSTYPE:dance-single;
#DESCRIPTION:;
#CHARTSTYLE:;
#DIFFICULTY:Medium;
#METER:9;
#RADARVALUES:0.607789,0.663691,0.130621,0.186602,0.018660,912.000000,884.000000,28.000000,40.000000,0.000000,0.000000,0.000000,0.000000,0.000000,0.607789,0.663691,0.130621,0.186602,0.018660,912.000000,884.000000,28.000000,40.000000,0.000000,0.000000,0.000000,0.000000,0.000000;
#CREDIT:;
#NOTES:
// measure 0
0000
0000
0000
0000
,  // measure 1
0000
0000
0000
0000
,  // measure 2
0000
0000
0000
0000
,  // measure 3
0000
0000
0000
0000
,  // measure 4
0000
0000
0000
0000
,  // measure 5
0000
0000
0000
0000
,  // measure 6
0000
0000
0000
0000
,  // measure 7
0000
0000
0000
0000
,  // measure 8
0000
0000
0002
0100
,  // measure 9
0010
1003
0020
0100
,  // measure 10
1000
0031
0200
0001
,  // measure 11
0010
1300
2000
0010
,  // measure 12
0001
3100
0020
1000
,  // measure 13
0100
0031
0002
0100
,  // measure 14
1000
0013
2000
0001
,  // measure 15
0010
3100
0200
0010
,  // measure 16
0001
0000
1300
0000
0001
0010
0000
1000
,  // measure 17
0100
0000
1100
0000
0100
0010
1000
0100
,  // measure 18
0010
0000
0100
0010
0100
0001
0010
0000
,  // measure 19
0010
0100
0001
1000
0010
0000
0100
0001
,  // measure 20
0100
1000
0010
0000
0001
1000
0010
0100
,  // measure 21
0010
0000
0000
0000
0001
0010
0100
1000
,  // measure 22
0010
0000
0001
0100
1000
0010
0010
0000
,  // measure 23
0001
0100
0010
1000
0010
0000
0010
1000
,  // measure 24
0100
0001
0010
0000
0010
1000
0001
0010
,  // measure 25
1000
0000
0000
0000
0001
1000
0001
0000
,  // measure 26
0010
1000
0010
0000
0001
1000
0001
0000
,  // measure 27
0000
1100
0000
0000
0022
0000
0000
0000
0000
0000
0000
0000
0000
0000
0000
0033
,  // measure 28
0000
2200
0000
0000
0000
0000
0000
0000
0000
0000
0000
0000
0000
0000
0000
3300
,  // measure 29
0000
0022
0000
0000
0000
0000
0000
0000
0000
0000
0000
0000
0000
0000
0000
0033
,  // measure 30
0000
2200
0000
0000
0000
0000
0000
0000
0000
0000
0000
0000
0000
0000
3300
0000
,  // measure 31
0000
1000
0000
0100
0000
0010
0100
0001
,  // measure 32
1000
0010
0001
0100
0010
1000
0001
0100
,  // measure 33
0010
0000
0001
0010
0001
0000
0000
1100
,  // measure 34
0000
0000
0001
0010
0100
1000
0100
0200
,  // measure 35
0000
1300
0000
0010
0001
1000
0100
2000
,  // measure 36
0000
3001
0000
1000
0001
0100
0010
0002
,  // measure 37
0000
0013
0000
1000
0001
0010
0100
2000
,  // measure 38
0000
3010
0000
1000
0100
0010
0001
2000
,  // measure 39
0000
3001
0000
0100
0100
0010
0001
2000
,  // measure 40
0000
3001
0000
1000
0010
1000
0100
0002
,  // measure 41
0000
0013
0000
1000
0001
0010
0001
0100
,  // measure 42
1000
0010
0000
0001
0100
1000
0100
0010
,  // measure 43
1000
0001
0000
0010
1000
0100
1000
0001
,  // measure 44
0010
0100
0000
0001
0010
0001
1000
0100
,  // measure 45
1000
0001
0000
0010
0100
1000
0001
0100
,  // measure 46
0001
0010
0000
0010
0100
1000
0100
0010
,  // measure 47
1000
0100
0010
0001
0100
1000
0100
0010
,  // measure 48
0001
0100
0000
0010
0001
1000
0100
0022
,  // measure 49
0033
0000
0000
0001
0010
1000
0100
1000
,  // measure 50
0010
1000
0100
0001
0100
0010
1000
0100
,  // measure 51
0001
0010
0100
0000
0001
0010
1000
0100
,  // measure 52
0001
0000
0010
0001
1000
0100
0010
0000
,  // measure 53
0100
0010
1000
0001
1000
0000
0100
0001
,  // measure 54
1000
0010
0100
0000
0010
0100
0001
0001
,  // measure 55
1000
0010
0010
0000
0010
0010
0100
0001
,  // measure 56
0001
0000
1000
0100
1000
0010
0001
0000
,  // measure 57
0100
1000
0100
0001
0010
0000
1000
0010
,  // measure 58
0001
0100
0010
0000
0100
1000
0010
0100
,  // measure 59
1000
0001
0100
0000
0001
0010
1000
0000
,  // measure 60
0010
0001
1000
0000
0100
1000
1000
0000
,  // measure 61
0000
1010
0000
0000
2002
0000
0000
0000
0000
0000
0000
0000
0000
0000
0000
0000
,  // measure 62
3003
0000
0011
0000
0000
0010
0100
0001
,  // measure 63
0010
1000
0000
0001
0100
0010
0000
0010
,  // measure 64
0100
0001
0000
1000
0100
1000
0000
0000
,  // measure 65
0000
0100
0000
0000
0020
0000
0000
0000
0000
0000
0000
0000
0030
0000
0000
0000
,  // measure 66
0010
0001
0010
0100
1000
0000
0001
0100
,  // measure 67
1000
0100
0010
0000
0000
0000
1000
0100
,  // measure 68
1000
0001
0010
0000
1000
0010
0001
0100
,  // measure 69
1000
0000
0000
0000
0100
0001
0010
0001
,  // measure 70
1000
0000
1000
0010
0001
0010
1000
0000
,  // measure 71
0000
0000
0000
0000
0001
0010
0100
0001
,  // measure 72
1000
0000
0010
1000
0100
0001
0010
0010
,  // measure 73
1000
0000
0001
1000
0100
0010
1000
0001
,  // measure 74
0010
0000
1000
0001
0010
0100
0001
1000
,  // measure 75
0010
0000
0001
0010
0100
1000
0010
0100
,  // measure 76
1000
0000
0010
1000
0100
1000
0001
0010
,  // measure 77
0100
0000
0010
0100
1000
0001
0010
1000
,  // measure 78
1000
0000
0001
0010
0100
1000
0010
0010
,  // measure 79
0100
0000
1000
0001
0010
0100
1000
0010
,  // measure 80
0010
0000
0100
0001
0010
1000
0001
0100
,  // measure 81
1000
0000
0001
0100
1000
0010
0100
1000
,  // measure 82
1000
0000
0100
1000
0010
0001
1000
0010
,  // measure 83
0010
0000
1000
0001
0010
0001
0100
1000
,  // measure 84
0010
0000
1000
0010
0001
0100
1000
0001
,  // measure 85
0010
0000
0001
1000
0100
0010
0001
1000
,  // measure 86
1000
0000
0010
0100
1000
1000
0100
0001
,  // measure 87
0100
0000
0010
0010
0001
1000
0100
0000
,  // measure 88
1000
0000
0001
0010
1000
0100
0010
0100
,  // measure 89
0000
0000
1000
0001
0100
1000
0010
1000
,  // measure 90
0000
0000
0100
0001
1000
0100
0010
1000
,  // measure 91
0000
0000
0100
1000
0010
0100
1000
1000
,  // measure 92
0000
0000
1000
0010
0100
0010
1000
1000
,  // measure 93
0000
0000
0100
1000
0010
1000
0010
1000
,  // measure 94
0000
0000
0100
0100
0010
0010
0001
1000
,  // measure 95
0000
0000
0001
0100
0100
0010
1000
0010
,  // measure 96
1000
0000
0001
1000
0010
0100
0010
0100
,  // measure 97
0000
0000
0010
1000
0001
1000
0100
0010
,  // measure 98
0000
0000
0010
0100
0001
0010
0100
0010
,  // measure 99
0000
0000
0100
0100
0001
1000
0100
0100
,  // measure 100
0000
0000
0010
0001
0100
1000
0010
0100
,  // measure 101
0000
0000
0001
0100
0010
0100
0100
0010
,  // measure 102
0000
0000
0100
0010
0100
1000
0010
0100
,  // measure 103
0001
0000
0000
0000
0100
0001
0010
1000
,  // measure 104
0100
0000
0001
0100
0010
1000
0001
0000
,  // measure 105
1000
0001
0010
0100
0010
0000
1000
0100
,  // measure 106
0010
0001
1000
0000
0001
1000
0100
0100
,  // measure 107
0010
0001
0001
0000
0001
0001
1000
0100
,  // measure 108
0100
0000
0010
1000
0010
0001
0100
0000
,  // measure 109
1000
0010
1000
0100
0001
0000
0010
0001
,  // measure 110
0100
1000
0001
0000
1000
0010
0001
1000
,  // measure 111
0010
0100
1000
0000
0100
0001
0010
0000
,  // measure 112
0001
0100
0010
0000
1000
0010
0010
0000
,  // measure 113
0000
1100
0000
0000
0022
0000
0000
0000
0000
0000
0000
0000
0000
0000
0000
0000
,  // measure 114
0033
0000
0100
0000
1000
0001
1000
0000
,  // measure 115
0100
0010
0100
0000
1000
0001
1000
0000
,  // measure 116
1000
0100
0001
0000
1000
0010
1000
0000
,  // measure 117
0000
1010
0000
0000
2200
0000
0000
0000
0000
0000
0000
0000
3300
0000
0000
0000
,  // measure 118
0001
0100
0001
1000
0010
0000
0100
1000
,  // measure 119
0010
1000
0100
0000
0000
0000
0010
1000
,  // measure 120
0010
0100
0010
0000
0010
0001
0100
1000
,  // measure 121
0010
0000
0000
0000
1000
0100
0001
0100
,  // measure 122
0010
0000
0010
0001
0100
0001
0010
0000
,  // measure 123
0001
1000
1000
0100
0100
0000
0010
1000
,  // measure 124
0001
0100
1000
0000
0000
0000
0000
0000
,  // measure 125
0000
0100
1000
0000
0001
0010
1000
0100
,  // measure 126
0010
0000
1000
0001
0010
1000
0100
0000
,  // measure 127
0000
0000
0000
0000
0001
1000
0001
0000
,  // measure 128
0001
1000
0001
0000
0010
1000
0100
0000
,  // measure 129
0110
0000
0000
0000
1000
0001
1000
0000
,  // measure 130
0100
0010
0100
0000
0010
1000
0001
0000
,  // measure 131
0110
0000
0000
0000
0001
0010
0001
0000
,  // measure 132
1000
0100
1000
0000
0010
0001
0010
0000
,  // measure 133
0101
0022
0000
0000
,  // measure 134
0000
0000
0033
0000
,  // measure 135
0000
0000
0000
0000
1000
0001
1000
0000
,  // measure 136
0100
0010
0100
0000
1000
0001
0010
0000
,  // measure 137
1001
0000
0000
0000
0001
0100
1000
0000
,  // measure 138
0010
1000
0001
0000
1000
0100
1000
0000
,  // measure 139
1001
0000
0000
0000
0010
0100
0010
0000
,  // measure 140
0001
0100
0001
0000
0010
0100
0001
0000
,  // measure 141
0110
0220
0000
0000
,  // measure 142
0000
0000
0000
0330
,  // measure 143
0001
0010
0000
0000
0010
0100
1000
0010
,  // measure 144
0001
0000
1000
0100
0010
1000
0001
0000
,  // measure 145
0010
1000
1000
0001
0010
0000
1000
0001
,  // measure 146
0100
1000
0100
0000
0100
1000
0010
0001
,  // measure 147
1000
0000
0000
0000
0010
1000
0100
1000
,  // measure 148
0010
0000
0010
0100
1000
0100
0010
0000
,  // measure 149
1000
0010
0001
0010
1000
0000
1000
0001
,  // measure 150
0010
0001
1000
0000
0001
0010
0001
0010
,  // measure 151
0001
0000
0000
0000
0001
0001
0001
0000
,  // measure 152
0010
0010
0010
0000
0001
0001
0001
0000
,  // measure 153
1100
0202
0000
0000
,  // measure 154
0000
0303
1000
0000
,  // measure 155
0100
0000
0000
0000
0100
0100
0100
0000
,  // measure 156
1000
1000
1000
0000
0100
0100
0100
0000
,  // measure 157
0011
2020
0000
0000
,  // measure 158
0000
0000
0000
0000
0000
3030
0000
1000
,  // measure 159
0001
0010
0100
0000
0001
0100
0010
1000
,  // measure 160
0100
0000
0001
1000
0001
0100
0010
0000
,  // measure 161
0100
1000
0010
0100
1000
0000
0001
0100
,  // measure 162
1000
0100
0010
0000
0010
0100
0001
1000
,  // measure 163
0100
0000
0100
1000
0001
0010
1000
0000
,  // measure 164
0001
0100
1000
0100
0010
0000
0001
0001
,  // measure 165
0100
0010
0010
0000
1000
0010
0001
1000
,  // measure 166
0100
0000
0001
0001
0100
0001
0100
0000
,  // measure 167
1000
0001
1000
1001
0000
0000
0000
0000
;

//---------------dance-single - ----------------
#NOTEDATA:;
#CHARTNAME:;
#STEPSTYPE:dance-single;
#DESCRIPTION:;
#CHARTSTYLE:;
#DIFFICULTY:Easy;
#METER:6;
#RADARVALUES:0.423853,0.546569,0.181937,0.093301,0.018660,636.000000,597.000000,39.000000,20.000000,0.000000,0.000000,0.000000,0.000000,0.000000,0.423853,0.546569,0.181937,0.093301,0.018660,636.000000,597.000000,39.000000,20.000000,0.000000,0.000000,0.000000,0.000000,0.000000;
#CREDIT:;
#NOTES:
// measure 0
0000
0000
0000
0000
,  // measure 1
0000
0000
0000
0000
,  // measure 2
0000
0000
0000
0000
,  // measure 3
0000
0000
0000
0000
,  // measure 4
0000
0000
0000
0000
,  // measure 5
0000
0000
0000
0000
,  // measure 6
0000
0000
0000
0000
,  // measure 7
0000
0000
0000
0000
,  // measure 8
0000
0000
2000
0000
,  // measure 9
0000
3001
0200
0000
,  // measure 10
0000
0301
0002
0000
,  // measure 11
0000
1003
0020
0000
,  // measure 12
0000
0130
0200
0000
,  // measure 13
0000
0310
2000
0000
,  // measure 14
0000
3001
0020
0000
,  // measure 15
0000
0130
0002
0000
,  // measure 16
0000
1003
0100
0110
,  // measure 17
0010
0001
0000
0000
0001
0100
0001
0000
,  // measure 18
1000
0010
0100
1000
,  // measure 19
0110
0000
0001
1000
0010
0000
0100
0000
,  // measure 20
1010
0010
0100
0010
,  // measure 21
0001
0000
1001
0000
0010
1000
0100
0000
,  // measure 22
0011
0100
0001
0100
,  // measure 23
1100
0000
0001
1000
0010
0000
0100
0000
,  // measure 24
0110
0000
1000
0000
0100
0000
0010
0100
,  // measure 25
0010
0000
0010
0010
,  // measure 26
0100
0100
0010
0010
,  // measure 27
0000
0001
0000
0000
2000
0000
0000
0000
0000
0000
0000
0000
0000
0000
0000
3000
,  // measure 28
0000
0002
0000
0000
0000
0000
0000
0000
0000
0000
0000
0000
0000
0000
0003
0000
,  // measure 29
0000
2000
0000
0000
0000
0000
0000
0000
0000
0000
0000
0000
0000
0000
0000
3000
,  // measure 30
0000
0002
0000
0000
0000
0000
0000
0000
0000
0000
0000
0000
0000
0000
0003
0000
,  // measure 31
0000
0010
0000
0001
0000
0100
0000
1000
,  // measure 32
0000
0100
0000
0001
0000
0010
0000
0001
,  // measure 33
0100
0000
1000
0000
1000
0000
0000
0010
,  // measure 34
0000
0000
1000
0000
0001
1000
0001
0000
,  // measure 35
1001
0000
0100
1000
,  // measure 36
0011
0000
0010
1000
,  // measure 37
1001
0000
0000
0000
0010
0001
1000
0000
,  // measure 38
1010
0000
0010
0001
,  // measure 39
0110
0000
0001
0001
,  // measure 40
0011
0000
0000
0000
0010
0001
0100
0000
,  // measure 41
1100
0000
0010
1000
,  // measure 42
1001
0000
1000
0001
,  // measure 43
0110
0000
0100
0010
,  // measure 44
1100
0000
0000
0000
1000
0010
0100
0000
,  // measure 45
0011
0000
0100
0001
,  // measure 46
0101
0000
0100
0001
,  // measure 47
0101
0000
0000
0100
1000
0000
0001
0000
,  // measure 48
0110
0000
0000
0010
0100
0000
1000
0001
,  // measure 49
0000
0000
1000
0010
,  // measure 50
0100
0010
1000
0100
,  // measure 51
0001
1000
0100
0000
1000
0001
0100
0000
,  // measure 52
0001
1000
1000
0001
,  // measure 53
0100
0100
1000
0010
,  // measure 54
1000
0100
0001
0001
,  // measure 55
1000
0010
0100
0100
,  // measure 56
1000
1000
0001
0100
,  // measure 57
1000
0010
1000
0100
,  // measure 58
0100
0001
0100
0010
,  // measure 59
0001
0100
1000
0000
1000
0000
1000
0000
,  // measure 60
0100
0100
0010
0010
,  // measure 61
0000
0010
0000
0000
2000
0000
0000
0000
0000
0000
0000
0000
0000
0000
0000
0000
,  // measure 62
3000
1000
0010
0100
,  // measure 63
0100
0000
0010
0000
0001
0000
0001
0100
,  // measure 64
1000
1000
0010
0010
,  // measure 65
0000
0001
0000
0000
0200
0000
0000
0000
0000
0000
0000
0000
0300
0000
0000
0000
,  // measure 66
0100
0010
1000
0000
0001
0000
0010
0000
,  // measure 67
0001
0001
0100
0010
,  // measure 68
0001
1000
0100
0100
,  // measure 69
0001
0000
0010
0000
0001
0100
1000
0000
,  // measure 70
1000
0010
0100
0100
,  // measure 71
0010
0000
0000
0000
0100
1000
0100
0000
,  // measure 72
1000
0011
0010
1000
,  // measure 73
0100
0000
1010
0000
0010
0000
0100
0001
,  // measure 74
1000
0110
1000
0001
,  // measure 75
0010
0000
1010
0000
0100
0000
0010
1000
,  // measure 76
0001
0011
0010
0010
,  // measure 77
0100
0000
1001
0000
0001
0000
1000
0001
,  // measure 78
0010
0110
1000
0010
,  // measure 79
0100
0000
0101
0000
1000
0000
0001
0010
,  // measure 80
0100
1100
1000
0010
,  // measure 81
0001
0000
0110
0000
0001
0000
0100
1000
,  // measure 82
0010
0011
0010
1000
,  // measure 83
0100
0000
0101
0000
1000
0000
1000
0100
,  // measure 84
0010
1001
0100
0001
,  // measure 85
1000
0110
0010
0100
,  // measure 86
0010
0000
0110
0000
0001
1000
0001
1000
,  // measure 87
0001
0000
0101
0000
0100
0000
0010
0100
,  // measure 88
0010
0100
0100
0001
,  // measure 89
0001
1000
1000
0010
,  // measure 90
0010
1000
1000
0001
,  // measure 91
0010
0010
0010
0001
,  // measure 92
0010
0100
0100
0010
,  // measure 93
0100
0001
0010
0010
,  // measure 94
0010
0000
0001
1000
0001
0000
0100
0000
,  // measure 95
0010
0000
0001
1000
0001
0000
0100
0000
,  // measure 96
0100
0000
0010
1000
0010
0000
0001
0000
,  // measure 97
0001
0000
1000
0100
0001
0000
0010
0000
,  // measure 98
0001
0000
0100
0000
0100
0010
0001
0000
,  // measure 99
0100
0000
0100
0000
1000
0001
1000
0000
,  // measure 100
0010
0000
0001
0000
0001
0100
1000
0000
,  // measure 101
0010
0000
0001
0000
0001
1000
0001
0000
,  // measure 102
0001
0100
0000
0100
,  // measure 103
0001
0000
0100
0000
1000
0001
1000
0001
,  // measure 104
1000
0010
0001
0001
,  // measure 105
0010
1000
1000
0001
,  // measure 106
0100
0001
1000
0010
,  // measure 107
0010
0001
1000
1000
,  // measure 108
1000
0001
0001
0010
,  // measure 109
1000
0001
0100
0001
,  // measure 110
1000
1000
0010
1000
,  // measure 111
0100
0010
0001
0010
,  // measure 112
1000
0001
0100
0100
,  // measure 113
0000
0001
0000
0000
0200
0000
0000
0000
0000
0000
0000
0000
0000
0000
0000
0000
,  // measure 114
0300
0001
0100
1000
,  // measure 115
0001
0100
0001
1000
,  // measure 116
1000
0001
0100
0100
,  // measure 117
0000
0010
0000
0000
0020
0000
0000
0000
0000
0000
0000
0000
0030
0000
0000
0000
,  // measure 118
1000
0001
1000
0000
0100
0000
0010
0000
,  // measure 119
0100
0010
0000
0100
,  // measure 120
0001
0100
1000
0010
,  // measure 121
0100
0000
0010
0001
,  // measure 122
0100
1000
1000
0100
,  // measure 123
0010
0001
0001
0010
,  // measure 124
0001
1000
0001
0000
0000
0000
0000
0000
,  // measure 125
0000
0010
0001
0000
0100
0000
0001
0000
,  // measure 126
0100
0000
1000
0000
0010
0100
0010
0000
,  // measure 127
0000
0000
1001
0000
,  // measure 128
1001
0000
0000
0000
0001
0001
0001
0000
,  // measure 129
0100
0000
0010
0000
,  // measure 130
0001
0000
0000
0000
1000
1000
1000
0000
,  // measure 131
0001
0000
1000
1000
,  // measure 132
0010
0010
0100
0100
,  // measure 133
0001
0200
0000
0000
,  // measure 134
0000
0000
0300
0000
,  // measure 135
0000
0000
0010
0000
,  // measure 136
0001
0000
0000
0000
0100
0100
0100
0000
,  // measure 137
0010
0000
1000
0000
,  // measure 138
0100
0000
0000
0000
0010
0010
0010
0000
,  // measure 139
1000
0000
0000
0000
0001
0001
0001
0000
,  // measure 140
1000
1000
1000
0000
0001
0001
0001
0000
,  // measure 141
0100
0002
0000
0000
,  // measure 142
0000
0000
0000
0003
,  // measure 143
1000
0100
0000
0000
0100
0001
0100
0000
,  // measure 144
0100
1000
0001
0010
,  // measure 145
1000
0010
1000
0100
,  // measure 146
1000
0010
0001
0010
,  // measure 147
1000
0010
0000
0000
0010
0100
0010
0000
,  // measure 148
0010
0100
0001
0001
,  // measure 149
0100
0100
0100
0010
,  // measure 150
1000
0000
1000
0000
1000
0001
1000
0001
,  // measure 151
1000
0000
0000
0000
0001
0001
0001
0000
,  // measure 152
0100
0100
0100
0000
1000
1000
1000
0000
,  // measure 153
0010
0002
0000
0000
,  // measure 154
0000
0003
0010
0000
,  // measure 155
0001
0000
0000
0000
1000
1000
1000
0000
,  // measure 156
0010
0010
0010
0000
0001
0001
0001
0000
,  // measure 157
0100
0200
0000
0000
,  // measure 158
0000
0000
0300
0000
0000
0000
0001
0100
,  // measure 159
0001
0100
0001
0000
0001
0000
0010
0000
,  // measure 160
0001
0010
0001
0100
,  // measure 161
0010
0001
0010
0001
,  // measure 162
0001
0100
0001
0010
,  // measure 163
0001
0010
0100
0010
,  // measure 164
0001
0001
0100
1000
,  // measure 165
0100
0100
0100
0010
,  // measure 166
0001
1000
1000
0001
,  // measure 167
0010
0100
0010
0100
0000
0000
0000
0000
;

//---------------dance-solo - ----------------
#NOTEDATA:;
#CHARTNAME:;
#STEPSTYPE:dance-solo;
#DESCRIPTION:;
#CHARTSTYLE:;
#DIFFICULTY:Beginner;
#METER:1;
#RADARVALUES:0.270573,0.445046,0.069976,0.065311,0.006998,406.000000,391.000000,15.000000,14.000000,0.000000,0.000000,0.000000,0.000000,0.000000,0.270573,0.445046,0.069976,0.065311,0.006998,406.000000,391.000000,15.000000,14.000000,0.000000,0.000000,0.000000,0.000000,0.000000;
#CREDIT:;
#NOTES:
000000
200200
000000
000000
,
000000
000000
000000
000000
,
000000
000000
000000
000000
,
000000
000000
000000
000000
,
000000
000000
000000
000000
,
000000
000000
000000
000000
,
000000
000000
000000
000000
,
000000
000000
300300
000000
,
000000
000100
000100
000000
,
001000
001000
001000
000000
,
000100
000100
000100
000000
,
010000
010000
010000
000000
,
000001
000001
000001
000000
,
000100
000100
000100
000000
,
000001
000001
000001
000000
,
000010
000010
000010
000000
,
001000
001000
001000
000000
,
000000
000100
000000
000000
000000
001000
000000
000000
,
000000
000100
000000
000000
000000
010000
000000
020000
,
000000
000000
000000
000000
030000
000000
000000
000000
000000
000000
000000
000020
000000
000000
000000
000000
,
000000
000000
000030
000000
000000
000000
000000
000000
000000
000000
000000
020000
000000
000000
000000
000000
,
000000
000000
030000
000000
000000
000000
000000
000000
000000
000000
000000
000020
000000
000000
000000
000000
,
000000
000030
000000
000000
000000
000000
010000
000000
,
000000
000010
000000
000010
,
000000
000000
100000
000000
000000
000000
000000
010000
,
000000
010000
000000
000000
100000
000000
000000
000000
,
001000
001000
001000
000000
,
100000
100000
100000
000000
,
001000
001000
001000
000000
,
010000
010000
010000
000000
,
000100
000100
000100
000000
,
001000
001000
001000
000000
,
000001
000001
000001
000000
,
000100
000100
000100
000000
,
000001
000001
000001
000000
,
000010
000010
000010
000000
,
001000
001000
001000
000000
,
000100
000100
000100
000000
,
000100
000100
000100
000000
,
010010
010010
010010
000000
,
010000
010000
010000
000000
,
001000
001000
001000
001000
,
001000
001000
001000
000000
,
000100
000100
000100
000000
,
000010
000010
000010
000000
,
001000
001000
001000
000000
,
000100
000100
000100
000000
,
010000
010000
010000
000000
,
000010
000010
000010
000000
,
000100
000100
000100
000000
,
000100
000100
000100
000000
,
000000
000100
000000
000000
000000
000001
000000
000000
,
000000
010000
000000
000000
000000
001000
000000
002000
,
000000
000000
000000
000000
000000
003000
000000
000000
,
000000
000010
000000
010000
,
000000
000000
001000
000000
,
100000
000000
000000
000000
000000
000100
000000
000200
,
000000
000000
000000
000300
000000
000000
001000
000000
,
001000
000000
001000
001000
,
001000
000000
010000
010000
,
000000
001000
001000
001000
,
000000
010000
010000
000000
,
000010
000010
000010
000000
,
000000
000010
000010
000010
,
000000
000100
000100
000100
,
000000
000001
000001
000001
,
000000
000100
000100
000100
,
000000
001000
001000
001000
,
000000
000010
000010
000010
,
000000
001000
001000
001000
,
000000
000010
000010
000010
,
000000
000100
000100
000100
,
000000
100000
100000
100000
,
000000
000100
000100
000100
,
000000
010000
010000
010000
,
000000
010000
010000
010000
,
000000
000100
000100
000100
,
000000
000010
000010
000010
,
000000
010000
010000
010000
,
000000
000100
000100
000100
,
000000
000001
000001
000000
,
000100
000100
000100
000000
,
000001
000001
000001
000000
,
001000
001000
001000
000000
,
000010
000010
000010
000000
,
010000
010000
010000
000000
,
000100
000100
000100
000000
,
000100
000100
000100
000000
,
100000
000000
100000
000000
100000
000000
000000
001000
,
000000
001000
000000
001000
000000
001000
000000
000000
,
001000
001000
001000
000000
,
010000
010000
010000
000000
,
001000
001000
001000
000000
,
000100
000100
000100
000000
,
000000
000100
000000
000100
000000
000100
000000
000000
,
000000
010000
010000
010000
,
000000
001000
001000
001000
,
000000
000001
000001
000001
,
000000
001000
001000
001000
,
000000
000100
000100
000100
,
000000
000100
000100
000100
,
000000
001000
001000
001000
,
000000
000010
000010
000010
,
000000
010000
000000
000000
000000
000100
000000
000000
,
000000
000100
000000
000000
000000
000100
000000
000200
,
000000
000000
000000
000000
000000
000300
000000
000000
,
000000
000000
001000
000000
000000
001000
000000
000000
,
001000
000000
010000
000000
,
000010
000000
000000
000000
000000
010000
000000
020000
,
000000
000000
000000
030000
000000
000000
000010
000000
,
000010
000010
000000
010000
,
010000
000000
000100
000100
,
000000
000100
000100
000000
,
000000
000010
000010
000000
,
000100
000100
000000
000010
,
000010
000000
000010
000000
000000
001000
000000
001000
,
000000
000000
000000
000000
000000
010000
000000
010000
,
000000
010000
000000
000000
000100
000000
000100
000000
,
000100
000000
000000
000100
000000
000000
000000
000000
,
000000
001000
000000
000000
000000
001000
000000
000000
,
000000
001000
000000
001000
000000
001000
000000
000000
,
000000
100000
000000
000000
000000
001000
000000
000000
,
000000
010000
000000
010000
000000
010000
000000
000000
,
000000
010000
000000
000000
000000
100000
000000
000000
,
000000
000010
000000
000000
000000
000010
000000
000020
,
000000
000000
000000
000000
,
000000
000030
000000
000000
000000
000000
000000
000000
,
000000
010000
000000
000000
000000
000100
000000
000000
,
000000
000001
000000
000001
000000
000001
000000
000000
,
000000
000100
000000
000000
000000
000001
000000
000000
,
000000
001000
000000
001000
000000
001000
000000
000000
,
000000
000010
000000
000000
000000
000100
000000
000000
,
000000
000100
000000
000000
000000
000100
000000
000200
,
000000
000000
000000
000000
,
000000
000000
000000
000300
000000
000000
000010
000000
,
000000
000100
000100
000100
,
000000
100000
100000
100000
,
000000
000100
000100
000100
,
000000
010000
010000
010000
,
000000
100000
100000
100000
,
000000
000010
000010
000010
,
000000
010000
010000
010000
,
000000
000100
000100
000000
,
000000
000100
000000
000000
000000
000010
000000
000000
,
000000
000100
000000
000000
000000
000010
000000
000020
,
000000
000000
000000
000000
000000
000000
000000
000030
,
000000
000000
000000
000000
000000
000010
000000
000000
,
000000
000100
000000
000000
000000
001000
000000
000000
,
000000
000100
000000
000000
000000
000010
000000
000020
,
000000
000000
000000
000000
,
000000
000000
000030
000000
000000
001000
000000
001000
,
000000
001000
000000
000000
010000
000000
010000
000000
,
000000
001000
001000
000000
,
010000
010000
000000
000100
,
000100
000000
100100
100100
,
000000
010100
010100
000000
,
000110
000110
000000
011000
,
011000
000000
001100
001100
,
000000
000000
010010
000000
000000
000000
000100
000100
,
000100
000000
000000
000000
;

//---------------dance-solo - ----------------
#NOTEDATA:;
#CHARTNAME:;
#STEPSTYPE:dance-solo;
#DESCRIPTION:;
#CHARTSTYLE:;
#DIFFICULTY:Hard;
#METER:8;
#RADARVALUES:0.644443,0.704656,0.279903,0.111961,0.044318,967.000000,907.000000,60.000000,24.000000,0.000000,0.000000,0.000000,0.000000,0.000000,0.644443,0.704656,0.279903,0.111961,0.044318,967.000000,907.000000,60.000000,24.000000,0.000000,0.000000,0.000000,0.000000,0.000000;
#CREDIT:;
#NOTES:
000000
200000
010000
000100
,
310000
000200
001000
100000
,
001300
020000
000100
100000
,
030100
002000
100000
000100
,
013000
000020
001000
010000
,
001030
020000
000100
000010
,
030100
000200
010000
001000
,
010300
002000
010000
013000
,
000001
000000
001000
000000
000001
000000
000000
000000
000100
000010
000100
000000
000000
000000
000110
000000
,
000000
000100
000001
000010
000100
000001
000000
000100
,
000001
000100
001000
000001
000000
000001
000100
001000
,
000010
000001
000000
000100
001000
000100
000010
000001
,
000000
010000
000100
000010
001000
000010
000000
000000
,
000000
010000
000010
001000
000100
000010
000000
010000
,
001000
000100
000010
000010
000000
010000
001000
000010
,
000100
000010
000000
000010
000100
001000
010000
000010
,
000000
000100
001000
100000
000100
001000
000000
000000
,
000000
100000
001000
100000
000000
000100
001000
000100
,
000000
000000
100000
000000
001000
000000
100000
000000
000000
000000
000000
011000
000000
000000
100100
000000
,
000000
000000
011000
000000
000000
000000
100100
000000
000000
000000
000000
011000
000000
000000
000000
100100
,
000000
000000
000000
010010
000000
000000
000000
001100
000000
000000
000000
010010
000000
000000
000000
001100
,
000000
000000
000000
001100
000000
000000
000000
010010
000000
000000
000000
001100
000000
000000
000000
010010
,
000000
000000
000000
010010
000000
000000
000000
001100
000000
000000
000000
000000
000100
000000
000000
000000
,
001000
000000
000010
001000
010000
000100
000010
010000
,
000100
000001
000010
001000
000100
000001
000000
001000
,
000001
001000
000000
000000
000110
000000
000000
001000
,
000001
000100
000010
000100
000100
000000
001001
000000
,
000001
001000
000010
000100
000010
000000
001001
000000
,
000100
010000
001000
000010
010000
000000
010010
000000
,
000100
010000
000010
001000
000100
000000
010010
000000
,
000100
001000
000010
010000
000100
000000
010010
000000
,
001000
001000
000010
010000
000100
000000
010010
000000
,
001000
000100
001000
010000
100000
000000
100100
000000
,
001000
100000
000100
100000
010000
000100
011000
000000
,
100000
010000
001000
010000
000100
100000
011000
000000
,
000100
001000
010000
001000
100000
000100
011000
000000
,
010000
000010
010000
000100
001000
000010
001100
000000
,
000010
001000
000100
010000
001000
000010
001100
000000
,
000010
001000
000100
001000
000010
010000
001100
000010
,
010000
001000
000100
001000
000010
010000
001100
000000
,
000001
001000
000010
000100
001000
000001
000110
000000
,
001000
000001
000010
000100
000010
000001
000010
000000
,
001000
000100
000001
000010
000100
001000
000001
000100
,
000000
001000
000001
000010
000100
001000
000000
000001
,
010000
000100
001000
000010
000000
001000
000010
000100
,
010000
000100
000000
001000
010000
000100
000010
001000
,
000000
000010
001000
010000
010000
000100
000010
000010
,
000000
000010
000010
001000
010000
010000
000000
000100
,
010000
001000
000100
100000
000000
010000
001000
010000
,
100000
000100
000000
001000
000100
100000
010000
000100
,
000000
010000
001000
000100
010000
001000
100000
010000
,
000000
100000
000100
001000
000000
000100
100000
001000
,
000000
000000
001000
000000
000100
000000
000100
000000
000000
000000
000000
000110
000000
000000
020200
000000
,
000000
000000
000000
000000
000000
030300
000000
010010
,
000000
000000
000010
001000
010000
000010
000100
000000
,
010000
001000
000010
000000
000010
001000
010000
000000
,
000010
000000
000100
000000
000010
000000
000000
000000
000000
000000
000000
001100
000000
000000
000202
000000
,
000000
000000
000000
000303
000000
000001
001000
000001
,
000100
000010
000000
001000
000100
000010
000100
000001
,
000000
000000
000000
000010
000100
000010
001000
000001
,
000000
000100
000010
010000
001000
000100
000000
000000
,
000000
001000
010000
000010
010000
000100
000000
000100
,
000010
010000
000010
000100
000000
000000
000000
000000
,
000000
010000
000010
001000
010000
000100
001000
000010
,
001000
010000
100000
000100
000100
001000
010000
100000
,
001000
010000
000100
001000
100000
000100
010000
001000
,
100000
000100
010000
100000
001000
000100
010000
100000
,
000100
010000
001000
000100
010000
001000
100000
000100
,
000100
001000
000100
010000
000010
001000
010000
000010
,
001000
000100
010000
000010
000100
000100
000000
010010
,
000000
001000
000100
000010
000010
010000
001000
000100
,
010000
000010
001000
000100
000010
000010
000100
001000
,
001000
000001
000010
001000
000100
000010
000001
001000
,
000100
000010
000001
000100
000010
000010
001000
000100
,
000010
000001
001000
000010
000001
000001
000100
000010
,
001000
000001
001000
000100
000010
000001
000100
000010
,
000010
010000
001000
000100
010000
000010
001000
010000
,
000100
001000
000010
010000
000100
000100
010000
000010
,
001000
000100
000100
001000
010000
001000
000010
000000
,
000010
010000
000100
001000
000000
000100
000000
010000
,
000100
001000
010000
000100
010000
000000
000000
001000
,
100000
010000
001000
000100
001000
000000
000000
010000
,
100000
001000
010000
000100
001000
000000
000000
010000
,
001000
000100
010000
001000
001000
000000
100100
000000
,
000010
001000
000010
000100
001000
000000
000000
001000
,
000100
000010
010000
000010
000100
000000
000000
001000
,
001000
000010
000010
010000
000100
000000
000000
010000
,
001000
001000
000010
000100
000010
000000
000000
010000
,
000010
000001
000100
000001
000100
000000
000000
000000
,
000010
001000
000010
000100
000000
000001
000000
000001
,
000100
001000
000001
000100
000001
000000
000000
000100
,
000100
001000
000010
000100
000100
000000
000000
000001
,
010000
001000
000100
000010
001000
000000
000000
010000
,
001000
000010
001000
001000
000010
000000
000000
000000
,
000010
001000
000100
000010
001000
010000
000000
000000
,
000000
001000
010000
000010
000100
001000
000000
010000
,
010000
000100
001000
100000
000000
001000
100000
000100
,
010000
000100
000000
001000
010000
000100
100000
001000
,
000000
100000
001000
010000
010000
000100
100000
100000
,
000000
100000
100000
001000
010000
010000
000000
000100
,
000100
000010
010000
001000
000000
000100
000010
000100
,
001000
010000
000000
000010
010000
001000
000100
010000
,
000000
000100
000010
010000
000100
000010
001000
000100
,
000000
001000
010000
000010
000000
010000
001000
000010
,
000000
000000
000010
000000
000001
000000
000001
000000
000000
000000
000000
000110
000000
000000
002002
000000
,
000000
000000
000000
000000
000000
003003
000000
000100
,
000000
000000
001000
000010
000100
001000
000001
000000
,
000100
000010
001000
000000
001000
000010
000100
000000
,
000010
000000
000100
000000
000010
000000
000000
000000
000000
000000
000000
010100
000000
000000
000220
000000
,
000000
000000
000000
000330
000000
010000
001000
010000
,
000100
000010
000000
001000
000100
000010
000100
001000
,
000000
000000
000000
000010
000100
000010
001000
000010
,
000000
000100
100000
010000
001000
000100
000000
000000
,
000000
001000
010000
100000
010000
000100
000000
000100
,
100000
010000
100000
000100
000000
100000
001000
001000
,
010000
010000
000000
000100
001000
100000
010000
001000
,
000000
000000
000000
000000
000000
000000
001000
000100
,
000000
010000
000010
000100
001000
000010
000000
000100
,
010000
000010
000100
001000
000000
000000
000000
000000
,
000000
010000
001000
000010
000000
010000
000100
000010
,
000000
000001
000010
000100
000000
001001
000000
000000
,
000000
000010
001000
000001
000000
000100
000001
001000
,
000000
000001
000010
001000
000000
000100
000000
000000
,
000000
001000
000001
001000
000000
000010
000100
000010
,
000000
000010
010000
000010
000000
011000
000000
002020
,
000000
000000
000000
000000
,
000000
003030
000000
000000
000000
000000
000000
000000
,
000000
000100
000010
010000
000000
001000
010000
000010
,
000000
001000
100000
000100
000000
101000
000000
000000
,
000000
100000
001000
010000
000000
000100
010000
001000
,
000000
001000
010000
001000
000000
001100
000000
000000
,
000000
000100
010000
000100
000000
100000
010000
100000
,
000000
000010
001000
010000
000000
000110
000000
022000
,
000000
000000
000000
000000
,
000000
000000
000000
000000
000000
000000
033000
000000
000000
000000
000010
010000
000010
000000
000000
000000
,
000000
000010
001000
000100
000010
010000
000000
000100
,
000100
000001
000010
001000
000000
000001
000010
000010
,
001000
000001
000000
000010
001000
000100
000010
000100
,
000000
000100
000010
000001
001000
000010
000000
000000
,
000000
000001
000010
000100
000010
000001
000000
000001
,
001000
000100
001000
000010
000000
000100
000010
010000
,
000010
000100
000000
000100
010000
000010
010000
000100
,
000000
010000
000010
000100
000010
010000
000000
000000
,
000000
001000
000010
011000
000000
001000
010000
001010
,
000000
010000
000100
110000
000000
101000
000000
020200
,
000000
000000
000000
000000
000000
000000
000000
030300
,
000000
001000
000000
000000
000000
010000
000000
000000
,
000000
010000
010000
010000
000000
001000
001000
001000
,
000000
001000
001000
001000
000000
010010
000000
020020
,
000000
000000
000000
000000
,
000000
000000
030030
000000
000100
010000
000010
001000
,
000000
010000
001000
000010
000100
001000
000000
010000
,
000010
001000
000100
000001
000000
000100
000010
000001
,
000100
000010
000000
001000
000100
000010
000100
000001
,
000000
000001
000100
001000
000010
000100
000000
000100
,
000010
001000
000001
000010
000000
001000
000100
000010
,
001000
000010
000000
010000
010000
001000
000010
000010
,
000000
000100
000010
010000
000100
001000
000000
010000
,
010000
001000
010000
001000
000000
010010
000100
001000
,
001100
000000
000000
000000
;

//---------------dance-solo - ----------------
#NOTEDATA:;
#CHARTNAME:;
#STEPSTYPE:dance-solo;
#DESCRIPTION:;
#CHARTSTYLE:;
#DIFFICULTY:Medium;
#METER:7;
#RADARVALUES:0.555807,0.556307,0.046650,0.116626,0.018660,834.000000,824.000000,10.000000,25.000000,0.000000,0.000000,0.000000,0.000000,0.000000,0.555807,0.556307,0.046650,0.116626,0.018660,834.000000,824.000000,10.000000,25.000000,0.000000,0.000000,0.000000,0.000000,0.000000;
#CREDIT:;
#NOTES:
000000
000200
000000
000000
,
100300
200000
000000
000000
,
300100
002000
000000
000000
,
013000
020000
000000
000000
,
030100
020000
000000
000000
,
030010
000020
000000
000000
,
010030
002000
000000
000000
,
003100
000200
000000
001300
,
001000
000001
001000
000000
000100
000010
000000
000110
,
000000
000010
001000
000100
000010
001000
000000
000010
,
001000
000010
000001
001000
000000
001000
000010
000001
,
000100
001000
000000
000010
000001
000010
000100
001000
,
000000
000010
001000
010000
000100
010000
000000
000000
,
000000
000010
010000
000100
001000
010000
000000
000010
,
000100
001000
010000
010000
000000
000010
000100
010000
,
001000
010000
000000
010000
001000
000100
000010
010000
,
000000
100000
010000
000100
100000
010000
000000
000000
,
000000
000100
010000
000100
000000
100000
010000
100000
,
000000
000000
000100
000000
010000
000000
000100
000000
000000
000000
000000
011000
000000
000000
200200
000000
,
000000
000000
000000
000000
000000
000000
000000
000000
000000
300300
000000
022000
000000
000000
000000
000000
,
000000
000000
000000
000000
000000
000000
000000
000000
000000
033000
000000
200200
000000
000000
000000
000000
,
000000
000000
000000
000000
000000
000000
000000
000000
000000
300300
000000
022000
000000
000000
000000
000000
,
000000
000000
033000
010000
,
001000
000000
100000
001000
000100
010000
100000
000100
,
000100
010000
001000
000010
000100
010000
000000
000010
,
010000
000010
000000
000000
001000
000000
000000
000010
,
010000
000100
001000
000100
000100
000000
000000
000000
,
010000
000010
001000
000100
001000
000000
000000
000000
,
000100
000001
000010
001000
000001
000000
000000
000000
,
000100
000001
001000
000010
000100
000000
000000
000000
,
000100
000010
001000
000001
000100
000000
000000
000000
,
000010
000010
001000
000001
000100
000000
000000
000000
,
001000
010000
001000
000100
000010
000000
000000
000000
,
001000
000010
010000
000010
000100
000000
000000
000000
,
000010
000100
001000
000100
010000
000000
000000
000000
,
010000
001000
000100
001000
000010
000000
000000
000000
,
000100
100000
000100
010000
001000
000000
000000
000000
,
100000
001000
010000
000100
001000
000000
000000
000000
,
100000
001000
010000
001000
100000
000000
000000
100000
,
000100
001000
010000
001000
100000
000000
000000
000000
,
010000
000010
001000
000100
000010
000000
000000
000000
,
000010
010000
001000
000100
001000
010000
001000
000000
,
000010
000100
010000
001000
000100
000010
010000
000100
,
000000
000010
010000
001000
000100
000010
000000
010000
,
000001
000100
000010
001000
000000
000010
001000
000100
,
000001
000100
000000
000010
000001
000100
001000
000010
,
000000
001000
000010
000001
000001
000100
001000
001000
,
000000
001000
001000
000010
000001
000001
000000
000100
,
000100
001000
010000
000010
000000
000100
001000
000100
,
000010
010000
000000
001000
010000
000010
000100
010000
,
000000
000100
001000
010000
000100
001000
000010
000100
,
000000
000010
010000
001000
000000
010000
000010
001000
,
000000
000000
001000
000000
010000
000000
010000
000000
000000
000000
000000
110000
000000
000000
020200
000000
,
000000
000000
000000
000000
000000
030300
000000
100100
,
000000
000000
100000
001000
000100
100000
010000
000000
,
000100
001000
100000
000000
100000
001000
000100
000000
,
001000
000000
000100
000000
001000
000000
000000
000000
000000
000000
000000
000100
000000
000000
020000
000000
,
000000
000000
000000
030000
000000
010000
000010
010000
,
000100
001000
000000
000010
000100
001000
000100
010000
,
000000
000000
000000
001000
000100
001000
000010
010000
,
000000
000100
001000
000001
000010
000100
000000
000000
,
000000
000010
000001
001000
000001
000100
000000
000100
,
001000
000001
001000
000100
000000
000000
000000
000000
,
000000
000001
001000
000010
000001
000100
000000
001000
,
001000
000100
000010
010000
010000
001000
000000
000010
,
001000
000100
010000
001000
000010
010000
000000
001000
,
000010
010000
000100
000010
001000
010000
000000
000010
,
010000
000100
001000
010000
000100
001000
000000
010000
,
010000
001000
010000
000100
100000
001000
000000
100000
,
001000
010000
000100
100000
010000
010000
000000
000000
,
000000
001000
010000
100000
100000
001000
000000
010000
,
000100
100000
001000
010000
100000
100000
000000
001000
,
000010
010000
001000
000010
000100
001000
000000
000010
,
000100
001000
010000
000100
001000
001000
000000
000100
,
001000
010000
000010
001000
010000
010000
000000
001000
,
000010
010000
000010
000100
001000
010000
000000
001000
,
001000
000001
000010
000100
000001
001000
000000
000001
,
000100
000010
001000
000001
000100
000100
000000
001000
,
000010
000100
000100
000010
000001
000010
001000
000000
,
001000
000001
000100
000010
000000
000100
000000
000001
,
010000
001000
000100
010000
000100
000000
000000
001000
,
000010
000100
001000
010000
001000
000000
000000
000100
,
000010
001000
000100
010000
001000
000000
000000
000100
,
001000
010000
000100
001000
001000
000000
000000
000000
,
100000
001000
100000
010000
000000
100000
000000
001000
,
010000
100000
010000
100000
010000
000000
000000
001000
,
001000
100000
100000
000100
010000
000000
000000
000100
,
001000
001000
100000
010000
100000
000000
000000
000100
,
001000
010000
000100
010000
000100
000000
000000
000000
,
001000
000010
001000
000100
000000
010000
000000
010000
,
000100
000010
010000
000100
010000
000000
000000
000100
,
000100
000010
001000
000100
000100
000000
000000
010000
,
000001
000010
000100
001000
000010
000000
000000
000001
,
000010
001000
000010
000010
001000
000000
000000
000000
,
001000
000010
000100
001000
000010
000001
000000
000000
,
000000
000010
000001
001000
000100
000010
000000
000001
,
000100
010000
001000
000010
000000
001000
000010
010000
,
000100
010000
000000
001000
000100
010000
000010
001000
,
000000
000010
001000
000100
000100
010000
000010
000010
,
000000
000010
000010
001000
000100
000100
000000
010000
,
010000
100000
000100
001000
000000
010000
100000
010000
,
001000
000100
000000
100000
000100
001000
010000
000100
,
000000
010000
100000
000100
010000
100000
001000
010000
,
000000
001000
000100
100000
000000
000100
001000
100000
,
000000
000000
001000
000000
010000
000000
010000
000000
000000
000000
000000
000100
000000
000000
020000
000000
,
000000
000000
000000
000000
000000
030000
000000
000100
,
000000
000000
000010
001000
000100
000010
010000
000000
,
000100
001000
000010
000000
000010
001000
000100
000000
,
001000
000000
000100
000000
001000
000000
000000
000000
000000
000000
000000
000100
000000
000000
000200
000000
,
000000
000000
000000
000300
000000
000001
000010
000001
,
000100
001000
000000
000010
000100
001000
000100
000010
,
000000
000000
000000
001000
000100
001000
000010
001000
,
000000
010000
000010
000100
001000
010000
000000
000000
,
000000
001000
000100
000010
000100
010000
000000
010000
,
000010
000100
000010
010000
000000
000010
001000
001000
,
000100
000100
000000
010000
001000
000010
000100
001000
,
000000
000000
000000
000000
000000
000000
001000
010000
,
000000
000100
100000
010000
001000
100000
000000
010000
,
000100
100000
010000
001000
000000
000000
000000
000000
,
000000
000100
000000
000000
000000
000100
000000
000000
,
000000
010000
001000
000100
000000
010000
000000
000000
,
000000
001000
000000
000000
000000
000100
000000
000000
,
000000
010000
001000
000010
000000
000100
000000
000000
,
000000
000010
010000
000010
000000
001000
000100
001000
,
000000
001000
000001
001000
000000
000010
000000
002000
,
000000
000000
000000
000000
,
000000
003000
000000
000000
000000
000000
000000
000000
,
000000
000100
000000
000000
000000
000010
000000
000000
,
000000
001000
000010
010000
000000
001000
000000
000000
,
000000
000010
000000
000000
000000
010000
000000
000000
,
000000
001000
000100
001000
000000
001000
000000
000000
,
000000
010000
000100
010000
000000
000010
000100
000010
,
000000
100000
001000
000100
000000
100000
000000
002000
,
000000
000000
000000
000000
,
000000
000000
000000
003000
000000
000100
100000
000000
,
000000
100000
001000
010000
100000
000100
000000
010000
,
000100
010000
001000
000010
000000
010000
001000
001000
,
000010
010000
000000
001000
000010
000100
001000
000100
,
000000
000100
001000
010000
000010
001000
000000
000000
,
000000
010000
001000
000100
001000
010000
000000
010000
,
000010
000100
000010
001000
000000
000100
001000
000001
,
001000
000100
000000
000100
000001
001000
000001
000100
,
000000
000001
001000
000001
001000
000001
000000
000000
,
000000
000001
000001
000001
000000
001000
001000
001000
,
000000
000010
000010
000010
000000
001000
000000
000200
,
000000
000000
000000
000000
000000
000000
000000
000300
,
000000
001000
000000
000000
000000
000100
000000
000000
,
000000
000100
000100
000100
000000
001000
001000
001000
,
000000
001000
001000
001000
000000
100000
000000
200000
,
000000
000000
000000
000000
,
000000
000000
300000
000000
010000
000100
100000
001000
,
000000
000100
001000
100000
010000
001000
000000
000100
,
001000
000010
000100
010000
000000
000100
001000
010000
,
000100
001000
000000
000010
000100
001000
000100
010000
,
000000
010000
000100
000010
001000
000100
000000
000100
,
001000
000010
010000
001000
000000
000010
000100
001000
,
000010
001000
000000
000001
000001
000010
001000
001000
,
000000
000100
001000
000001
000100
000010
000000
000001
,
000001
000010
000001
000010
000000
000100
000001
000001
,
000110
000000
000000
000000
;

//---------------dance-solo - ----------------
#NOTEDATA:;
#CHARTNAME:;
#STEPSTYPE:dance-solo;
#DESCRIPTION:;
#CHARTSTYLE:;
#DIFFICULTY:Easy;
#METER:5;
#RADARVALUES:0.392531,0.445046,0.167942,0.093301,0.018660,589.000000,553.000000,36.000000,20.000000,0.000000,0.000000,0.000000,0.000000,0.000000,0.392531,0.445046,0.167942,0.093301,0.018660,589.000000,553.000000,36.000000,20.000000,0.000000,0.000000,0.000000,0.000000,0.000000;
#CREDIT:;
#NOTES:
000000
200000
000000
000000
,
300000
020000
000000
000000
,
030000
000200
000000
000000
,
000300
002000
000000
000000
,
003000
002000
000000
000000
,
003000
020000
000000
000000
,
030000
000200
000000
000000
,
000300
000020
000000
000030
,
000100
000000
000110
000000
000010
000001
000000
000000
,
000000
000001
000100
000000
001001
000000
000010
000000
,
000100
001000
000110
000001
,
000010
000100
001010
000010
,
001000
000000
000100
000000
000010
001000
000000
000000
,
000000
010000
001000
000000
000110
000000
001000
000000
,
000010
001000
011000
000010
,
000100
001000
001100
010000
,
010000
000000
001000
000000
010000
001000
000000
000000
,
000000
001000
000000
001000
000000
010000
000000
010000
,
000000
000000
001000
000000
000000
000000
001000
000000
000000
000000
000000
000100
000000
000000
200000
000000
,
000000
000000
000000
000000
000000
000000
000000
000000
000000
300000
000000
000200
000000
000000
000000
000000
,
000000
000000
000000
000000
000000
000000
000000
000000
000000
000300
000000
200000
000000
000000
000000
000000
,
000000
000000
000000
000000
000000
000000
000000
000000
000000
300000
000000
000200
000000
000000
000000
000000
,
000000
000000
000300
001000
,
000100
010000
100000
010000
,
000010
000000
000100
000000
000010
000000
000000
010000
,
000000
010000
000000
000000
000100
000000
000000
010000
,
001000
000010
000010
000000
,
001000
010000
000110
000000
,
000010
001000
001001
000000
,
000010
001000
001010
000000
,
000010
000001
000110
000000
,
000001
000001
000011
000000
,
000100
001000
011000
000000
,
000100
010000
010010
000000
,
010000
000010
001100
000000
,
001000
000100
011000
000000
,
100000
010000
001100
000000
,
010000
000100
010100
000000
,
010000
000000
000100
000000
010100
000000
000000
010000
,
100000
000100
011000
000000
,
001000
010000
000000
000010
010000
000000
000000
000000
,
010000
000100
001000
000100
,
010000
000000
001000
000000
000010
000000
001000
000010
,
000000
010000
001000
000000
000010
000000
010000
000000
,
001000
000001
000100
000100
,
001000
000010
001000
000100
,
000001
000001
001000
000010
,
000100
000100
001000
001000
,
000010
001000
010000
000100
,
010000
001000
001000
000010
,
001000
000100
000010
010000
,
000000
010000
000000
010000
000000
001000
000000
001000
,
000000
000000
001000
000000
000000
000000
001000
000000
000000
000000
000000
001000
000000
000000
200000
000000
,
000000
000000
000000
000000
000000
300000
000000
100000
,
000000
010000
010000
001000
,
000100
000100
100000
100000
,
000100
000000
000000
000000
000100
000000
000000
000000
000000
000000
000000
000010
000000
000000
002000
000000
,
000000
000000
000000
003000
000000
001000
010000
000000
,
000010
000100
000010
000010
,
001000
000100
000010
010000
,
000100
000100
000001
000010
,
000001
001000
001000
000010
,
000100
000100
000010
000000
,
000000
001000
000100
000000
001000
000000
000011
000000
,
000100
010000
001000
010100
,
000100
001000
010000
001100
,
010000
000010
000100
010100
,
001000
000100
000010
000110
,
001000
001000
010000
100100
,
000100
100000
001000
011000
,
100000
001000
010000
010100
,
100000
000100
010000
110000
,
010000
000100
000010
001100
,
000010
001000
000100
000110
,
000100
010000
001000
001010
,
010000
010000
000100
011000
,
000100
000001
001000
000110
,
000010
000100
000010
000110
,
000001
000010
001000
000101
,
000100
000000
000010
000001
000000
000010
000000
001000
,
001000
000000
000010
000000
000010
000000
000000
000100
,
010000
000000
000100
000000
000100
000000
000000
000010
,
010000
000000
000010
000000
000100
000000
000000
000010
,
000100
000010
000100
000000
,
010000
000100
000000
001000
000000
010000
000000
000100
,
001000
000000
001000
000000
001000
000000
000000
100000
,
000100
000000
010000
000000
001000
000000
000000
100000
,
000100
000000
010000
000000
010000
000000
000000
100000
,
000100
000000
000010
000000
000010
000000
000000
000010
,
000000
000100
000000
000010
000000
001000
000000
001000
,
000010
000000
001000
000000
001000
000000
000000
000010
,
010000
000000
000100
000000
000010
000000
000000
001000
,
001000
000000
000010
000000
000001
000000
000000
001000
,
000001
000001
000100
000000
,
000100
000001
000000
000100
000000
001000
000000
000000
,
000000
000001
001000
000000
000010
000000
000001
000000
,
000010
000100
010000
010000
,
000010
001000
000010
010000
,
000100
000100
000010
010000
,
010000
010000
000010
000010
,
001000
100000
000100
010000
,
000100
100000
100000
001000
,
100000
010000
001000
000100
,
001000
000000
100000
010000
000000
000100
000000
000100
,
000000
000000
001000
000000
000000
000000
001000
000000
000000
000000
000000
000010
000000
000000
002000
000000
,
000000
000000
000000
000000
000000
003000
000000
000010
,
000000
010000
000010
001000
,
000010
010000
010000
000010
,
000100
000000
000000
000000
000100
000000
000000
000000
000000
000000
000000
000010
000000
000000
000020
000000
,
000000
000000
000000
000030
000000
001000
000001
000000
,
000010
000000
000100
000000
000010
000000
000010
000001
,
000000
000000
000000
000100
000010
000000
000001
000000
,
001000
000000
010000
000000
000100
001000
000000
000000
,
000000
000100
000010
000000
000010
000000
001000
000000
,
010000
010000
001000
000100
,
000010
000000
000010
000000
000100
000000
000010
000100
,
000000
000000
000000
000000
000000
000000
000100
001000
,
000000
100000
010000
000000
000100
000000
010000
000000
,
100000
000000
001000
000100
000000
000000
000000
000000
,
000000
100000
000000
000000
000000
100000
000000
000000
,
000000
000010
000010
000010
000000
001000
000000
000000
,
000000
000100
000000
000000
000000
000010
000000
000000
,
000000
010000
010000
010000
000000
000010
000000
000000
,
000000
010000
000000
010000
000000
000100
000000
000100
,
000000
000100
000000
000100
000000
000001
000000
000200
,
000000
000000
000000
000000
,
000000
000300
000000
000000
000000
000000
000000
000000
,
000000
000010
000000
000000
000000
000001
000000
000000
,
000000
001000
001000
001000
000000
000100
000000
000000
,
000000
010000
000000
000000
000000
001000
000000
000000
,
000000
000100
000100
000100
000000
010000
000000
000000
,
000000
000010
000010
000010
000000
010000
010000
010000
,
000000
000100
000100
000100
000000
010000
000000
000200
,
000000
000000
000000
000000
,
000000
000000
000000
000300
000000
100000
010000
000000
,
000000
010000
000100
000000
010000
000000
100000
000000
,
000010
000100
010000
000100
,
010000
001000
010000
000100
,
000010
000000
000100
000000
010000
000100
000000
000000
,
000000
001000
000100
000000
000100
000000
001000
000000
,
000001
000001
000100
000100
,
000100
000000
000010
000000
001000
000000
001000
000010
,
000000
001000
000001
001000
000001
001000
000000
000000
,
000000
000001
000001
000001
000000
000100
000100
000100
,
000000
010000
010000
010000
000000
000100
000000
000020
,
000000
000000
000000
000000
000000
000000
000000
000030
,
000000
000100
000000
000000
000000
000010
000000
000000
,
000000
010000
010000
010000
000000
000100
000100
000100
,
000000
000100
000100
000100
000000
010000
000000
020000
,
000000
000000
000000
000000
,
000000
000000
030000
000000
000100
100000
000100
100000
,
000000
100000
000100
000000
001000
000000
000100
000000
,
000100
000010
001000
000100
,
000010
000100
000010
000010
,
001000
000010
000100
000010
,
000100
001000
000100
000010
,
000001
000100
001000
000100
,
000100
000100
000010
000001
,
001000
000000
001000
000000
000000
000000
000100
000010
,
000100
000000
000000
000000
;

//---------------dance-solo - ----------------
#NOTEDATA:;
#CHARTNAME:;
#STEPSTYPE:dance-solo;
#DESCRIPTION:;
#CHARTSTYLE:;
#DIFFICULTY:Challenge;
#METER:10;
#RADARVALUES:0.683097,0.890091,0.382534,0.111961,0.069976,1025.000000,943.000000,82.000000,24.000000,0.000000,0.000000,0.000000,0.000000,0.000000,0.683097,0.890091,0.382534,0.111961,0.069976,1025.000000,943.000000,82.000000,24.000000,0.000000,0.000000,0.000000,0.000000,0.000000;
#CREDIT:;
#NOTES:
000000
000000
000200
010000
001000
010000
001000
010000
,
001300
000000
200000
001000
010000
001000
010000
001000
,
310000
000000
002000
000100
100000
000100
100000
000100
,
103000
000000
020000
100000
000100
100000
000100
100000
,
030010
000000
020000
001000
000100
001000
000100
001000
,
030100
000000
000020
000100
001000
000100
001000
000100
,
001030
000000
002000
000010
010000
000010
010000
000010
,
013000
000000
000200
010000
000010
010000
000310
000000
,
001000
000100
000001
000010
001000
000000
000000
000000
000010
000100
000010
000000
000000
000000
000110
000000
,
000000
000011
001000
000100
000010
001001
000000
000010
,
001000
001010
000001
001001
000000
001001
000010
000001
,
000100
001010
000000
000110
000001
000010
000100
001100
,
000000
010010
001000
010000
000100
010010
000000
000000
,
000000
001010
010000
000100
001000
000110
000000
010010
,
000100
001000
010000
010010
000000
000110
000100
010000
,
001000
001010
000000
010010
001000
000100
000010
010010
,
000000
100100
010000
000100
100000
011000
000000
000000
,
000000
100100
010100
100100
000000
100100
110000
100100
,
000000
000000
100100
000000
011000
000000
100100
000000
000000
000000
000000
011000
000000
000000
100100
000000
,
010000
000000
001000
000000
010000
000000
100100
000000
000000
000000
000000
011000
000000
100000
000000
000100
,
000000
001000
000000
000010
000000
010000
000000
001100
000000
000000
000000
010010
000000
001000
000000
000100
,
000000
001000
000000
000100
000000
001000
000000
010010
000000
000000
000000
001100
000000
000010
000000
010000
,
000000
000100
000000
010000
000000
000010
000000
001100
000000
000000
000000
000000
001000
000000
000000
000000
,
000100
000000
010000
000100
000010
001000
010000
000010
,
000010
001000
000100
000001
000010
001000
000000
000001
,
001000
000001
000000
000000
000110
000000
000000
000001
,
001000
000010
000100
000010
000010
000000
001001
000000
,
001000
000001
000100
000010
000100
000000
001001
000000
,
001000
000010
000100
010000
000010
000000
010010
000000
,
001000
000010
010000
000100
001000
000000
010010
000000
,
001000
000100
010000
000010
001000
000000
010010
000000
,
000100
000100
010000
000010
001000
000000
010010
000000
,
010000
100000
010000
001000
000100
000000
100100
000000
,
010000
000100
100000
000100
001000
100000
011000
000000
,
000100
001000
010000
001000
100000
000100
011000
000000
,
100000
010000
001000
010000
000100
100000
011000
000000
,
000010
010000
000010
001000
000100
010000
001100
000000
,
010000
000100
001000
000010
000100
010000
001100
000000
,
010000
000100
001000
000100
010000
000010
001100
010000
,
000010
000100
001000
000100
010000
000010
001100
000000
,
001000
000001
000100
000010
000001
001000
000110
000000
,
000001
001000
000100
000010
000100
001000
000100
000000
,
000001
000010
001000
000100
000010
000001
001000
000010
,
000000
000001
001000
000100
000010
000001
000000
001000
,
000010
001000
000100
010000
000000
000100
010000
001000
,
000010
001000
000000
000100
000010
001000
010000
000100
,
000000
010000
000100
000010
000010
001000
010000
010000
,
000000
010000
010000
000100
000010
000010
000000
001000
,
001000
010000
100000
000100
000000
001000
010000
001000
,
000100
100000
000000
010000
100000
000100
001000
100000
,
000000
001000
010000
100000
001000
010000
000100
001000
,
000000
000100
100000
010000
000000
100000
000100
010000
,
000000
000000
000100
000000
001000
000000
001000
000000
000000
000000
000000
011000
000000
000000
002020
000000
,
000000
000000
000000
000000
000000
003030
000000
010010
,
000000
000000
010000
000100
000010
010000
001000
000000
,
000010
000100
010000
000000
010000
000100
000010
000000
,
000100
000000
000010
000000
000100
000000
000000
000000
000000
000000
000000
000011
000000
000000
002020
000000
,
000000
000000
000000
003030
000000
001000
000001
001000
,
000010
000100
000000
000001
000010
000100
000010
001000
,
000000
000000
000000
000100
000010
000100
000001
001000
,
000000
001000
010000
000010
000100
001000
000000
000000
,
000000
000100
000010
010000
000010
001000
000000
001000
,
010000
000010
010000
001000
000000
000000
000000
000000
,
000000
000010
010000
000100
000010
001000
000100
010000
,
010000
001000
000100
100000
100000
010000
001000
000100
,
010000
001000
100000
010000
000100
100000
001000
010000
,
000100
100000
001000
000100
010000
100000
001000
000100
,
100000
001000
010000
100000
001000
010000
000100
100000
,
001000
000100
001000
000010
010000
000100
000010
010000
,
000100
001000
000010
010000
001000
001000
000000
010010
,
000000
000100
001000
010000
010000
000010
000100
001000
,
000010
010000
000100
001000
010000
010000
001000
000100
,
000001
001000
000100
000001
000010
000100
001000
000001
,
000010
000100
001000
000010
000100
000100
000001
000010
,
000100
001000
000001
000100
001000
001000
000010
000100
,
000001
001000
000001
000010
000100
001000
000010
000100
,
010000
000010
000100
001000
000010
010000
000100
000010
,
001000
000100
010000
000010
001000
001000
000010
010000
,
000100
001000
001000
000100
000010
000100
010000
000000
,
010000
000010
001000
000100
000000
001000
000000
000010
,
100000
010000
001000
100000
001000
000000
000000
010000
,
000100
001000
010000
100000
010000
000000
000000
001000
,
000100
010000
001000
100000
010000
000000
000000
001000
,
010000
100000
001000
010000
010000
000000
100100
000000
,
010000
000100
010000
001000
000100
000000
000000
000100
,
001000
010000
000010
010000
001000
000000
000000
000100
,
000100
010000
010000
000010
001000
000000
000000
000010
,
000100
000100
010000
001000
010000
000000
000000
000010
,
000100
001000
000010
001000
000010
000000
000000
000000
,
000100
000001
000100
000010
000000
001000
000000
001000
,
000010
000001
001000
000010
001000
000000
000000
000010
,
000010
000001
000100
000010
000010
000000
000000
001000
,
000010
000100
001000
010000
000100
000000
000000
000010
,
000100
010000
000100
000100
010000
000000
000000
000000
,
010000
000100
001000
010000
000100
000010
000000
000000
,
000000
000100
000010
010000
001000
000100
000000
000010
,
001000
100000
010000
000100
000000
010000
000100
100000
,
001000
100000
000000
010000
001000
100000
000100
010000
,
000000
000100
010000
001000
001000
100000
000100
000100
,
000000
000100
000100
010000
001000
001000
000000
100000
,
001000
010000
000010
000100
000000
001000
010000
001000
,
000100
000010
000000
010000
000010
000100
001000
000010
,
000000
001000
010000
000010
001000
010000
000100
001000
,
000000
000100
000010
010000
000000
000010
000100
010000
,
000000
000000
000100
000000
001000
000000
001000
000000
000000
000000
000000
000110
000000
000000
002002
000000
,
000000
000000
000000
000000
000000
003003
000000
000010
,
000000
000000
000001
000100
000010
000001
001000
000000
,
000010
000100
000001
000000
000001
000100
000010
000000
,
010000
000000
001000
000000
010000
000000
000000
000000
000000
000000
000000
001010
000000
000000
022000
000000
,
000000
000000
000000
033000
000000
000010
000100
000010
,
001000
010000
000000
000100
001000
010000
001000
000100
,
000000
000000
000000
010000
001000
010000
000100
010000
,
000000
100000
000100
001000
010000
100000
000000
000000
,
000000
010000
001000
000100
001000
100000
000000
100000
,
000100
001000
000100
100000
000000
000100
010000
010000
,
001000
001000
000000
100000
010000
000100
001000
010000
,
000000
000000
000000
000000
000000
000000
000100
001000
,
000000
000010
010000
001000
000100
010000
000000
001000
,
000010
010000
001000
000100
000000
000000
000000
000000
,
000000
000010
000100
010000
000000
000010
001000
010000
,
000000
001000
000100
000010
000000
001001
000000
000000
,
000000
000100
000001
001000
000000
000010
001000
000001
,
000000
001000
000100
000001
000000
000010
000000
000000
,
000000
000001
001000
000001
000000
000100
000010
000100
,
000000
010000
000010
010000
000000
000110
000000
020200
,
000000
000000
000000
000000
,
000000
030300
000000
000000
000000
000000
000000
000000
,
000000
001000
010000
000010
000000
000100
000010
010000
,
000000
010000
000100
100000
000000
010100
000000
000000
,
000000
000100
010000
001000
000000
100000
001000
010000
,
000000
010000
001000
010000
000000
110000
000000
000000
,
000000
100000
001000
100000
000000
000100
001000
000100
,
000000
010000
000100
000010
000000
011000
000000
000220
,
000000
000000
000000
000000
,
000000
000000
000000
000000
000000
000000
000330
000000
000000
000000
010000
000010
010000
000000
000000
000000
,
000000
010000
000100
001000
010000
000010
000000
001000
,
000010
001000
000100
000001
000000
001000
000100
000100
,
000001
001000
000000
000100
000001
000010
000100
000010
,
000000
000010
000100
001000
000001
000100
000000
000000
,
000000
001000
000100
000010
000100
001000
000000
001000
,
000100
001000
000100
010000
000000
001000
010000
000010
,
010000
001000
000000
001000
000010
010000
000010
001000
,
000000
000010
010000
001000
010000
000010
000000
000000
,
000000
000100
010000
000110
000000
000100
000010
010100
,
000000
001000
100000
001100
000000
010100
000000
202000
,
000000
000000
000000
000000
000000
000000
000000
303000
,
000000
010000
000000
000000
000000
001000
000000
000000
,
000000
001000
001000
001000
000000
010000
010000
010000
,
000000
000100
000100
000100
000000
010010
000000
020020
,
000000
000000
000000
000000
,
000000
000000
030030
000000
001000
000010
010000
000100
,
000000
000010
000100
010000
001000
000100
000000
000010
,
000100
000001
000010
001000
000000
000010
000100
001000
,
000010
000100
000000
000001
000010
000100
000010
001000
,
000000
001000
000010
000001
000100
000010
000000
000010
,
000100
000001
001000
000100
000000
000001
000010
000100
,
000100
010000
000000
000010
000010
000100
010000
010000
,
000000
001000
010000
000010
001000
000100
000000
000010
,
000010
000100
000010
000100
000000
010010
001000
000100
,
001100
000000
000000
000000
;

//---------------dance-double - ----------------
#NOTEDATA:;
#CHARTNAME:;
#STEPSTYPE:dance-double;
#DESCRIPTION:;
#CHARTSTYLE:;
#DIFFICULTY:Hard;
#METER:9;
#RADARVALUES:0.649775,0.815917,0.307893,0.111961,0.044318,975.000000,909.000000,66.000000,24.000000,0.000000,0.000000,0.000000,0.000000,0.000000,0.649775,0.815917,0.307893,0.111961,0.044318,975.000000,909.000000,66.000000,24.000000,0.000000,0.000000,0.000000,0.000000,0.000000;
#CREDIT:;
#NOTES:
00000000
20000000
01000000
00010000
,
31000000
00020000
00100000
10000000
,
00130000
02000000
00010000
10000000
,
03010000
00200000
10000000
00010000
,
01300000
00002000
00100000
01000000
,
00103000
02000000
00010000
00001000
,
03010000
00020000
01000000
00100000
,
01030000
00200000
01000000
01300000
,
00010000
00000000
00001000
00000000
00000100
00000000
00000000
00000000
00010000
00001000
00010000
00000000
00000000
00000000
00011000
00000000
,
00000000
00010000
00000100
00001000
00010000
00000100
00000000
00010000
,
00000100
00010000
00100000
00001000
00000000
00000100
00010000
00100000
,
00001000
00000100
00000000
00010000
00100000
00010000
00001000
00000100
,
00000000
00010000
00000100
00000010
00001000
00000010
00000000
00000000
,
00000000
00010000
00000010
00001000
00000100
00000010
00000000
00010000
,
00001000
00000100
00000010
00000010
00000000
00010000
00001000
00000010
,
00000100
00000010
00000000
00000010
00000100
00001000
00010000
00000010
,
00000000
00000001
00000010
00001000
00000001
00000010
00000000
00000000
,
00000000
00001000
00000010
00001000
00000000
00000001
00000010
00000001
,
00000000
00000000
00001000
00000000
00000010
00000000
00001000
00000000
00000000
00000000
00000000
00000110
00000000
00000000
00001001
00000000
,
00000000
00000000
00000110
00000000
00000000
00000000
00001001
00000000
00000000
00000000
00000000
00000110
00000000
00000000
00000000
00001001
,
00000000
00000000
00000000
00010010
00000000
00000000
00000000
00001100
00000000
00000000
00000000
00010010
00000000
00000000
00000000
00001100
,
00000000
00000000
00000000
00001100
00000000
00000000
00000000
00010010
00000000
00000000
00000000
00001100
00000000
00000000
00000000
00010010
,
00000000
00000000
00000000
00010010
00000000
00000000
00000000
00001100
00000000
00000000
00000000
00000000
00000100
00000000
00000000
00000000
,
00001000
00000000
00000010
00001000
00010000
00000100
00000010
00010000
,
00010000
00000100
00001000
00100000
00010000
00000100
00000000
00000100
,
00010000
00100000
00000000
00000000
00011000
00000000
00000000
00100000
,
01000000
00010000
00001000
00010000
00010000
00000000
00100000
00000000
,
10000000
00100000
00001000
00010000
00001000
00000000
00100000
00000000
,
00010000
01000000
00100000
00001000
01000000
00000000
01001000
00000000
,
00010000
01000000
00001000
00100000
00010000
00000000
01001000
00000000
,
00010000
00100000
00001000
01000000
00010000
00000000
01001000
00000000
,
00100000
00100000
00001000
01000000
00010000
00000000
01001000
00000000
,
00100000
00010000
00100000
01000000
10000000
00000000
10010000
00000000
,
00100000
10000000
00010000
10000000
01000000
00010000
01100000
00000000
,
10000000
01000000
00100000
01000000
00010000
10000000
01100000
00000000
,
00010000
00100000
01000000
00100000
10000000
00010000
01100000
00000000
,
01000000
00001000
01000000
00010000
00100000
00001000
00110000
00000000
,
00001000
00100000
00010000
01000000
00100000
00001000
00110000
00000000
,
00001000
00100000
00010000
00100000
00001000
01000000
00110000
00001000
,
01000000
00100000
00010000
00100000
00001000
01000000
00110000
00000000
,
00000100
00000010
00001000
00010000
00100000
00000100
00011000
00000000
,
00100000
00010000
00001000
00010000
00001000
00000100
00001000
00000000
,
00100000
00010000
00000100
00001000
00010000
00100000
00001000
00010000
,
00000000
00100000
00100000
00001000
00010000
00100000
00000000
00100000
,
00010000
00000100
00001000
00000010
00000000
00001000
00000010
00000100
,
00010000
00000100
00000000
00001000
00010000
00000100
00000010
00001000
,
00000000
00000010
00001000
00010000
00010000
00000100
00000010
00000010
,
00000000
00000010
00000010
00001000
00010000
00010000
00000000
00000100
,
00000100
00000010
00000001
00001000
00000000
00000100
00000010
00000100
,
00001000
00000001
00000000
00000010
00000001
00001000
00000100
00000001
,
00000000
00000100
00000010
00000001
00000100
00000010
00001000
00000100
,
00000000
00001000
00000001
00000010
00000000
00000001
00001000
00000010
,
00000000
00000000
00001000
00000000
00000100
00000000
00000100
00000000
00000000
00000000
00000000
00000110
00000000
00000000
00020200
00000000
,
00000000
00000000
00000000
00000000
00000000
00030300
00000000
00010010
,
00000000
00000000
00000010
00001000
00010000
00000010
00000100
00000000
,
00010000
00001000
00000010
00000000
00000010
00001000
00010000
00000000
,
00001000
00000000
00010000
00000000
00001000
00000000
00000000
00000000
00000000
00000000
00000000
00110000
00000000
00000000
00020200
00000000
,
00000000
00000000
00000000
00030300
00000000
00000100
00001000
00000100
,
00010000
00001000
00000000
00100000
00010000
00001000
00010000
00000100
,
00000000
00000000
00000000
00001000
00010000
00001000
00100000
01000000
,
00000000
00010000
00001000
01000000
00100000
00010000
00000000
00000000
,
00000000
00100000
01000000
00001000
01000000
00010000
00000000
00010000
,
00001000
01000000
00001000
00010000
00000000
00000000
00000000
00000000
,
00000000
01000000
00001000
00100000
01000000
00010000
00100000
00001000
,
00100000
01000000
10000000
00010000
00010000
00100000
01000000
10000000
,
00100000
01000000
00010000
00100000
10000000
00010000
01000000
00100000
,
10000000
00010000
01000000
10000000
00100000
00010000
01000000
10000000
,
00010000
01000000
00100000
00010000
01000000
00100000
10000000
00010000
,
00010000
00100000
00010000
01000000
00001000
00100000
01000000
00001000
,
00100000
00010000
01000000
00001000
00010000
00010000
00000000
01001000
,
00000000
00100000
00010000
00001000
00001000
01000000
00100000
00010000
,
01000000
00001000
00100000
00010000
00001000
00001000
00010000
00100000
,
00010000
00000100
00001000
00100000
00010000
00001000
00000100
00000100
,
00001000
00010000
00100000
00010000
00001000
00001000
00100000
00010000
,
00001000
00000100
00000001
00001000
00000100
00000100
00010000
00001000
,
00100000
00010000
00100000
00010000
00001000
00000100
00010000
00001000
,
00000010
00010000
00001000
00000100
00010000
00000010
00001000
00010000
,
00000100
00001000
00000010
00010000
00000100
00000100
00010000
00000010
,
00001000
00000100
00000100
00001000
00010000
00001000
00000010
00000000
,
00000010
00010000
00000100
00001000
00000000
00000100
00000000
00001000
,
00000001
00000010
00000100
00000001
00000100
00000000
00000000
00000010
,
00001000
00000100
00000010
00000001
00000010
00000000
00000000
00000100
,
00001000
00000010
00000100
00000001
00000010
00000000
00000000
00000100
,
00000010
00000001
00000100
00000010
00000010
00000000
00001001
00000000
,
00000010
00001000
00000010
00000100
00001000
00000000
00000000
00001000
,
00000100
00000010
00010000
00000010
00000100
00000000
00000000
00001000
,
00001000
00000010
00000010
00010000
00000100
00000000
00000000
00010000
,
00001000
00001000
00000010
00000100
00000010
00000000
00000000
00010000
,
00001000
00000100
00010000
00000100
00010000
00000000
00000000
00100000
,
00001000
00100000
00001000
00010000
00001000
00000100
00000000
00000100
,
00010000
00100000
00001000
00010000
00001000
00000000
00000000
00010000
,
00010000
00100000
00001000
00010000
00010000
00000000
00000000
10000000
,
01000000
00100000
00010000
00001000
00100000
00000000
00000000
01000000
,
00100000
00001000
00100000
00100000
00001000
00000000
00000000
00000000
,
00001000
00100000
00010000
00001000
00100000
01000000
00000000
00000000
,
00000000
00100000
01000000
00001000
00010000
00100000
00000000
01000000
,
01000000
00010000
00100000
10000000
00000000
00100000
10000000
00010000
,
01000000
00010000
00000000
00100000
01000000
00010000
10000000
00100000
,
00000000
10000000
00100000
01000000
01000000
00010000
10000000
10000000
,
00000000
10000000
10000000
00100000
01000000
01000000
00000000
00010000
,
00010000
00001000
01000000
00100000
00000000
00010000
00001000
00010000
,
00100000
01000000
00000000
00001000
01000000
00100000
00010000
01000000
,
00000000
00010000
00001000
01000000
00010000
00001000
00100000
00010000
,
00000000
00100000
01000000
00001000
00000000
01000000
00100000
00001000
,
00000000
00000000
00001000
00000000
00000100
00000000
00000100
00000000
00000000
00000000
00000000
00011000
00000000
00000000
00202000
00000000
,
00000000
00000000
00000000
00000000
00000000
00303000
00000000
00010000
,
00000000
00000000
00100000
00001000
00010000
00100000
00000100
00000000
,
00010000
00001000
00100000
00000000
00100000
00001000
00010000
00000000
,
00000010
00000000
00000100
00000000
00000010
00000000
00000000
00000000
00000000
00000000
00000000
00010100
00000000
00000000
00000220
00000000
,
00000000
00000000
00000000
00000330
00000000
00010000
00001000
00010000
,
00000100
00000010
00000000
00001000
00000100
00000010
00000100
00001000
,
00000000
00000000
00000000
00000010
00000100
00000010
00001000
00000010
,
00000000
00000001
00001000
00000100
00000010
00000001
00000000
00000000
,
00000000
00000010
00000100
00001000
00000100
00000001
00000000
00000001
,
00001000
00000100
00001000
00000001
00000000
00001000
00000010
00000010
,
00000100
00000100
00000000
00000001
00000010
00001000
00000100
00000010
,
00000000
00000000
00000000
00000000
00000000
00000000
00001000
00000100
,
00000000
00010000
00000010
00000100
00001000
00000010
00000000
00000100
,
00010000
00000010
00000100
00001000
00000000
00000000
00000000
00000000
,
00000000
00010000
00001000
00000010
00000000
00010000
00000100
00000010
,
00000000
00000100
00001000
00010000
00000000
00100000
00000000
00000000
,
00000000
00001000
00100000
00001000
00000000
00010000
00000100
00001000
,
00000000
00000100
00010000
00001000
00000000
00010000
00000000
00000000
,
00000000
00010000
00001000
00010000
00000000
00001000
00010000
00001000
,
00000000
00001000
01000000
00001000
00000000
01100000
00000000
00202000
,
00000000
00000000
00000000
00000000
,
00000000
00303000
00000000
00000000
00000000
00000000
00000000
00000000
,
00000000
00010000
00001000
01000000
00000000
00100000
01000000
00001000
,
00000000
00100000
10000000
00010000
00000000
10100000
00000000
00000000
,
00000000
10000000
00100000
01000000
00000000
00010000
01000000
00100000
,
00000000
00100000
01000000
00100000
00000000
00110000
00000000
00000000
,
00000000
00010000
01000000
00010000
00000000
10000000
01000000
10000000
,
00000000
00010000
00100000
01000000
00000000
00011000
00000000
02200000
,
00000000
00000000
00000000
00000000
,
00000000
00000000
00000000
00000000
00000000
00000000
03300000
00000000
00000000
00000000
00001000
01000000
00001000
00000000
00000000
00000000
,
00000000
00001000
00100000
00010000
00001000
01000000
00000000
00010000
,
00010000
00000100
00001000
00100000
00000000
00100000
00001000
00001000
,
00100000
00010000
00000000
00001000
00100000
00010000
00001000
00010000
,
00000000
00010000
00001000
00000100
00100000
00001000
00000000
00000000
,
00000000
00000100
00001000
00010000
00001000
00000100
00000000
00000100
,
00001000
00000100
00001000
00000010
00000000
00000100
00000010
00010000
,
00000010
00000100
00000000
00000100
00010000
00000010
00010000
00000100
,
00000000
00010000
00000010
00000100
00000010
00010000
00000000
00000000
,
00000000
00001000
00000010
00001010
00000000
00001000
00010000
00011000
,
00000000
00000100
00001000
00001100
00000000
00001010
00000000
00000202
,
00000000
00000000
00000000
00000000
00000000
00000000
00000000
00000303
,
00000000
00000010
00000000
00000000
00000000
00000100
00000000
00000000
,
00000000
00001100
00001100
00001100
00000000
00000011
00000011
00000011
,
00000000
00001001
00001001
00001001
00000000
00010010
00000000
00020020
,
00000000
00000000
00000000
00000000
,
00000000
00000000
00030030
00000000
00000100
00010000
00000010
00001000
,
00000000
00010000
00001000
00000010
00000100
00001000
00000000
00010000
,
00001000
00100000
00010000
00000100
00000000
00010000
00001000
00000100
,
00010000
00001000
00000000
00100000
00010000
00001000
00010000
00000100
,
00000000
00000100
00010000
00100000
00001000
00010000
00000000
00010000
,
00001000
00100000
00010000
00001000
00000000
00100000
00010000
00001000
,
00100000
00001000
00000000
01000000
01000000
00100000
00001000
00001000
,
00000000
00010000
00001000
01000000
00010000
00100000
00000000
01000000
,
01000000
00100000
01000000
00100000
00000000
01001000
00010000
00100000
,
00110000
00000000
00000000
00000000
;

//---------------pump-single - ----------------
#NOTEDATA:;
#CHARTNAME:;
#STEPSTYPE:pump-single;
#DESCRIPTION:;
#CHARTSTYLE:;
#DIFFICULTY:Hard;
#METER:1;
#RADARVALUES:0.000000,0.000000,0.000000,0.000000,0.000000,0.000000,0.000000,0.000000,0.000000,0.000000,0.000000,0.000000,0.000000,0.000000,0.000000,0.000000,0.000000,0.000000,0.000000,0.000000,0.000000,0.000000,0.000000,0.000000,0.000000,0.000000,0.000000,0.000000;
#CREDIT:;
#NOTES:
00000
00000
00000
00000
;

//---------------dance-double - ----------------
#NOTEDATA:;
#CHARTNAME:;
#STEPSTYPE:dance-double;
#DESCRIPTION:;
#CHARTSTYLE:;
#DIFFICULTY:Easy;
#METER:5;
#RADARVALUES:0.391198,0.445046,0.158612,0.093301,0.018660,587.000000,553.000000,34.000000,20.000000,0.000000,0.000000,0.000000,0.000000,0.000000,0.391198,0.445046,0.158612,0.093301,0.018660,587.000000,553.000000,34.000000,20.000000,0.000000,0.000000,0.000000,0.000000,0.000000;
#CREDIT:;
#NOTES:
00000000
20000000
00000000
00000000
,
30000000
02000000
00000000
00000000
,
03000000
00020000
00000000
00000000
,
00030000
00200000
00000000
00000000
,
00300000
00200000
00000000
00000000
,
00300000
02000000
00000000
00000000
,
03000000
00020000
00000000
00000000
,
00030000
00002000
00000000
00003000
,
00010000
00000000
00011000
00000000
00001000
00000100
00000000
00000000
,
00000000
00000100
00001000
00000000
00010000
00000000
00001000
00000000
,
00010000
00100000
00011000
00000100
,
00001000
00010000
00101000
00001000
,
00001000
00000000
00000100
00000000
00000010
00001000
00000000
00000000
,
00000000
00010000
00001000
00000000
00000110
00000000
00001000
00000000
,
00000010
00001000
00011000
00000010
,
00000100
00001000
00001100
00010000
,
00000100
00000000
00000010
00000000
00000100
00000010
00000000
00000000
,
00000000
00000010
00000000
00000010
00000000
00000100
00000000
00000100
,
00000000
00000000
00000010
00000000
00000000
00000000
00000010
00000000
00000000
00000000
00000000
00000001
00000000
00000000
00002000
00000000
,
00000000
00000000
00000000
00000000
00000000
00000000
00000000
00000000
00000000
00003000
00000000
00000002
00000000
00000000
00000000
00000000
,
00000000
00000000
00000000
00000000
00000000
00000000
00000000
00000000
00000000
00000003
00000000
00002000
00000000
00000000
00000000
00000000
,
00000000
00000000
00000000
00000000
00000000
00000000
00000000
00000000
00000000
00003000
00000000
00000002
00000000
00000000
00000000
00000000
,
00000000
00000000
00000003
00000010
,
00000001
00000100
00001000
00000100
,
00000010
00000000
00000100
00000000
00000010
00000000
00000000
00010000
,
00000000
00010000
00000000
00000000
00000100
00000000
00000000
00010000
,
00001000
00000010
00000010
00000000
,
00001000
00010000
00000110
00000000
,
00001000
00100000
00100000
00000000
,
00001000
00100000
00101000
00000000
,
00001000
00000100
00011000
00000000
,
00000100
00000100
00001100
00000000
,
00010000
00100000
01100000
00000000
,
00010000
01000000
01001000
00000000
,
01000000
00001000
00110000
00000000
,
00100000
00010000
01100000
00000000
,
10000000
01000000
00110000
00000000
,
01000000
00010000
01010000
00000000
,
01000000
00000000
00010000
00000000
01010000
00000000
00000000
01000000
,
10000000
00010000
01100000
00000000
,
00100000
01000000
00000000
00001000
01000000
00000000
00000000
00000000
,
01000000
00010000
00100000
00010000
,
01000000
00000000
00100000
00000000
00001000
00000000
00100000
00001000
,
00000000
01000000
00100000
00000000
00001000
00000000
01000000
00000000
,
00100000
00001000
00010000
00010000
,
00100000
00001000
00100000
00010000
,
00000100
00000100
00010000
00001000
,
00010000
00010000
00100000
00100000
,
00010000
00001000
00010000
00000100
,
00010000
00001000
00001000
00000010
,
00001000
00000100
00000010
00010000
,
00000000
00010000
00000000
00010000
00000000
00001000
00000000
00001000
,
00000000
00000000
00000010
00000000
00000000
00000000
00000010
00000000
00000000
00000000
00000000
00000010
00000000
00000000
00002000
00000000
,
00000000
00000000
00000000
00000000
00000000
00003000
00000000
00001000
,
00000000
00000100
00000100
00000010
,
00000001
00000001
00001000
00001000
,
00000100
00000000
00000000
00000000
00000100
00000000
00000000
00000000
00000000
00000000
00000000
00000010
00000000
00000000
00002000
00000000
,
00000000
00000000
00000000
00003000
00000000
00001000
00000100
00000000
,
00000010
00000100
00000010
00000010
,
00001000
00000100
00000010
00010000
,
00010000
00010000
00000100
00001000
,
00000100
00010000
00010000
00001000
,
00010000
00000100
00001000
00000000
,
00000000
00010000
00100000
00000000
00100000
00000000
00101000
00000000
,
00010000
01000000
00100000
01010000
,
00010000
00100000
01000000
00110000
,
01000000
00001000
00010000
01010000
,
00100000
00010000
00001000
00011000
,
00100000
00100000
01000000
10010000
,
00010000
10000000
00100000
01100000
,
10000000
00100000
01000000
01010000
,
10000000
00010000
01000000
11000000
,
01000000
00010000
00001000
00110000
,
00001000
00100000
00010000
00011000
,
00010000
01000000
00100000
00101000
,
01000000
01000000
00010000
01100000
,
00010000
00000100
00000100
00011000
,
00001000
00010000
00001000
00011000
,
00000100
00001000
00000010
00010100
,
00010000
00000000
00001000
00000100
00000000
00001000
00000000
00000010
,
00001000
00000000
00000010
00000000
00000010
00000000
00000000
00000100
,
00010000
00000000
00000100
00000000
00000100
00000000
00000000
00000010
,
00010000
00000000
00000010
00000000
00000100
00000000
00000000
00000010
,
00000100
00000010
00000100
00000000
,
00000100
00000001
00000000
00000010
00000000
00000100
00000000
00000001
,
00000010
00000000
00000010
00000000
00000010
00000000
00000000
00001000
,
00000001
00000000
00000100
00000000
00000010
00000000
00000000
00001000
,
00000001
00000000
00000100
00000000
00000100
00000000
00000000
00001000
,
00000100
00000000
00000010
00000000
00000010
00000000
00000000
00000010
,
00000000
00000100
00000000
00000010
00000000
00001000
00000000
00001000
,
00000010
00000000
00001000
00000000
00001000
00000000
00000000
00000010
,
00010000
00000000
00000100
00000000
00000010
00000000
00000000
00001000
,
00000010
00000000
00001000
00000000
00000100
00000000
00000000
00000010
,
00000100
00000100
00010000
00000000
,
00010000
01000000
00000000
00010000
00000000
00100000
00000000
00000000
,
00000000
01000000
00100000
00000000
00001000
00000000
00000100
00000000
,
00001000
00010000
01000000
01000000
,
00001000
00100000
00001000
01000000
,
00010000
00010000
00001000
01000000
,
01000000
01000000
00001000
00001000
,
00100000
10000000
00010000
01000000
,
00010000
10000000
10000000
00100000
,
10000000
01000000
00100000
00010000
,
00100000
00000000
10000000
01000000
00000000
00010000
00000000
00010000
,
00000000
00000000
00100000
00000000
00000000
00000000
00100000
00000000
00000000
00000000
00000000
00001000
00000000
00000000
00200000
00000000
,
00000000
00000000
00000000
00000000
00000000
00300000
00000000
00001000
,
00000000
01000000
00001000
00100000
,
00001000
01000000
01000000
00001000
,
00010000
00000000
00000000
00000000
00010000
00000000
00000000
00000000
00000000
00000000
00000000
00001000
00000000
00000000
00002000
00000000
,
00000000
00000000
00000000
00003000
00000000
00000010
00000100
00000000
,
00001000
00000000
00010000
00000000
00001000
00000000
00001000
00000100
,
00000000
00000000
00000000
00010000
00001000
00000000
00000100
00000000
,
00001000
00000000
00010000
00000000
00000100
00001000
00000000
00000000
,
00000000
00000100
00000010
00000000
00000010
00000000
00001000
00000000
,
00010000
00010000
00001000
00000100
,
00000010
00000000
00000010
00000000
00000100
00000000
00000010
00000100
,
00000000
00000000
00000000
00000000
00000000
00000000
00000001
00000010
,
00000000
00001000
00000100
00000000
00000001
00000000
00000100
00000000
,
00001000
00000000
00000010
00000001
00000000
00000000
00000000
00000000
,
00000000
00001000
00000000
00000000
00000000
00001000
00000000
00000000
,
00000000
00000010
00000010
00000010
00000000
00001000
00000000
00000000
,
00000000
00000100
00000000
00000000
00000000
00000010
00000000
00000000
,
00000000
00010000
00010000
00010000
00000000
00000010
00000000
00000000
,
00000000
00010000
00000000
00010000
00000000
00000100
00000000
00000100
,
00000000
00010000
00000000
00010000
00000000
00000100
00000000
00020000
,
00000000
00000000
00000000
00000000
,
00000000
00030000
00000000
00000000
00000000
00000000
00000000
00000000
,
00000000
00001000
00000000
00000000
00000000
00010000
00000000
00000000
,
00000000
00100000
00100000
00100000
00000000
00010000
00000000
00000000
,
00000000
01000000
00000000
00000000
00000000
00100000
00000000
00000000
,
00000000
00010000
00010000
00010000
00000000
01000000
00000000
00000000
,
00000000
00001000
00001000
00001000
00000000
01000000
01000000
01000000
,
00000000
00010000
00010000
00010000
00000000
01000000
00000000
00020000
,
00000000
00000000
00000000
00000000
,
00000000
00000000
00000000
00030000
00000000
10000000
01000000
00000000
,
00000000
01000000
00010000
00000000
01000000
00000000
10000000
00000000
,
00001000
00010000
01000000
00010000
,
01000000
00100000
01000000
00010000
,
00001000
00000000
00010000
00000000
01000000
00010000
00000000
00000000
,
00000000
00100000
00010000
00000000
00010000
00000000
00100000
00000000
,
00001000
00100000
00010000
00010000
,
00010000
00000000
00001000
00000000
00100000
00000000
00100000
00001000
,
00000000
00100000
00010000
00100000
00010000
00100000
00000000
00000000
,
00000000
01000000
01000000
01000000
00000000
00010000
00010000
00010000
,
00000000
00001000
00001000
00001000
00000000
00000100
00000000
00000020
,
00000000
00000000
00000000
00000000
00000000
00000000
00000000
00000030
,
00000000
00000100
00000000
00000000
00000000
00000010
00000000
00000000
,
00000000
00010000
00010000
00010000
00000000
00000100
00000100
00000100
,
00000000
00000001
00000001
00000001
00000000
00000100
00000000
00000200
,
00000000
00000000
00000000
00000000
,
00000000
00000000
00000300
00000000
00000001
00001000
00000001
00001000
,
00000000
00001000
00000001
00000000
00000010
00000000
00000001
00000000
,
00000100
00000010
00001000
00000100
,
00000010
00000100
00000010
00000010
,
00001000
00000010
00000100
00000010
,
00000100
00001000
00000100
00000010
,
00000100
00010000
00100000
00010000
,
00010000
00010000
00001000
00000100
,
00010000
00000000
00100000
00000000
00000000
00000000
00010000
00001000
,
00010000
00000000
00000000
00000000
;

//---------------dance-single - ----------------
#NOTEDATA:;
#CHARTNAME:;
#STEPSTYPE:dance-single;
#DESCRIPTION:;
#CHARTSTYLE:;
#DIFFICULTY:Challenge;
#METER:18;
#RADARVALUES:1.036307,1.249300,0.592461,0.214592,1.140605,1555.000000,1428.000000,127.000000,46.000000,0.000000,0.000000,0.000000,0.000000,0.000000,1.036307,1.249300,0.592461,0.214592,1.140605,1555.000000,1428.000000,127.000000,46.000000,0.000000,0.000000,0.000000,0.000000,0.000000;
#CREDIT:;
#NOTES:
// measure 0
0000
0000
0000
0000
,  // measure 1
0000
0000
0000
0000
,  // measure 2
0000
0000
0000
0000
,  // measure 3
0000
0000
0000
0000
,  // measure 4
0000
0000
0000
0000
,  // measure 5
0000
0000
0000
0000
,  // measure 6
0000
0000
0000
0000
,  // measure 7
0000
0000
0000
0000
,  // measure 8
0000
0000
2000
0100
,  // measure 9
0001
0010
3100
0000
0002
0000
0010
0000
,  // measure 10
1000
0100
0013
0000
0200
0000
0001
0000
,  // measure 11
1000
0010
0301
0000
2000
0000
0010
0000
,  // measure 12
0001
0100
3010
0000
0002
0000
0100
0000
,  // measure 13
1000
0010
0103
0000
2000
0000
0010
0000
,  // measure 14
0001
0100
3010
0000
0020
0000
1000
0000
,  // measure 15
0100
0001
1030
0000
0200
0000
1000
0000
,  // measure 16
0001
0000
0010
0000
0301
0000
0000
0000
0001
1000
0001
0000
0000
0000
0100
0010
,  // measure 17
0100
0000
0000
0000
0110
0000
0000
0000
0100
1000
0001
1000
0010
0000
0100
0000
,  // measure 18
1001
0000
0000
0000
0100
1000
0001
0010
0100
0000
1000
0000
0011
0000
0000
0000
,  // measure 19
0001
1000
0100
0001
1000
0000
0010
0000
0101
0000
0000
0000
0100
0001
1000
0010
,  // measure 20
0100
0000
0010
0000
1001
0000
0000
0000
1000
0100
0010
1000
0001
0000
0100
0000
,  // measure 21
0001
0000
0001
0010
0100
1000
0010
0000
1000
0010
0001
1000
0100
0000
0010
0000
,  // measure 22
0101
0000
0000
0000
1000
0001
0100
1000
0010
0000
0001
0000
1001
0000
0000
0000
,  // measure 23
1000
0010
0100
1000
0001
0000
0010
0000
1001
0000
0000
0000
0001
1000
0010
0001
,  // measure 24
0100
0000
1000
0000
0101
0000
0000
0000
0001
0100
0010
0100
1000
0000
0001
0000
,  // measure 25
0110
0000
0000
0010
0100
0010
0000
0000
1000
0001
0010
0000
0011
0000
0000
0000
,  // measure 26
0001
1000
0010
0000
1010
0000
0000
0000
1000
0001
0010
0000
0011
0000
0000
0000
,  // measure 27
0100
0001
0010
0100
1000
0010
0001
0000
0100
1000
0010
0100
0001
0010
1000
0000
,  // measure 28
0100
1000
0010
0100
0001
0010
1000
0000
1000
0100
0001
1000
0010
0001
0100
0010
,  // measure 29
0001
0100
1000
0000
0010
0001
0100
1000
0100
0001
0010
0100
1000
0100
0001
1000
,  // measure 30
0010
0001
0100
0010
1000
0100
0001
0010
0001
0100
1000
0001
0100
0000
0110
0000
,  // measure 31
0000
0000
0010
0001
1000
0010
0100
1000
0010
0100
0001
0010
0100
0001
1000
0100
,  // measure 32
0010
1000
0001
0010
1000
0001
0100
1000
0001
0100
0010
0001
1000
0010
0100
0000
,  // measure 33
1001
0000
0000
0000
1000
0100
0001
0100
1000
0000
0000
0000
0000
0000
0110
0000
,  // measure 34
0000
0000
0000
0000
1000
0010
0001
1000
0100
0001
0010
0000
0100
0010
0100
0000
,  // measure 35
0000
0000
1001
0000
0000
0000
0001
0100
1000
0001
0010
0000
0100
1000
0010
0000
,  // measure 36
0000
0000
1001
0000
0000
0000
0010
0100
1000
0010
0100
0000
0001
0100
1000
0000
,  // measure 37
0000
0000
1001
0000
0000
0000
0010
0100
1000
0010
0001
0000
0100
1000
0010
0000
,  // measure 38
0000
0000
1001
0000
0000
0000
0010
1000
0100
0010
0001
0000
1000
0100
0010
0000
,  // measure 39
0000
0000
1001
0000
0000
0000
0100
0010
0100
0010
0001
0000
1000
0100
0010
0000
,  // measure 40
0000
0000
1001
0000
0000
0000
0010
1000
0001
1000
0010
0000
0100
0001
1000
0000
,  // measure 41
0000
0000
1001
0000
0000
0000
0010
0100
1000
0010
0001
0100
1000
0010
0100
0000
,  // measure 42
0001
0000
0110
0000
0000
0000
1000
0001
0100
1000
0010
0001
0100
0010
0001
0000
,  // measure 43
1000
0000
0110
0000
0000
0000
0001
1000
0010
0001
0100
0001
0010
0100
1000
0000
,  // measure 44
0001
0000
0110
0000
0000
0000
1000
0100
0001
0100
1000
0001
0010
1000
0100
0000
,  // measure 45
0001
0000
0110
0000
0000
0000
0001
1000
0100
0001
0010
0100
1000
0010
0100
0000
,  // measure 46
0001
0000
0110
0000
0000
0000
0001
1000
0100
0001
0010
1000
0100
0010
0001
0000
,  // measure 47
1000
0000
0110
0000
0000
0000
1000
0001
0100
1000
0010
0001
0100
0010
0001
0000
,  // measure 48
1000
0000
0110
0000
0000
0000
0001
0100
1000
0001
0010
1000
0100
0010
1000
0000
,  // measure 49
0001
0000
0110
0000
0000
0000
1000
0100
0001
0100
0010
0001
0100
1000
0010
0100
,  // measure 50
0001
1000
0010
0000
0000
0000
1000
0010
0100
0010
0001
1000
0010
0001
0100
0010
,  // measure 51
1000
0100
0001
0010
0100
0000
0000
0000
1000
0100
0001
1000
0010
0000
0100
0000
,  // measure 52
1100
0000
0000
0000
0001
0100
1000
0001
0010
0000
0100
0000
0101
0000
0000
0000
,  // measure 53
0100
1000
0001
0100
0010
0000
1000
0000
1010
0000
0000
0000
0100
0001
1000
0100
,  // measure 54
0010
0000
0001
0000
0110
0000
0000
0000
0001
0000
0100
0001
1000
0010
1000
0100
,  // measure 55
0010
1000
0001
0000
1001
0000
0000
0000
0001
1000
0001
0010
0100
0000
1000
0000
,  // measure 56
1001
0000
0000
0000
0010
1000
0100
1000
0010
0000
0001
0000
1010
0000
0000
0000
,  // measure 57
0100
0001
0010
0001
0100
0000
1000
0000
0101
0000
0000
0000
0010
0100
0001
0010
,  // measure 58
1000
0000
0100
0000
1001
0000
0000
0000
0100
1000
0010
1000
0001
0000
0100
0000
,  // measure 59
0010
0000
1000
0000
0110
0000
0000
0000
1000
0010
0001
0100
0010
0000
0000
0000
,  // measure 60
0001
0010
1000
0100
0010
0000
0000
0000
0100
0001
0010
1000
0010
0000
0000
0000
,  // measure 61
0000
0011
0000
0000
2020
0000
0000
0000
0000
0000
0000
0000
0000
0000
0000
0000
,  // measure 62
3030
0000
0000
0000
1001
0000
0000
0000
0000
0000
0001
0010
0100
0001
1000
0010
,  // measure 63
0001
0100
0010
0000
0000
0000
1000
0010
0100
0010
0001
0000
0000
0000
0001
0010
,  // measure 64
0100
0010
1000
0000
0000
0000
0010
1000
0100
0001
0010
0000
0000
0000
0000
0000
,  // measure 65
0000
1100
0000
0000
0202
0000
0000
0000
0000
0000
0000
0000
0303
0000
0000
0000
,  // measure 66
0001
0100
1000
0010
0001
0000
0100
0000
0110
0000
0000
0000
1000
0001
0100
1000
,  // measure 67
0010
0000
0100
0000
2002
0000
0000
0000
3003
0000
0000
0000
0010
0001
0100
1000
,  // measure 68
0010
0000
1000
0000
1001
0000
0000
0000
0010
0100
0001
0010
1000
0000
0100
0000
,  // measure 69
0220
0000
0000
0000
0330
0000
0000
0000
0100
0010
1000
0100
0001
0000
1000
0000
,  // measure 70
1010
0000
0000
0000
0010
0100
0001
0010
1000
0000
0001
0000
0220
0000
0000
0000
,  // measure 71
0000
0000
0000
0000
0330
0000
0000
0000
1000
0010
0001
1000
0100
0001
1000
0100
,  // measure 72
0010
0000
0000
1000
0001
0100
0010
0001
0100
0010
1000
0000
0001
1000
0001
1000
,  // measure 73
0010
0000
0000
0010
1000
0001
0010
1000
0100
0010
0001
0100
0010
0100
1000
0010
,  // measure 74
0001
0000
0000
1000
0010
0100
1000
0010
0001
1000
0100
0001
1000
0100
0010
1000
,  // measure 75
0001
0000
0000
0000
1000
0010
0001
1000
0100
1000
0010
0100
0001
0010
0100
1000
,  // measure 76
0010
0000
0000
0000
0001
1000
0010
0001
0100
1000
0010
0100
1000
0010
0001
1000
,  // measure 77
0100
0000
0000
0000
0001
1000
0100
0001
0010
0100
1000
0010
0001
1000
0010
0100
,  // measure 78
0010
0000
0000
0000
1000
0010
0001
1000
0100
0001
0010
1000
0001
0100
0001
0010
,  // measure 79
1000
0000
0000
0000
0010
0001
1000
0100
0001
0010
0100
1000
0010
0100
0001
1000
,  // measure 80
0001
0000
0000
0000
0100
0001
1000
0010
0001
0100
0010
0001
1000
0001
0100
1000
,  // measure 81
0010
0000
0000
0000
1000
0001
0100
1000
0010
0100
0001
0010
0100
1000
0010
0001
,  // measure 82
0010
0000
0000
0000
0100
1000
0010
0100
0001
0010
1000
0100
0010
1000
0001
0100
,  // measure 83
0001
0000
0000
0000
0010
0001
1000
0100
0001
0010
1000
0001
0100
1000
0010
0100
,  // measure 84
0001
0000
0000
0000
0010
0100
0001
0010
1000
0001
0100
1000
0010
0001
1000
0100
,  // measure 85
0001
0000
0000
0000
1000
0001
0010
1000
0100
0010
0001
0100
1000
0001
0010
0100
,  // measure 86
0010
0000
0000
0000
0001
0010
0100
1000
0010
1000
0010
0001
0100
0010
1000
0001
,  // measure 87
0100
0000
0000
0000
1000
0100
0001
0100
1000
0000
0010
0000
1100
0000
0000
0000
,  // measure 88
0101
0000
0000
0000
1000
0100
0001
1000
0010
0000
0100
0000
0001
0000
1100
0000
,  // measure 89
0000
0000
0000
0000
0010
0001
1000
0010
0100
0000
0010
0000
0001
0000
1010
0000
,  // measure 90
0000
0000
0000
0000
0100
0001
1000
0100
0010
0000
0100
0000
0001
0000
1010
0000
,  // measure 91
0000
0000
0000
0000
0100
1000
0010
1000
0001
0000
0100
0000
0010
0000
0110
0000
,  // measure 92
0000
0000
1001
0000
0000
0000
0001
1000
0100
1000
0001
0000
0010
0000
1100
0000
,  // measure 93
0000
0000
0000
0000
0100
1000
0010
0100
0001
0000
1000
0000
0001
0000
1010
0000
,  // measure 94
0000
0000
0000
0000
0100
0001
0100
1000
0001
0000
0001
0000
1000
0000
0011
0000
,  // measure 95
0000
0000
0000
0000
1000
0001
0100
0000
0100
1000
0001
0000
0010
0000
0001
0000
,  // measure 96
0110
0000
0000
0000
1000
0100
0010
1000
0001
0000
0100
0000
0001
0000
1100
0000
,  // measure 97
0000
0000
0000
0000
0100
0001
0010
0100
1000
0000
0010
0000
0100
0000
0022
0000
,  // measure 98
0033
0000
0000
0000
0001
0010
0100
0010
1000
0000
0001
0000
0100
0000
1001
0000
,  // measure 99
0000
0000
0000
0000
0100
0001
0100
0001
1000
0000
0010
0000
0100
0000
0101
0000
,  // measure 100
0000
0000
0000
0000
0001
0010
1000
0010
0100
0000
0010
0000
0001
0000
1100
0000
,  // measure 101
0000
0000
0000
0000
1000
0010
0100
1000
0001
0000
0100
0000
0100
0000
0011
0000
,  // measure 102
0000
0000
0000
0000
1000
0010
0001
1000
0100
1000
0010
0100
0001
0010
0100
0002
,  // measure 103
2000
0000
0000
0000
3003
0000
0000
0000
0100
0010
1000
0100
0001
0000
0010
0000
,  // measure 104
1100
0000
0000
0000
1000
0010
0100
1000
0001
0000
0010
0000
1100
0000
0000
0000
,  // measure 105
0010
0100
1000
0010
0001
0000
0100
0000
1001
0000
0000
0000
0010
1000
0100
0010
,  // measure 106
0001
0000
1000
0000
0011
0000
0000
0000
1000
0001
0010
0001
0100
1000
0100
0000
,  // measure 107
0001
0000
1000
0000
1001
0000
0000
0000
1000
0001
1000
0001
0010
0000
0100
0000
,  // measure 108
0110
0000
0000
0000
0001
1000
0010
0100
0001
0000
1000
0000
0101
0000
0000
0000
,  // measure 109
0010
1000
0001
0100
0010
0000
0100
0000
1010
0000
0000
0000
0001
0100
1000
0010
,  // measure 110
0100
0000
0010
0000
1001
0000
0000
0000
0010
0100
0001
0010
1000
0100
0010
1000
,  // measure 111
0001
0010
0100
0000
0110
0000
0000
0000
0100
0010
1000
0100
0001
0000
0000
0000
,  // measure 112
1000
0010
0100
1000
0001
0000
0000
0000
0010
1000
0001
0100
0001
0000
0000
0000
,  // measure 113
0000
0110
0000
0000
2002
0000
0000
0000
0000
0000
0000
0000
0000
0000
0000
0000
,  // measure 114
3003
0000
0000
0000
0100
0010
0100
0000
1001
0000
1000
0100
0010
0000
0100
0000
,  // measure 115
1000
0010
0001
0000
0000
0000
0100
0001
0010
0100
1000
0000
0000
0000
1000
0001
,  // measure 116
0010
1000
0100
0000
0000
0000
0001
1000
0010
1000
0001
0000
0000
0000
0000
0000
,  // measure 117
0000
1010
0000
0000
0022
0000
0000
0000
0000
0000
0000
0000
0033
0000
0000
0000
,  // measure 118
1000
0001
0100
0010
1000
0000
0010
0000
1001
0000
0000
0000
0100
1000
0010
0100
,  // measure 119
0001
0000
0010
0000
2200
0000
0000
0000
3300
0000
0000
0000
0001
1000
0010
0100
,  // measure 120
0001
0000
0100
0000
0011
0000
0000
0000
0001
0010
1000
0001
0100
0000
0010
0000
,  // measure 121
2002
0000
0000
0000
3003
0000
0000
0000
0010
0001
0100
0010
1000
0000
0100
0000
,  // measure 122
1001
0000
0000
0000
0001
0010
1000
0001
0100
0000
1000
0000
0101
0000
0000
0000
,  // measure 123
1000
0001
0010
1000
0010
0000
0100
0000
1100
0000
0000
0000
0001
0100
0010
0001
,  // measure 124
1000
0000
0100
0000
0011
0000
0000
0000
0001
0010
0100
1000
0100
0010
0001
0000
,  // measure 125
0000
0000
0100
1000
0001
0000
0000
0000
1000
0100
0001
0000
0010
0000
0100
0000
,  // measure 126
1001
0000
0000
0000
0010
0100
1000
0000
0001
0000
0010
0000
0101
0000
0000
0000
,  // measure 127
1000
0100
0010
0001
0010
0100
1000
0000
1000
0010
0100
0010
0001
0000
0000
0000
,  // measure 128
1000
0100
0010
0100
0001
0000
0000
0000
0001
1000
0010
0001
0100
0010
0100
0000
,  // measure 129
2002
0000
0000
0000
3003
0000
0000
0000
0010
0100
1000
0010
0001
0000
0000
0000
,  // measure 130
0100
0010
0001
0100
1000
0000
0000
0000
0001
0100
0010
0001
1000
0000
0000
0000
,  // measure 131
0220
0000
0000
0000
0330
0000
0000
0000
1000
0010
0001
0010
1000
0000
0000
0000
,  // measure 132
0010
0001
0100
1000
0010
0000
0000
0000
0001
0100
1000
0100
0001
0000
0000
0000
,  // measure 133
1100
0202
0000
0000
,  // measure 134
0000
0000
0000
0000
0000
0000
0000
0000
0303
0000
0000
0000
1000
0010
0100
0001
,  // measure 135
0100
0010
1000
0000
0000
0000
0000
0000
0010
0100
0001
0010
1000
0000
0000
0000
,  // measure 136
0100
0010
1000
0100
0001
0000
0000
0000
0010
0100
1000
0010
0001
0000
0000
0000
,  // measure 137
1010
0000
0000
0000
0000
0000
0000
0000
1000
0001
0010
1000
0100
0000
0000
0000
,  // measure 138
0001
0010
0100
1000
0010
0000
0000
0000
0010
1000
0100
0001
0010
0000
0000
0000
,  // measure 139
0011
0000
0000
0000
0000
0000
0000
0000
0001
0010
0100
0010
0001
0000
0000
0000
,  // measure 140
1000
0010
0100
0010
1000
0000
0000
0000
0001
0010
0100
0010
0001
0000
0000
0000
,  // measure 141
0011
2200
0000
0000
,  // measure 142
0000
0000
0000
3300
,  // measure 143
0001
1000
0001
0000
0000
0000
0000
0000
0001
1000
0100
0001
0010
0000
0001
0000
,  // measure 144
1100
0000
0000
0000
0010
1000
0100
1000
0001
0000
0010
0000
1001
0000
0000
0000
,  // measure 145
0001
1000
0010
0100
0010
0000
1000
0000
0101
0000
0000
0000
0010
0001
1000
0010
,  // measure 146
0100
0000
0010
0000
0101
0000
0000
0000
0100
1000
0010
0100
0001
0000
1000
0000
,  // measure 147
0220
0000
0000
0000
0330
0000
0000
0000
0001
1000
0010
0001
0100
0000
0010
0000
,  // measure 148
1001
0000
0000
0000
0001
1000
0100
0001
0010
0000
0100
0000
1001
0000
0000
0000
,  // measure 149
0010
0100
0001
0010
1000
0000
0001
0000
0110
0000
0000
0000
0010
0100
1000
0010
,  // measure 150
0001
0000
1000
0000
0110
0000
0000
0000
1000
0100
0001
1000
0010
0000
0001
0000
,  // measure 151
1100
0000
0000
0000
0000
0000
0000
0000
0100
0010
0001
0000
1100
0000
0000
0000
,  // measure 152
0100
0010
1000
0000
0101
0000
0000
0000
0100
0010
0001
0000
1100
0000
0000
0000
,  // measure 153
1010
0202
0000
0000
,  // measure 154
0000
0000
0303
0000
0020
1000
1030
0000
,  // measure 155
0200
0000
0001
0000
0301
0000
0000
0000
0100
1000
0001
1000
0100
0000
0000
0000
,  // measure 156
0010
0001
1000
0001
0010
0000
0000
0000
0100
0001
1000
0001
0100
0000
0000
0000
,  // measure 157
1001
2002
0000
0000
,  // measure 158
0000
0000
0000
0000
0000
3003
0000
0110
,  // measure 159
1100
0000
0101
0000
0110
0000
0000
0000
1000
0010
0100
1000
0001
0100
0010
0000
,  // measure 160
0100
0000
0000
0000
1000
0001
0010
0001
1000
0000
0100
0010
0001
0000
0000
0000
,  // measure 161
0100
1000
0010
0100
0001
1000
0100
0000
0010
0000
0000
0000
1000
0001
0100
1000
,  // measure 162
0010
0000
0100
1000
0001
0000
0000
0000
0001
0010
0100
0001
1000
0001
0010
0000
,  // measure 163
0100
0000
0000
0000
0100
0001
0010
0100
1000
0010
0001
0000
0010
0000
0000
0000
,  // measure 164
1000
0001
0100
1000
0010
0000
0100
1000
0001
0000
0000
0000
1000
0010
1000
0010
,  // measure 165
0100
0010
0001
0000
0001
0000
0000
0000
0010
0100
0001
0010
1000
0100
0010
0000
,  // measure 166
0100
0000
0000
0000
1000
0001
1000
0010
0100
0001
1000
0010
0100
0000
0000
0000
,  // measure 167
1001
1010
0011
0110
0000
0000
0000
0000
;

//---------------dance-single - Ultimate----------------
#NOTEDATA:;
#CHARTNAME:;
#STEPSTYPE:dance-single;
#DESCRIPTION:Ultimate;
#CHARTSTYLE:;
#DIFFICULTY:Edit;
#METER:20;
#RADARVALUES:1.338869,1.483544,1.082291,0.195932,1.826367,2009.000000,1777.000000,232.000000,42.000000,0.000000,0.000000,0.000000,0.000000,0.000000,1.338869,1.483544,1.082291,0.195932,1.826367,2009.000000,1777.000000,232.000000,42.000000,0.000000,0.000000,0.000000,0.000000,0.000000;
#CREDIT:;
#NOTES:
// measure 0
0000
0000
0000
0000
,  // measure 1
0000
0000
0000
0000
,  // measure 2
0000
0000
0000
0000
,  // measure 3
0000
0000
0000
0000
,  // measure 4
0000
0000
0000
0000
,  // measure 5
0000
0000
0000
0000
,  // measure 6
0000
0000
0000
0000
,  // measure 7
0000
0000
0000
0000
,  // measure 8
0000
0000
0000
0000
2000
0001
0010
0100
,  // measure 9
0001
0000
0100
0000
3010
0000
0100
1000
0002
0000
1000
0000
0100
0000
0010
0000
,  // measure 10
1000
0000
0010
0000
0103
0000
1000
0001
0020
0000
1000
0000
0001
0000
0100
0000
,  // measure 11
1000
0000
0100
0000
0031
0000
0100
0001
2000
0000
0001
0000
0100
0000
0010
0000
,  // measure 12
0001
0000
0010
0000
3100
0000
0010
0100
0002
0000
1000
0000
0010
0000
0100
0000
,  // measure 13
1000
0000
0100
0000
0013
0000
0100
0001
2000
0000
0010
0000
0100
0000
0010
0000
,  // measure 14
0001
0000
0010
0000
3100
0000
0001
0010
0200
0000
0010
0000
1000
0000
0001
0000
,  // measure 15
0010
0000
1000
0000
0301
0000
1000
0100
0020
0000
0100
0000
1000
0000
0100
0000
,  // measure 16
0001
0000
0000
0000
0100
0000
0000
0000
0031
0000
0000
0000
0000
0000
0000
0000
0001
0010
0001
0010
0001
0000
0000
0000
0000
0000
0000
0000
1000
0100
1000
0100
,  // measure 17
1000
0000
0000
0000
0000
0000
0000
0000
0110
0000
0000
0000
0000
0000
0000
0000
0010
1000
0010
0000
0001
0000
1000
0000
0100
0000
0001
0000
0010
0000
0000
0000
,  // measure 18
1001
0000
0000
0000
0000
0000
0000
0000
0010
0001
0010
0000
1000
0000
0100
0000
0010
0000
0001
0000
1000
0000
0000
0000
0101
0000
0000
0000
0000
0000
0000
0000
,  // measure 19
0001
0100
0001
0000
0100
0000
0010
0000
1000
0000
0001
0000
0100
0000
0000
0000
0011
0000
0000
0000
0000
0000
0000
0000
0010
0001
0010
0000
1000
0000
0100
0000
,  // measure 20
0010
0000
0001
0000
0100
0000
0000
0000
1001
0000
0000
0000
0000
0000
0000
0000
1000
0010
1000
0000
0010
0000
0100
0000
0001
0000
0000
0000
0010
0000
0000
0000
,  // measure 21
0001
1000
0001
1000
0001
0000
0000
0000
1000
0001
1000
0001
1000
0000
0000
0000
0010
0100
0010
0000
0001
0000
1000
0000
0010
0000
1000
0000
0100
0000
0000
0000
,  // measure 22
0011
0000
0000
0000
0000
0000
0000
0000
1000
0001
1000
0000
0100
0000
0010
0000
0100
0000
1000
0000
0001
0000
0000
0000
1001
0000
0000
0000
0000
0000
0000
0000
,  // measure 23
1000
0100
1000
0000
0001
0000
0010
0000
0001
0000
0010
0000
0100
0000
0000
0000
1001
0000
0000
0000
0000
0000
0000
0000
0001
1000
0001
0000
0010
0000
0100
0000
,  // measure 24
0010
0000
0100
0000
1000
0000
0000
0000
0011
0000
0000
0000
0000
0000
0000
0000
0001
0010
0001
0000
1000
0000
0100
0000
1000
0000
0100
0000
0001
0000
0000
0000
,  // measure 25
0110
0000
0000
0000
0000
0000
0100
0010
0100
0010
0100
0000
0000
0000
0000
0000
1000
0001
1000
0001
1000
0000
0000
0000
0101
0000
0000
0000
0000
0000
0000
0000
,  // measure 26
0001
1000
0001
1000
0001
0000
0000
0000
1100
0000
0000
0000
0000
0000
0000
0000
1000
0001
1000
0001
1000
0000
0000
0000
0101
0000
0000
0000
0000
0000
0000
0000
,  // measure 27
0010
0001
0100
0010
1000
0100
0001
0100
0010
1000
0100
0010
0001
0100
1000
0001
,  // measure 28
0010
1000
0100
0010
0001
0100
1000
0010
1000
0010
0001
1000
0100
0001
0010
0100
,  // measure 29
0001
0010
1000
0010
0100
0001
0010
1000
0010
0001
0100
0010
1000
0010
0001
1000
,  // measure 30
0100
0001
0010
0100
1000
0010
0001
0100
0001
0010
1000
0001
0010
1000
0100
0001
,  // measure 31
0100
0000
0100
0001
1000
0100
0010
1000
0100
0010
0001
0100
0010
0001
1000
0010
,  // measure 32
0100
0000
1000
0000
0001
0000
0100
0000
1000
0001
1000
0001
1000
0000
0100
0000
0001
0010
0001
0010
0001
0000
0100
0000
1000
0100
1000
0100
1000
0000
0000
0000
,  // measure 33
1001
0000
0000
0000
1000
0010
0001
0010
1000
0010
0100
0001
0100
1000
0100
0010
,  // measure 34
0101
0000
0000
0000
1000
0100
0001
1000
0010
0001
0100
1000
0010
0100
0010
0000
,  // measure 35
0000
0000
1001
0000
0000
0000
0001
0010
1000
0001
0100
0001
0010
1000
0100
0000
,  // measure 36
0000
0000
1001
0000
0000
0000
0100
0010
1000
0100
0010
1000
0001
0010
1000
0000
,  // measure 37
0000
0000
1001
0000
0000
0000
0100
0010
1000
0100
0001
0100
0010
1000
0100
0000
,  // measure 38
0000
0000
1001
0000
0000
0000
0100
1000
0010
0100
0001
0100
1000
0010
0100
0000
,  // measure 39
0000
0000
1001
0000
0000
0000
0010
0100
0010
0100
0001
0100
1000
0010
0100
0000
,  // measure 40
0000
0000
1001
0000
0000
0000
0100
1000
0001
1000
0100
1000
0010
0001
1000
0000
,  // measure 41
0000
0000
1001
0000
0000
0000
0100
0010
1000
0100
0001
0010
1000
0100
0010
1000
,  // measure 42
0001
0000
0110
0000
0101
0000
1000
0001
0010
1000
0100
0001
0010
0100
0001
0010
,  // measure 43
1000
0000
0110
0000
1100
0000
0001
1000
0100
0001
0010
0001
0100
0010
1000
0100
,  // measure 44
0001
0000
0110
0000
1010
0000
1000
0010
0001
0010
1000
0001
0100
1000
0010
0100
,  // measure 45
0001
0000
0110
0000
0011
0000
0001
1000
0010
0001
0100
0010
1000
0100
0010
0000
,  // measure 46
0001
0000
0110
0000
0110
0000
0001
1000
0010
0001
0100
1000
0010
0100
0001
0010
,  // measure 47
1000
0000
0110
0000
1001
0000
1000
0001
0010
1000
0100
0001
0010
0100
0001
0010
,  // measure 48
1000
0001
0110
0000
0000
0000
0001
0010
1000
0001
0100
1000
0010
0100
1000
0010
,  // measure 49
0001
1000
0110
0000
0000
0000
1000
0010
0001
0010
0100
0001
0010
1000
0100
0010
,  // measure 50
0001
1000
0101
0000
0000
0000
1000
0100
0010
0100
0001
1000
0100
0001
0010
0100
,  // measure 51
1000
0000
0010
0000
0001
0000
0100
0000
0110
0000
0000
0000
0000
0000
0000
0000
1000
0010
1000
0010
1000
0000
0001
0000
0100
0000
0000
0000
0010
0000
0000
0000
,  // measure 52
1010
0000
0000
0000
0000
0000
0000
0000
0001
0010
0001
0010
0001
0000
1000
0000
0100
0000
0000
0000
0010
0000
0000
0000
0011
0000
0000
0000
0000
0000
0000
0000
,  // measure 53
0010
1000
0010
1000
0010
0000
0001
0000
0100
0000
0000
0000
1000
0000
0000
0000
1100
0000
0000
0000
0000
0000
0000
0000
0010
0001
0010
0001
0010
0000
1000
0000
,  // measure 54
0100
0000
0000
0000
0001
0000
0000
0000
0110
0000
0000
0000
0000
0000
0000
0000
0001
0100
0001
0100
0001
0000
0010
0000
1000
0000
0100
0000
1000
0000
0010
0000
,  // measure 55
0100
0000
1000
0000
0001
0000
0100
0000
1001
0000
0000
0000
0000
0000
0000
0000
0001
1000
0001
1000
0001
0000
0100
0000
0010
0000
0000
0000
1000
0000
0000
0000
,  // measure 56
1001
0000
0000
0000
0000
0000
0000
0000
0100
1000
0100
1000
0100
0000
0001
0000
0100
0000
0000
0000
0001
0000
0000
0000
1100
0000
0000
0000
0000
0000
0000
0000
,  // measure 57
0010
0001
0010
0001
0010
0000
1000
0000
0010
0000
0000
0000
1000
0000
0000
0000
0011
0000
0000
0000
0000
0000
0000
0000
0100
0010
0100
0010
0100
0000
0001
0000
,  // measure 58
1000
0000
0000
0000
0010
0000
0000
0000
1001
0000
0000
0000
0000
0000
0000
0000
0010
1000
0010
1000
0010
0000
0100
0000
0001
0000
0100
0000
0010
0000
0001
0000
,  // measure 59
0100
0010
1000
0000
0110
0000
0000
0000
1001
0100
0001
0010
0110
0000
0000
0000
,  // measure 60
1001
0100
1000
0010
0110
0000
0000
0000
0110
0001
0100
1000
0110
0000
0000
0000
,  // measure 61
0000
0101
0000
0000
2200
0000
0000
0000
0000
0000
0000
0000
0000
0000
0000
0000
,  // measure 62
3300
0000
0000
0000
1001
0000
0000
0000
0001
1000
0001
0100
0010
0001
1000
0100
,  // measure 63
0001
0010
0110
0000
0000
0000
1100
0100
0010
0100
0101
0000
0000
0000
0101
0100
,  // measure 64
0010
0100
1100
0000
0000
0000
0110
1000
0010
0001
0110
0000
0000
0000
0000
0000
,  // measure 65
0000
1010
0000
0000
0022
0000
0000
0000
0000
0000
0000
0000
0033
0000
0000
0000
,  // measure 66
1001
0010
1000
0100
0001
1000
0010
0000
0110
0000
0000
0000
1001
0001
0010
1000
,  // measure 67
0100
0001
0010
0000
2002
0000
0000
0000
3003
0000
0000
0000
0110
0001
0010
1000
,  // measure 68
0100
0010
1000
0000
1001
0000
0000
0000
0110
0010
0001
0100
1000
0001
0010
0000
,  // measure 69
0220
0000
0000
0000
0330
0000
0000
0000
0011
0100
1000
0010
0001
0100
1000
0000
,  // measure 70
1100
0000
0000
0000
1100
0010
0001
0100
1000
0010
0001
0000
0110
0000
0000
0000
,  // measure 71
1000
0001
1000
0001
1000
0000
0100
0000
0010
0000
0001
0000
1001
0000
0000
0000
1001
0000
0100
0000
0001
0000
1000
0000
0010
0000
0001
0000
1000
0010
1000
0010
,  // measure 72
1000
0000
0000
0000
0000
0000
0000
0000
0101
0000
0010
0000
0100
0000
0001
0000
0010
0000
0100
0000
1000
0000
0010
0000
0001
0000
1000
0000
0001
1000
0001
1000
,  // measure 73
0001
0000
0000
0000
0000
0000
0000
0000
1100
0000
0001
0000
0100
0000
1000
0000
0010
0000
0100
0000
0001
0000
0010
0000
0100
0000
0010
0000
1000
0100
1000
0100
,  // measure 74
1000
0000
0000
0000
0000
0000
1001
0000
0100
0000
0010
0000
1000
0000
0100
0000
0001
0000
1000
0000
0010
0000
0001
0000
1000
0000
0010
0000
0100
1000
0100
1000
,  // measure 75
0100
0000
0000
0000
0000
0000
0000
0000
1010
0000
0100
0000
0001
0000
1000
0000
0010
0000
1000
0000
0100
0000
0010
0000
0001
0000
0100
0000
0010
1000
0010
1000
,  // measure 76
0010
0000
0000
0000
0000
0000
0000
0000
0101
0000
1000
0000
0100
0000
0001
0000
0010
0000
1000
0000
0100
0000
0010
0000
1000
0000
0100
0000
0001
1000
0001
1000
,  // measure 77
0001
0000
0000
0000
0000
0000
0000
0000
0011
0000
1000
0000
0010
0000
0001
0000
0100
0000
0010
0000
1000
0000
0100
0000
0001
0000
1000
0000
0100
0010
0100
0010
,  // measure 78
0100
0000
0000
0000
0000
0000
0000
0000
1010
0000
0100
0000
0001
0000
1000
0000
0010
0000
0001
0000
0100
0000
1000
0000
0001
0000
0010
0000
0001
0100
0001
0100
,  // measure 79
0001
0000
0000
0000
0000
0000
0000
0000
0110
0000
0001
0000
1000
0000
0010
0000
0001
0000
0100
0000
0010
0000
1000
0000
0100
0000
0010
0000
0001
1000
0001
1000
,  // measure 80
0001
0000
0000
0000
0000
0000
0000
0000
1010
0000
0001
0000
1000
0000
0100
0000
0001
0000
0010
0000
0100
0000
0001
0000
1000
0000
0001
0000
0010
1000
0010
1000
,  // measure 81
0010
0000
0000
0000
0000
0000
0000
0000
1010
0000
0001
0000
0010
0000
1000
0000
0100
0000
0010
0000
0001
0000
0100
0000
0010
0000
1000
0000
0100
0001
0100
0001
,  // measure 82
0100
0000
0000
0000
0000
0000
0000
0000
0011
0000
1000
0000
0100
0000
0010
0000
0001
0000
0100
0000
1000
0000
0010
0000
0100
0000
1000
0000
0001
0010
0001
0010
,  // measure 83
0001
0000
0000
0000
0000
0000
0000
0000
0110
0000
0001
0000
1000
0000
0010
0000
0001
0000
0100
0000
1000
0000
0001
0000
0010
0000
1000
0000
0100
0010
0100
0010
,  // measure 84
0100
0000
0000
0000
0000
0000
0000
0000
0101
0000
0010
0000
0001
0000
0100
0000
1000
0000
0001
0000
0010
0000
1000
0000
0100
0000
0001
0000
1000
0010
1000
0010
,  // measure 85
1000
0000
0000
0000
0000
0000
0000
0000
1010
0000
0001
0000
0100
0000
1000
0000
0010
0000
0100
0000
0001
0000
0010
0000
1000
0000
0001
0000
0100
0010
0100
0010
,  // measure 86
0100
0000
0000
0000
0000
0000
0000
0000
1001
0000
0100
0000
0010
0000
1000
0000
0100
0000
1000
0000
0100
0000
0001
0000
0010
0000
0100
0000
1000
0001
1000
0001
,  // measure 87
1000
0000
0000
0000
1000
0010
0001
0010
1000
0010
0100
0001
1010
0000
0000
0000
,  // measure 88
0011
0000
0000
0000
1000
0010
0001
1000
0100
1000
0010
0100
0001
0000
1010
0000
,  // measure 89
0000
0000
0000
0000
0100
0001
1000
0100
0010
0001
0100
0010
0001
0000
1100
0000
,  // measure 90
0000
0000
0000
0000
0010
0001
1000
0010
0100
1000
0010
0100
0001
0000
1100
0000
,  // measure 91
0000
0000
0000
0000
0010
1000
0100
1000
0001
0100
0010
0001
0100
0000
0110
0000
,  // measure 92
0000
0000
0000
0000
0010
0100
0001
1000
0010
1000
0001
0010
0100
0000
1010
0000
,  // measure 93
0000
0000
0000
0000
0010
1000
0100
0010
0001
0100
1000
0010
0001
0000
1100
0000
,  // measure 94
0000
0000
0000
0000
0010
0001
0010
1000
0001
0100
0001
0010
1000
0000
0101
0000
,  // measure 95
0000
0000
0000
0000
1000
0001
0010
0100
0010
1000
0001
0010
0100
1000
0001
1000
,  // measure 96
0110
0000
0101
0000
1000
0010
0100
1000
0001
0100
0010
0100
0001
0100
1010
0000
,  // measure 97
0110
0000
0101
0000
0010
0001
0100
0010
1000
0001
0100
1000
0010
0000
0101
0000
,  // measure 98
1001
0000
0110
0000
0001
0100
0010
0100
1000
0010
0001
1000
0010
0000
1001
0000
,  // measure 99
1100
0000
0101
0000
0010
0001
0010
0001
1000
0010
0100
1000
0010
0100
0011
0000
,  // measure 100
0110
0000
1100
0000
0001
0100
1000
0100
0010
0001
0100
1000
0001
0100
1010
0000
,  // measure 101
0110
0000
0101
0000
1000
0100
0010
1000
0001
0100
0010
1000
0010
1000
0101
0000
,  // measure 102
1001
0000
0110
0000
1000
0100
0001
1000
0010
1000
0100
0010
0001
0100
0010
0002
,  // measure 103
2000
0000
0000
0000
0000
0000
0000
0000
3003
0000
0000
0000
0000
0000
0000
0000
0010
0100
0010
0000
1000
0000
0010
0000
0001
0000
1000
0000
0100
0000
0000
0000
,  // measure 104
1010
0000
0000
0000
0000
0000
0000
0000
1000
0100
1000
0000
0010
0000
1000
0000
0001
0000
0010
0000
0100
0000
0000
0000
1010
0000
0000
0000
0000
0000
0000
0000
,  // measure 105
0100
0010
0100
0000
1000
0000
0100
0000
0001
0000
1000
0000
0010
0000
0000
0000
1001
0000
0000
0000
0000
0000
0000
0000
0100
1000
0100
0000
0010
0000
0100
0000
,  // measure 106
0001
0000
0010
0000
1000
0000
0000
0000
0101
0000
0000
0000
0000
0000
0000
0000
1000
0001
1000
0000
0100
0000
0001
0000
0010
0000
1000
0000
0010
0000
0100
0000
,  // measure 107
0001
0000
0010
0000
1000
0001
1000
0001
1000
0000
0000
0000
0000
0000
0000
0000
1000
0001
1000
0000
0010
0000
0001
0000
0100
0000
1000
0000
0010
0000
0000
0000
,  // measure 108
0110
0000
0000
0000
0000
0000
0000
0000
0001
1000
0001
0000
0100
0000
0010
0000
0001
0000
0100
0000
1000
0000
0000
0000
0011
0000
0000
0000
0000
0000
0000
0000
,  // measure 109
0100
1000
0100
0000
0001
0000
0010
0000
0100
0000
1000
0000
0010
0000
0000
0000
1100
0000
0000
0000
0000
0000
0000
0000
0001
0010
0001
0000
1000
0000
0100
0000
,  // measure 110
0010
0000
0001
0000
0100
0000
0000
0000
1001
0000
0000
0000
0000
0000
0000
0000
0100
0010
0100
0000
0001
0000
0100
0000
1000
0000
0010
0000
0100
0000
1000
0000
,  // measure 111
0001
0000
0100
0000
0010
0100
0010
0100
0010
0000
0000
0000
0000
0000
0000
0000
1010
0000
0100
0000
1000
0000
0010
0000
0101
0000
0000
0000
0000
0000
0000
0000
,  // measure 112
1100
0100
0010
1000
0011
0000
0000
0000
0110
1000
0001
0010
1001
0000
0000
0000
,  // measure 113
0000
0110
0000
0000
2002
0000
0000
0000
0000
0000
0000
0000
0000
0000
0000
0000
,  // measure 114
3003
0000
0000
0000
0010
0100
0010
0000
0001
0100
1000
0010
0100
0001
0010
0100
,  // measure 115
1000
0100
0001
0000
1001
0000
0110
0001
0100
0010
1100
0000
0000
0000
1100
0001
,  // measure 116
0100
1000
0110
0000
0000
0000
0011
1000
0100
1000
0011
0000
0000
0000
0000
0000
,  // measure 117
0000
1100
0000
0000
0202
0000
0000
0000
0000
0000
0000
0000
0303
0000
0000
0000
,  // measure 118
1000
0001
1000
0000
0010
0000
0100
0000
1000
0000
0001
0000
0100
0000
0000
0000
1001
0000
0000
0000
0000
0000
0000
0000
0010
1000
0010
0000
0100
0000
0010
0000
,  // measure 119
0001
0000
1000
0000
0100
0000
0000
0000
2020
0000
0000
0000
0000
0000
0000
0000
3030
0000
0000
0000
0000
0000
0000
0000
0001
1000
0001
0000
0100
0000
0010
0000
,  // measure 120
0001
0000
1000
0000
0010
0000
0000
0000
0101
0000
0000
0000
0000
0000
0000
0000
0001
0100
0001
0000
1000
0000
0001
0000
0010
0000
1000
0000
0100
0000
0000
0000
,  // measure 121
2002
0000
0000
0000
0000
0000
0000
0000
3003
0000
0000
0000
0000
0000
0000
0000
0100
0001
0100
0000
0010
0000
0100
0000
1000
0000
0001
0000
0010
0000
0000
0000
,  // measure 122
1001
0000
0000
0000
0000
0000
0000
0000
0001
0100
0001
0000
1000
0000
0001
0000
0010
0000
0100
0000
1000
0000
0000
0000
0011
0000
0000
0000
0000
0000
0000
0000
,  // measure 123
1000
0001
1000
0000
0100
0000
0001
0000
0100
0000
1000
0000
0010
0000
0000
0000
1010
0000
0000
0000
0000
0000
0000
0000
0001
0010
0001
0000
0100
0000
0001
0000
,  // measure 124
1000
0000
0100
0000
0010
0000
0000
0000
0101
0000
0000
0000
0000
0000
0000
0000
0001
0100
0001
0000
0010
0000
1000
0000
0010
0000
0100
0001
0100
0000
0000
0000
,  // measure 125
0000
0000
0000
0000
0001
1000
0001
1000
0001
0000
0000
0000
0000
0000
0000
0000
1000
0010
1000
0000
0001
0000
1000
0000
0100
0000
0001
0000
0010
0000
0000
0000
,  // measure 126
1001
0000
0000
0000
0000
0000
0000
0000
0100
0010
0100
0000
1000
0000
0010
0000
0001
0000
1000
0000
0100
0000
0000
0000
0011
0000
0000
0000
0000
0000
0000
0000
,  // measure 127
1000
0010
1000
0000
0100
0000
0001
0000
0100
0000
0010
0000
1001
0000
0000
0000
1010
0000
0100
0000
0010
0000
0100
0000
0011
0000
0000
0000
0000
0000
0000
0000
,  // measure 128
1100
0010
0100
0010
0101
0000
0000
0000
0101
1000
0100
0001
0010
0100
0010
0000
,  // measure 129
2002
0000
0000
0000
3003
0000
0000
0000
0110
0010
1000
0100
0101
0000
0000
0000
,  // measure 130
0110
0100
0001
0010
1100
0000
0000
0000
1001
0010
0100
0001
1001
0000
0000
0000
,  // measure 131
0220
0000
0000
0000
0330
0000
0000
0000
1001
0100
0001
0100
1001
0000
0000
0000
,  // measure 132
0110
0001
0010
1000
0110
0000
0000
0000
1001
0010
1000
0010
1001
0000
0000
0000
,  // measure 133
1010
0022
0000
0000
,  // measure 134
0000
0000
0000
0000
0000
0000
0000
0000
0033
0000
0000
0000
1000
0100
0010
0001
,  // measure 135
0010
0100
1000
0100
0001
0000
0000
0000
0110
0010
0001
0100
1010
0000
0000
0000
,  // measure 136
0110
0100
1000
0010
0011
0000
0000
0000
0110
0010
1000
0100
0101
0000
0000
0000
,  // measure 137
1100
0000
0000
0000
0000
0000
0000
0000
0001
1000
0001
0000
0000
0000
0000
0000
1100
0000
0001
0000
0100
0000
1000
0000
0110
0000
0000
0000
0000
0000
0000
0000
,  // measure 138
0101
0100
0010
1000
0110
0000
0000
0000
0110
1000
0010
0001
0110
0000
0000
0000
,  // measure 139
0101
0000
0000
0000
0000
0000
0000
0000
0100
0010
0100
0000
0000
0000
0000
0000
1001
0000
0100
0000
0010
0000
0100
0000
1001
0000
0000
0000
0000
0000
0000
0000
,  // measure 140
1001
0100
0010
0100
1001
0000
0000
0000
1001
0100
0010
0100
1001
0000
0000
0000
,  // measure 141
0101
2020
0000
0000
,  // measure 142
0000
0000
0000
3030
,  // measure 143
0001
1000
0001
1000
0001
0000
0000
0000
0000
0000
0000
0000
0000
0000
0000
0000
0001
1000
0001
0000
0010
0000
0001
0000
0100
0000
1000
0000
0001
0000
0000
0000
,  // measure 144
1010
0000
0000
0000
0000
0000
0000
0000
0100
1000
0100
0000
0010
0000
1000
0000
0001
0000
0010
0000
0100
0000
0000
0000
1001
0000
0000
0000
0000
0000
0000
0000
,  // measure 145
0001
1000
0001
0000
0100
0000
0010
0000
0100
0000
0001
0000
1000
0000
0000
0000
0011
0000
0000
0000
0000
0000
0000
0000
0100
0001
0100
0000
1000
0000
0100
0000
,  // measure 146
0010
0000
1000
0000
0100
0000
0000
0000
0011
0000
0000
0000
0000
0000
0000
0000
0010
1000
0010
0000
0100
0000
0010
0000
0001
0000
0100
0000
1000
0000
0000
0000
,  // measure 147
0220
0000
0000
0000
0000
0000
0000
0000
0330
0000
0000
0000
0000
0000
0000
0000
0001
1000
0001
0000
0100
0000
0001
0000
0010
0000
0001
0000
0100
0000
0000
0000
,  // measure 148
1001
0000
0000
0000
0000
0000
0000
0000
0001
1000
0001
0000
0010
0000
0001
0000
0100
0000
1000
0000
0010
0000
0000
0000
1001
0000
0000
0000
0000
0000
0000
0000
,  // measure 149
0100
0010
0100
0000
0001
0000
0100
0000
1000
0000
0010
0000
0001
0000
0000
0000
0110
0000
0000
0000
0000
0000
0000
0000
0100
0010
0100
0000
1000
0000
0100
0000
,  // measure 150
0001
0000
0010
0000
1000
0000
0000
0000
0110
0000
0000
0000
0000
0000
0000
0000
1000
0010
1000
0000
0001
0000
1000
0000
0100
0000
0010
0000
0001
0000
0000
0000
,  // measure 151
1010
0000
0000
0000
0000
0000
0000
0000
1010
0100
0001
0100
1010
0000
0000
0000
,  // measure 152
0011
0100
1000
0100
0011
0000
0000
0000
1010
0100
0001
0100
1010
0000
0000
0000
,  // measure 153
1100
0022
0000
0000
,  // measure 154
0000
0000
0033
0000
1200
0001
1300
0000
,  // measure 155
0021
0000
1000
0000
0031
0000
0000
0000
0110
1000
0001
1000
0110
0000
0000
0000
,  // measure 156
0110
0001
1000
0001
0110
0000
0000
0000
1010
0001
1000
0001
1010
0000
0000
0000
,  // measure 157
0110
2002
0000
0000
,  // measure 158
0000
0000
0000
0000
0000
0000
0000
0000
0000
0000
3003
0000
0000
0000
0100
0010
,  // measure 159
0100
0000
0010
0000
0100
0010
0100
0010
0100
0000
0000
0000
0000
0000
0000
0000
1000
0100
1000
0000
0010
0000
1000
0000
0001
0000
0010
0000
0100
0000
1000
0000
,  // measure 160
0010
0000
0000
0000
0000
0000
0000
0000
1000
0001
1000
0000
0100
0000
0001
0000
1000
0000
0100
0000
0010
0000
1000
0000
0001
0000
0000
0000
0000
0000
0000
0000
,  // measure 161
0010
1000
0010
0000
0100
0000
0010
0000
0001
0000
0100
0000
0010
0000
0001
0000
0100
0000
0000
0000
0000
0000
0000
0000
1000
0001
1000
0000
0010
0000
1000
0000
,  // measure 162
0100
0000
1000
0000
0010
0000
0100
0000
0001
0000
0000
0000
0000
0000
0000
0000
0001
0100
0001
0000
0010
0000
0001
0000
1000
0000
0010
0000
0100
0000
1000
0000
,  // measure 163
0010
0000
0000
0000
0000
0000
0000
0000
0010
0001
0010
0000
0100
0000
0010
0000
1000
0000
0100
0000
0001
0000
0010
0000
0100
0000
0000
0000
0000
0000
0000
0000
,  // measure 164
1000
0001
1000
0000
0010
0000
1000
0000
0100
0000
0001
0000
0010
0000
0100
0000
0001
0000
0000
0000
0000
0000
0000
0000
1000
0100
1000
0000
0001
0000
0100
0000
,  // measure 165
0010
0000
1000
0000
0001
0000
0100
0000
0001
0000
0000
0000
0000
0000
0000
0000
0100
0010
0100
0000
0001
0000
0100
0000
1000
0000
0001
0000
0100
0000
1000
0000
,  // measure 166
0010
0000
0000
0000
0000
0000
0000
0000
1000
0001
1000
0000
0010
0000
0100
0000
0010
0000
0001
0000
1000
0000
0100
0000
0010
0000
0000
0000
0000
0000
0000
0000
,  // measure 167
1000
0001
1000
0001
1000
0001
1000
0001
1000
0000
0000
0000
1001
0000
0000
0000
0000
0000
0000
0000
0000
0000
0000
0000
0000
0000
0000
0000
0000
0000
0000
0000
;
