#VERSION:0.82;
#TITLE:unbreakable;
#SUBTITLE:;
#ARTIST:あかりsnz◆55vSA/SEE feat. 波音リツ;
#TITLETRANSLIT:;
#SUBTITLETRANSLIT:;
#ARTISTTRANSLIT:akari-SNZ◆55vSA/SEE feat. Ritsu Namine;
#GENRE:J-Rock;
#ORIGIN:;
#CREDIT:;
#BANNER:unbreakable.png;
#BACKGROUND:unbreakable-bg.png;
#PREVIEWVID:;
#JACKET:unbreakable-jacket.png;
#CDIMAGE:;
#DISCIMAGE:;
#LYRICSPATH:unbreakable.lrc;
#CDTITLE:cdtitle.png;
#MUSIC:unbreakable.ogg;
#OFFSET:0.235000;
#SAMPLESTART:44.826000;
#SAMPLELENGTH:20.550999;
#SELECTABLE:YES;
#BPMS:0.000=245.000;
#STOPS:;
#DELAYS:;
#WARPS:;
#TIMESIGNATURES:0.000=4=4;
#TICKCOUNTS:0.000=4;
#COMBOS:0.000=1;
#SPEEDS:0.000=1.000=0.000=0;
#SCROLLS:0.000=1.000;
#FAKES:;
#LABELS:0.000=Song Start;
#BGCHANGES:2.500=unbreakable.mp4=1.000=0=0=0=StretchNoLoop====,
99999=-nosongbg-=1.000=0=0=0 // don't automatically add -songbackground-
;
#KEYSOUNDS:;
#ATTACKS:
;

//---------------dance-single - ----------------
#NOTEDATA:;
#CHARTNAME:;
#STEPSTYPE:dance-single;
#DESCRIPTION:;
#CHARTSTYLE:;
#DIFFICULTY:Medium;
#METER:14;
#RADARVALUES:0.638091,0.768479,0.573839,0.317938,0.000000,461.000000,74.000000,41.000000,0.000000,0.000000,0.000000,0.000000,0.000000,0.638091,0.768479,0.573839,0.317938,0.000000,461.000000,74.000000,41.000000,0.000000,0.000000,0.000000,0.000000,0.000000;
#CREDIT:usaminseijin;
#NOTES:
0000
0000
0000
0000
,
0000
0000
0000
0000
,
0000
0000
0000
0000
,
0000
0000
0000
0000
,
0000
0000
0000
0000
,
0000
0000
0000
0000
,
0000
0000
0000
0000
,
0000
0000
0000
0000
,
0000
0000
0000
0000
0001
1000
0001
0200
,
0000
0000
0000
0000
0000
0000
0000
0310
,
0000
0020
0000
0000
0000
1030
0000
2000
,
0000
0000
3001
0100
0001
0100
0001
1000
,
0000
1000
0001
1000
0001
1000
0001
1000
,
0000
0010
0100
0010
0100
0010
0100
0010
,
1000
0001
1000
0001
1000
0001
1000
0110
,
0000
0000
0001
1000
0010
0100
0001
2000
,
0000
0000
0000
0000
0000
3000
0000
0110
,
0000
1001
0110
1001
,
0110
0000
0101
0000
0110
0000
0001
0100
,
0000
1010
0110
1010
,
0110
0000
1010
0000
0110
0000
0010
1000
,
0000
1000
0001
0000
1000
0001
1000
0010
,
0000
0100
0010
0000
1000
0001
1000
0200
,
0000
0000
0000
0000
0000
0000
0000
0300
,
0000
0000
0000
0000
,
2000
0000
0000
0002
0000
0000
0000
0000
,
0000
0000
3003
0000
0010
0100
0010
1000
,
0000
0000
0001
0000
0100
0010
0100
0010
,
0100
0000
0001
0000
1000
0001
1000
0001
,
0000
1000
0100
0000
0010
0100
0010
0100
,
0000
0001
1000
0000
0001
1000
0000
0100
,
0000
0110
0000
0110
,
0000
0110
0000
0110
,
0000
1001
0000
1001
,
0000
0000
1001
0000
0000
1000
0001
1000
,
0000
1000
0001
0000
0100
0010
0100
0001
,
1000
0000
0001
0000
1000
0010
1000
0010
,
1000
0000
0010
0000
0100
0000
0010
0100
,
0000
0001
0100
0000
1000
0010
0100
0001
,
1000
1001
0001
1001
,
0100
0110
0010
0110
,
1000
1010
0010
0110
,
0100
0000
0101
0000
0001
0000
0001
1000
,
0000
1000
0001
0000
0100
0001
0100
0001
,
1000
0000
0010
0000
1000
0001
1000
0001
,
0000
0000
0100
0000
0010
0100
0000
0002
,
0000
0000
0000
0000
0000
0003
0000
0100
,
0000
1010
1010
1010
,
0110
0000
0110
0000
0110
0000
0100
0001
,
0000
1001
1001
1001
,
0101
0000
0101
0000
0100
0001
0100
0001
,
0000
1000
0001
0000
0100
0001
0100
0001
,
0100
0000
0001
0000
1000
0010
1000
0100
,
0000
0100
0001
0000
1000
0001
1000
0010
,
0000
0100
0010
0000
1000
0001
1000
0001
,
0000
0110
0110
0110
,
1001
0000
1001
0000
1001
0000
1000
0010
,
0000
1010
1010
1010
,
0101
0000
0101
0000
1000
0001
1000
0001
,
0000
1000
0001
0000
1000
0010
1000
0010
,
0000
0100
0010
0000
0100
0010
0000
0002
,
0000
0000
0000
0000
,
0000
0000
0000
0003
1000
0001
0000
2000
,
0000
0000
0000
3010
,
0100
0010
0100
0010
1000
0001
1000
0002
,
0000
0000
0000
0000
0000
0000
1003
0200
,
0000
0000
0000
0000
0000
0000
0310
1000
,
0000
1000
0000
0001
,
2002
0000
0000
0000
3003
0000
0000
2000
,
0000
0000
0000
0000
0000
0000
0000
3020
,
0000
0000
0030
0000
1000
0001
1000
0020
,
0000
0032
0203
0302
,
2003
0000
0000
3020
0000
0000
0230
0000
,
0302
0000
0000
0000
0203
0000
0310
2000
,
0000
0000
0000
0000
0000
0000
0000
3000
,
0001
1000
0001
1000
0010
0100
0010
2000
,
0000
0000
3002
0000
0000
0023
0000
0032
,
0000
0000
0000
0000
,
2003
0000
0000
0000
3020
0000
0130
0020
,
0000
0000
2030
0000
3001
1000
0000
0020
,
0000
0000
0000
0000
2030
0000
3001
0200
,
0000
0000
0000
0000
0000
0000
0310
2000
,
0000
0000
0000
0000
,
0000
0000
0000
0000
0000
0000
0000
3001
,
0000
0010
0100
0010
0100
0010
0100
0010
,
0000
0000
0000
0000
,
0000
0000
0000
0000
,
0000
0000
0000
0000
,
0000
0000
0000
0000
,
0000
0000
0000
0000
,
0000
0000
0000
0000
,
0000
0000
0000
0000
,
0000
0000
0000
0000
1000
0001
1000
0020
,
0000
0000
0000
0000
0000
0000
0000
0130
,
0000
0200
0000
0000
0000
0301
0000
1000
,
0000
0001
1000
0010
1000
0001
1000
0100
,
0000
0010
0001
1000
0001
0100
0001
1000
,
0000
0100
0010
0100
0010
0100
0010
0100
,
0001
1000
0001
1000
0001
1000
0001
1000
,
0000
0000
0001
1000
0010
0100
0001
1000
,
0000
0010
0100
0000
0010
0000
0000
1000
,
0000
0000
0001
0000
0100
0010
0100
0010
,
0100
0000
0001
0000
1000
0010
1000
0010
,
0000
0100
0001
0000
0100
0010
0100
0010
,
0000
1000
0010
0000
0100
0010
0100
0001
,
0000
0000
1000
0000
0001
0100
0001
0000
,
0100
0000
0010
0000
0100
0010
0100
0010
,
1000
0000
0001
0000
0100
0010
0000
0200
,
0000
0000
0000
0000
0000
0000
0000
0301
,
0000
1001
0110
1001
,
0110
0000
1010
0000
0110
0000
1000
0010
,
0000
0101
0110
0101
,
0110
0000
0101
0000
0100
0010
0100
0010
,
0000
0100
0001
0000
1000
0001
1000
0001
,
1000
0000
0010
0000
0100
0010
0100
0010
,
0000
1000
0010
0000
1000
0001
1000
0001
,
0000
0000
0010
0000
1000
0010
0100
0001
,
0000
1001
0110
1001
,
0110
0000
1001
0000
0110
0000
1000
0001
,
0000
1010
1001
1010
,
1001
0000
1010
0000
1000
0001
1000
0001
,
0000
0000
0010
0000
1000
0010
1000
0010
,
0000
0100
0000
0000
0001
1000
0000
0001
,
0000
0100
0010
1000
0001
0100
0010
1001
;

//---------------dance-single - ----------------
#NOTEDATA:;
#CHARTNAME:;
#STEPSTYPE:dance-single;
#DESCRIPTION:;
#CHARTSTYLE:;
#DIFFICULTY:Hard;
#METER:16;
#RADARVALUES:0.701236,0.864539,0.527312,0.317938,0.143460,524.000000,68.000000,41.000000,0.000000,0.000000,0.000000,0.000000,0.000000,0.701236,0.864539,0.527312,0.317938,0.143460,524.000000,68.000000,41.000000,0.000000,0.000000,0.000000,0.000000,0.000000;
#CREDIT:usaminseijin;
#NOTES:
0000
0000
0000
0000
,
0000
0000
0000
0000
,
0000
0000
0000
0000
,
0000
0000
0000
0000
,
0000
0000
0000
0000
,
0000
0000
0000
0000
,
0000
0000
0000
0000
,
0000
0000
0000
0000
,
0000
0000
0000
0000
0000
0000
0000
0000
1000
0001
1000
0000
0001
0000
0200
0000
,
0000
0000
0000
0000
0000
0000
0000
0310
,
0000
0000
0020
0000
0000
0000
0000
0000
0030
1000
0001
0000
0000
0000
2000
0000
,
0000
3000
0001
0100
0001
0000
1000
0001
1000
0000
1000
0010
1000
0000
0001
0000
,
0000
0000
1000
0001
1000
0000
0001
0010
0001
0000
1000
0010
1000
0000
1000
0000
,
0000
0010
0100
0010
0100
0010
0100
0010
,
1000
0001
1000
0001
1000
0001
1000
0110
,
0000
0000
0000
0000
0001
1000
0000
0010
0100
0000
0001
1000
0100
0000
2000
0000
,
0000
0000
0000
0000
0000
3000
0000
0110
,
0000
1001
0110
1001
,
0110
0000
0101
0000
0110
0000
0001
0100
,
0000
1010
0110
1010
,
0110
0000
1010
0000
0110
0000
0010
1000
,
0000
1000
0001
0000
1000
0001
1000
0010
,
0000
0000
0100
0000
0010
0000
0000
0000
1000
0010
1000
0000
0001
0000
0200
0000
,
0000
0000
0000
0000
0000
0000
0000
0300
,
0000
0000
0000
0000
,
2000
0000
0000
0002
0000
0000
0000
0000
,
0000
0000
3003
0000
0010
0100
0010
1000
,
0000
0000
0001
0000
0100
0010
0100
0010
,
0100
0000
0001
0000
1000
0001
1000
0001
,
0000
1000
0100
0000
0010
0100
0010
0100
,
0000
0001
1000
0000
0001
1000
0000
0100
,
0000
0110
0000
0110
,
0000
0110
0000
0110
,
0000
1001
0000
1001
,
0000
0000
1001
0000
0000
1000
0001
1000
,
0000
1000
0001
0000
0100
0010
0100
0001
,
1000
0000
0001
0000
1000
0010
1000
0010
,
1000
0000
0010
0000
0100
0000
0010
0100
,
0000
0000
0001
0000
0100
0000
1000
0001
1000
0000
0001
0100
0001
0000
0010
0000
,
1000
0010
0100
0000
0010
0001
0100
0010
,
0100
0000
0110
0000
0010
0100
0010
1000
,
0000
1000
0010
0000
0010
0000
0100
0010
,
0000
0000
0001
0100
0001
0000
0000
0000
0001
0000
1000
0000
0001
0000
1000
0000
,
0000
1000
0001
0000
0100
0001
0100
0001
,
1000
0000
0010
0000
1000
0001
1000
0001
,
0000
0000
0100
0000
0010
0100
0000
0002
,
0000
0000
0000
0000
0000
0003
0000
0100
,
0000
1010
0110
1010
,
0110
0000
0101
0000
0110
0000
0100
0001
,
0000
1001
0011
1001
,
0101
0000
1001
0000
0100
0001
0100
0001
,
0000
1000
0001
0000
0100
0001
0100
0001
,
0100
0000
0001
0000
1000
0010
1000
0100
,
0000
0100
0001
0000
1000
0001
1000
0010
,
0000
0100
0010
0000
1000
0001
1000
0001
,
0000
0110
1001
0110
,
1001
0000
0110
0000
1001
0000
1000
0010
,
0000
1010
0101
1010
,
0101
0000
1010
0000
1000
0001
1000
0001
,
0000
1000
0001
0000
1000
0010
1000
0010
,
0000
0100
0010
0000
0100
0010
0000
0002
,
0000
0000
0000
0000
,
0000
0000
0000
0003
1000
0001
0000
2000
,
0000
0000
0000
3010
,
0100
0000
0010
0100
0010
0100
0010
0000
1000
0000
0001
0000
1000
0000
0002
0000
,
0000
0000
0000
0000
0000
0000
1003
0200
,
0000
0000
0000
0000
0000
0000
0000
0000
0000
0000
0000
0000
0310
0000
1000
0001
,
1000
1000
0000
0001
,
2002
0000
0000
0000
3003
0000
0000
2000
,
0000
0000
0001
0000
0000
0000
0001
3020
,
0000
0000
0031
0000
1000
0001
1000
0020
,
0000
0032
0203
0302
,
2003
0000
0000
3020
0000
0000
0230
0000
,
0302
0000
0000
0000
0203
0000
0310
2000
,
0000
0000
0001
0000
0000
0000
0001
3000
,
0001
1000
0001
1000
0001
1000
0001
1000
0010
0100
0010
0100
0010
0000
2000
0000
,
0000
0000
3002
0000
0000
0023
0000
0032
,
0000
1000
0000
1000
,
2003
0000
0001
0000
3020
0000
0130
0020
,
0000
0000
2030
0000
3001
1000
0000
0020
,
0000
0000
1000
0000
2030
0001
3001
0200
,
0000
0000
0001
0000
0000
0000
0310
2000
,
0000
0001
0000
0001
,
0000
0000
3001
0000
0100
0010
0000
0001
,
0000
0010
0100
0010
0100
0010
0100
0010
,
0000
0000
0000
0000
,
0000
0000
0000
0000
,
0000
0000
0000
0000
,
0000
0000
0000
0000
,
0000
0000
0000
0000
,
0000
0000
0000
0000
,
0000
0000
0000
0000
,
0000
0000
0000
0000
0000
0000
0000
0000
0001
1000
0001
0000
1000
0000
0020
0000
,
0000
0000
0000
0000
0000
0000
0000
0000
0000
0000
0000
0030
0100
0010
0200
0000
,
0000
0000
0310
0000
0000
0000
0000
0000
0000
1000
0001
0000
0000
0000
0010
0000
,
0000
0000
0001
1000
0001
0000
1000
0010
1000
0000
0001
1000
0001
0000
0100
0000
,
0000
0000
0010
0001
0010
0000
0001
1000
0001
0000
0100
0001
0100
0000
1000
0000
,
0000
0100
0010
0100
0010
0100
0010
0100
,
0001
1000
0001
1000
0001
1000
0001
1000
,
0000
0000
0000
0000
0001
0010
0001
0000
0010
0100
0010
0000
0100
0000
1000
0000
,
0000
0010
0100
0000
0010
0000
0000
1000
,
0000
0000
0001
0000
0100
0010
0100
0010
,
0100
0000
0001
0000
1000
0010
1000
0010
,
0000
0100
0001
0000
0100
0010
0100
0010
,
0000
1000
0010
0000
0100
0010
0100
0001
,
0000
0000
1000
0000
0001
0100
0001
0000
,
0100
0000
0010
0000
0100
0010
0100
0010
,
1000
0000
0001
0000
0100
0010
0000
0200
,
0000
0000
0000
0000
0000
0000
0000
0301
,
0000
1001
0110
1001
,
0110
0000
1010
0000
0110
0000
1000
0010
,
0000
0101
0110
0101
,
0110
0000
0101
0000
0100
0010
0100
0010
,
0000
0100
0001
0000
1000
0001
1000
0001
,
1000
0000
0010
0000
0100
0010
0100
0010
,
0000
1000
0010
0000
1000
0001
1000
0001
,
0000
0000
0010
0000
1000
0010
0100
0001
,
0000
1001
0110
1001
,
0110
0000
1001
0000
0110
0000
1000
0001
,
0000
1010
1001
1010
,
1001
0000
1010
0000
1000
0001
1000
0001
,
0000
0000
0010
0000
1000
0010
1000
0010
,
0000
0100
0000
0000
0001
1000
0000
0001
,
0000
0000
0100
0000
0010
0000
1000
0000
0001
0000
0100
0010
0100
0010
1001
0000
;

//---------------dance-single - ----------------
#NOTEDATA:;
#CHARTNAME:;
#STEPSTYPE:dance-single;
#DESCRIPTION:;
#CHARTSTYLE:;
#DIFFICULTY:Challenge;
#METER:18;
#RADARVALUES:0.797614,0.864539,0.721176,0.348956,0.143460,582.000000,93.000000,45.000000,0.000000,0.000000,0.000000,0.000000,0.000000,0.797614,0.864539,0.721176,0.348956,0.143460,582.000000,93.000000,45.000000,0.000000,0.000000,0.000000,0.000000,0.000000;
#CREDIT:usaminseijin;
#NOTES:
// measure 0
0000
0000
0000
0000
,  // measure 1
0000
0000
0000
0000
,  // measure 2
0000
0000
0000
0000
,  // measure 3
0000
0000
0000
0000
,  // measure 4
0000
0000
0000
0000
,  // measure 5
0000
0000
0000
0000
,  // measure 6
0000
0000
0000
0000
,  // measure 7
0000
0000
0000
0000
,  // measure 8
0000
0000
0000
0000
0000
0000
0000
0000
1000
0001
1000
0000
0001
0000
0200
0000
,  // measure 9
0000
0000
0000
0000
0000
0000
0000
0310
,  // measure 10
0000
0000
0020
0000
0000
0000
0000
0000
0030
1000
0001
0000
0000
0000
2000
0000
,  // measure 11
0000
3000
0001
0100
0001
0000
1000
0001
1000
0000
1000
0010
1000
0000
0001
0000
,  // measure 12
0000
0000
1000
0001
1000
0000
0001
0010
0001
0000
1000
0010
1000
0000
1000
0000
,  // measure 13
0000
1001
0100
0010
0100
0010
0100
0010
,  // measure 14
1000
0001
1000
0001
1000
0001
1000
0110
,  // measure 15
0000
0000
0000
0000
0001
1000
0000
0010
0100
0000
0001
1000
0100
0000
2000
0000
,  // measure 16
0000
0000
0000
0000
0000
3000
0000
0110
,  // measure 17
0000
0000
1001
0100
1000
0010
1001
0010
,  // measure 18
0100
0010
0101
0010
0001
0010
0001
0100
,  // measure 19
0000
0000
1010
0100
0010
0100
1010
0100
,  // measure 20
0010
0100
1010
0100
0010
0100
0010
1001
,  // measure 21
0000
1000
0001
0000
1000
0001
1000
0010
,  // measure 22
0000
0000
0100
0000
0010
0000
0000
0000
1000
0010
1000
0000
0001
0000
0200
0000
,  // measure 23
0000
0000
0000
0000
0000
0000
0000
0300
,  // measure 24
0000
0000
0000
0000
,  // measure 25
2000
0000
0000
0002
0000
0000
0000
0000
,  // measure 26
0000
0000
3003
0000
1010
0100
0010
1000
,  // measure 27
0000
0000
0001
0000
0101
0010
0100
0010
,  // measure 28
0100
0000
0001
0000
1010
0001
1000
0001
,  // measure 29
0000
1000
0100
0000
1010
0100
0010
0100
,  // measure 30
0000
0001
1000
0000
1001
0110
0000
0200
,  // measure 31
0000
0010
0000
0010
,  // measure 32
0000
0000
0010
0000
0000
0000
0310
0001
,  // measure 33
0000
2001
0000
0001
,  // measure 34
0000
0000
3001
0000
0000
1000
0001
1000
,  // measure 35
0000
1000
0001
0000
0101
0010
0100
0001
,  // measure 36
1000
0000
0001
0000
1001
0010
1000
0010
,  // measure 37
1000
0000
0010
0000
0101
0000
0010
0100
,  // measure 38
0000
0000
0001
0000
0100
0000
1000
0001
1000
0000
0001
0100
0001
0000
0010
0000
,  // measure 39
1000
0010
0100
0000
0010
0001
0100
0010
,  // measure 40
0100
0000
0110
0000
0010
0100
0010
1000
,  // measure 41
0000
1001
0010
0000
0010
0000
0100
0010
,  // measure 42
0000
0000
0001
0100
0001
0000
0000
0000
0001
0000
1000
0000
0001
0000
1100
0000
,  // measure 43
0000
1000
0001
0000
0100
0001
0100
0001
,  // measure 44
1010
0000
0010
0000
1000
0001
1000
0001
,  // measure 45
0000
0000
0110
0000
1001
0110
0000
0002
,  // measure 46
0000
0000
2000
0000
0000
3003
0000
0100
,  // measure 47
0000
0000
1010
0100
0010
0100
1010
0100
,  // measure 48
0001
0010
0101
0010
0100
0010
0100
0001
,  // measure 49
0000
0000
1001
0010
0001
0010
1001
0100
,  // measure 50
0001
0100
1001
0010
0100
0001
0100
0001
,  // measure 51
0000
1000
0001
0000
0100
1001
0100
0001
,  // measure 52
0100
0000
0001
0000
1000
0110
1000
0100
,  // measure 53
0000
0100
0001
0000
1000
0101
1000
0010
,  // measure 54
0000
0100
0010
0000
1000
0001
1000
0001
,  // measure 55
0000
0000
0110
1000
0001
1000
0110
1000
,  // measure 56
0001
1000
0110
1000
0001
1000
0001
0010
,  // measure 57
0000
0000
1010
0100
0001
0100
1010
0100
,  // measure 58
0001
0100
1010
0100
1000
0001
1000
0001
,  // measure 59
0000
1000
0101
0000
1001
0010
1000
0010
,  // measure 60
0000
0110
1001
0000
0110
1001
0000
0002
,  // measure 61
0000
0000
0000
0000
,  // measure 62
0000
0000
0000
0003
1000
0001
0000
2000
,  // measure 63
0000
0000
0000
3010
,  // measure 64
0100
0000
0010
0100
0010
0100
0010
0000
1000
0000
0001
0000
1000
0000
0002
0000
,  // measure 65
0000
0000
0000
0000
0000
0000
1003
0200
,  // measure 66
0000
0000
0000
0000
0000
0000
0000
0000
0000
0000
0000
0000
0310
0000
1000
0001
,  // measure 67
1000
1000
0000
0001
,  // measure 68
2002
0000
0000
0000
3003
0000
0000
2000
,  // measure 69
0000
0000
0001
0000
0000
0000
0001
3020
,  // measure 70
0000
0000
0031
0000
1000
0001
1000
0020
,  // measure 71
0000
0032
0203
0302
,  // measure 72
2003
0000
0000
3020
0000
0000
0230
0000
,  // measure 73
0302
0000
0000
0000
0203
0000
0310
2000
,  // measure 74
0000
0000
0001
0000
0000
0000
0001
3000
,  // measure 75
0001
1000
0001
1000
0001
1000
0001
1000
0010
0100
0010
0100
0010
0000
2000
0000
,  // measure 76
0000
0000
3002
0000
0000
0023
0000
0032
,  // measure 77
0000
1000
0000
1000
,  // measure 78
2003
0000
0001
0000
3020
0000
0130
0020
,  // measure 79
0000
0000
2030
0000
3001
1000
0000
0020
,  // measure 80
0000
0000
1000
0000
2030
0001
3001
0200
,  // measure 81
0000
0000
0001
0000
0000
0000
0310
2000
,  // measure 82
0000
0001
0000
0001
,  // measure 83
0000
0000
3001
0000
0110
1001
0000
0110
,  // measure 84
0000
1001
0100
0010
0100
0010
0100
0010
,  // measure 85
0000
0000
0000
0000
,  // measure 86
0000
0000
0000
0000
,  // measure 87
0000
0000
0000
0000
,  // measure 88
0000
0000
0000
0000
,  // measure 89
0000
0000
0000
0000
,  // measure 90
0000
0000
0000
0000
,  // measure 91
0000
0000
0000
0000
,  // measure 92
0000
0000
0000
0000
0000
0000
0000
0000
0001
1000
0001
0000
1000
0000
0020
0000
,  // measure 93
0000
0000
0000
0000
0000
0000
0000
0000
0000
0000
0000
0030
0100
0010
0200
0000
,  // measure 94
0000
0000
0310
0000
0000
0000
0000
0000
0000
1000
0001
0000
0000
0000
0010
0000
,  // measure 95
0000
0000
0001
1000
0001
0000
1000
0010
1000
0000
0001
1000
0001
0000
0100
0000
,  // measure 96
0000
0000
0010
0001
0010
0000
0001
1000
0001
0000
0100
0001
0100
0000
1000
0000
,  // measure 97
0000
1001
0010
0100
0010
0100
0010
0100
,  // measure 98
0001
1000
0001
1000
0001
1000
0001
1000
,  // measure 99
0000
0000
0000
0000
0001
0010
0001
0000
0010
0100
0010
0000
0100
0000
1000
0000
,  // measure 100
0000
0110
1001
0000
0110
0000
0000
1001
,  // measure 101
0000
0000
0101
0000
0101
0010
0100
0010
,  // measure 102
0100
0000
1001
0000
1001
0010
1000
0010
,  // measure 103
0000
0100
0001
0000
0101
0010
0100
0010
,  // measure 104
0000
1000
0010
0000
0110
1000
0100
0001
,  // measure 105
0000
0000
1000
0000
1001
0100
0001
0000
,  // measure 106
0100
0000
0010
0000
0110
1000
0100
0010
,  // measure 107
1000
0000
1001
0000
0110
1001
0000
0220
,  // measure 108
0000
0000
0000
0000
0000
0330
0000
0001
,  // measure 109
0000
0000
1001
0010
0100
0010
1001
0010
,  // measure 110
0100
0010
1001
0010
0100
0010
1000
0010
,  // measure 111
0000
0000
0101
0010
0100
0010
0101
0010
,  // measure 112
0100
0010
0101
0010
0100
0010
0100
0010
,  // measure 113
0000
0100
0001
0000
1010
0001
1000
0001
,  // measure 114
1000
0000
0010
0000
0101
0010
0100
0010
,  // measure 115
0000
1000
0010
0000
1010
0001
1000
0001
,  // measure 116
0000
0000
1010
0000
1001
0010
0100
0001
,  // measure 117
0000
0000
1001
0010
0100
0010
1001
0100
,  // measure 118
0010
0100
1001
0010
0100
0010
1000
0001
,  // measure 119
0000
0000
1010
0001
1000
0001
1010
0001
,  // measure 120
1000
0001
1010
0001
1000
0001
1000
0001
,  // measure 121
0000
0000
1010
0000
1001
0010
1000
0010
,  // measure 122
0000
0110
0000
0000
1001
0110
0000
0001
,  // measure 123
0000
0000
0100
0000
0010
0000
1000
0000
0001
0000
0100
0010
0100
0010
1001
0000
;

//---------------dance-single - ----------------
#NOTEDATA:;
#CHARTNAME:;
#STEPSTYPE:dance-single;
#DESCRIPTION:;
#CHARTSTYLE:;
#DIFFICULTY:Easy;
#METER:10;
#RADARVALUES:0.409885,0.480300,0.007755,0.170601,0.000000,347.000000,1.000000,22.000000,0.000000,0.000000,0.000000,0.000000,0.000000,0.409885,0.480300,0.007755,0.170601,0.000000,347.000000,1.000000,22.000000,0.000000,0.000000,0.000000,0.000000,0.000000;
#CREDIT:usaminseijin;
#NOTES:
0000
0000
0000
0000
,
0000
0000
0000
0000
,
0000
0000
0000
0000
,
0000
0000
0000
0000
,
0000
0000
0000
0000
,
0000
0000
0000
0000
,
0000
0000
0000
0000
,
0000
0000
0000
0000
,
0000
0000
0000
0000
0001
0000
0000
0200
,
0000
0000
0000
0000
0000
0300
0000
0020
,
0000
0000
0000
0000
0000
0030
0000
2000
,
0000
0000
3001
0000
0100
0000
0001
1000
,
0001
0000
1000
0000
0001
0000
1000
0001
,
0000
0100
0010
0100
,
1000
0000
0001
0000
1000
0000
0001
1000
,
0000
0000
0001
0000
1000
0000
0001
2000
,
0000
0000
0000
0000
0000
3000
0000
0000
,
0100
0001
0010
1000
,
0100
0001
0010
0001
,
0100
1000
0100
0010
,
0100
1000
0100
0010
,
1000
0001
1000
0001
,
0010
0000
0100
0000
1000
0000
0001
0200
,
0000
0000
0000
0000
0000
0000
0000
0300
,
0000
0000
0000
0000
,
1000
0000
0000
0002
0000
0000
0000
0000
,
0000
0003
0010
0010
,
1000
0001
0100
0010
,
0100
0001
1000
0001
,
1000
0100
0010
0100
,
0001
0000
1000
0000
0001
1000
0000
0100
,
0000
0100
0000
0010
,
0000
0100
0000
0010
,
0000
1000
0000
0001
,
0000
0000
1000
0000
0000
1000
0000
1000
,
0000
0001
0100
0010
,
1000
0001
1000
0010
,
1000
0010
0100
0010
,
0100
0001
1000
0100
,
1000
0100
0001
0010
,
0100
0001
0010
1000
,
0100
0001
0010
1000
,
0100
0010
0001
1000
,
1000
0001
0100
0001
,
1000
0010
1000
0001
,
0000
0000
0100
0000
0010
0000
0000
0002
,
0000
0000
0000
0000
0000
0003
0000
0100
,
0000
1000
1000
1000
,
0100
0000
0100
0000
0100
0000
0100
0001
,
0000
0001
0001
0001
,
0100
0000
0100
0000
0100
0000
0100
0001
,
0000
1000
0001
0000
0100
0000
0001
0000
,
0100
0001
1000
0010
,
0100
0001
1000
0001
,
0010
0010
1000
0001
,
0000
0100
0100
0100
,
0001
0000
0001
0000
0001
0000
1000
0010
,
0000
0010
0010
0010
,
0100
0000
0100
0000
1000
0000
1000
0001
,
0000
1000
0001
0000
1000
0000
0010
0000
,
0100
0000
0010
0000
0100
0000
0000
0002
,
0000
0000
0000
0000
,
0000
0000
0000
0003
1000
0000
0000
2000
,
0000
0000
0000
3010
,
0100
0000
0010
0000
0001
0000
1000
0002
,
0000
0000
0000
0000
0000
0000
0003
0200
,
0000
0000
0000
0300
,
1000
1000
0000
0001
,
2002
0000
0000
0000
3003
0000
0000
2000
,
0000
0000
0000
0000
0000
0000
0000
3010
,
0000
0000
0000
0000
1000
0000
1000
0010
,
0000
0001
0100
0001
,
1000
0000
0000
0010
0000
0000
0100
0000
,
0001
0000
0000
0000
0100
0000
0010
2000
,
0000
0000
0000
0000
0000
3000
0000
0000
,
0001
0000
1000
0000
0010
0000
0100
0010
,
0000
0000
0001
0000
0000
0010
0000
0002
,
0000
0000
0000
0003
,
1000
0000
0000
0000
0010
0000
0100
0010
,
0000
0000
1000
0000
0001
1000
0000
0010
,
0000
0000
0000
0000
1000
0000
0001
0200
,
0000
0000
0000
0300
0000
0000
0010
2000
,
0000
0000
0000
0000
,
0000
0000
0000
0000
3000
0000
0000
0002
,
0000
0000
0000
0003
,
0000
0000
0000
0000
,
0000
0000
0000
0000
,
0000
0000
0000
0000
,
0000
0000
0000
0000
,
0000
0000
0000
0000
,
0000
0000
0000
0000
,
0000
0000
0000
0000
,
0000
0000
0000
0000
1000
0000
0000
0020
,
0000
0000
0000
0000
0000
0030
0000
0200
,
0000
0000
0000
0000
0000
0301
0000
0100
,
0000
0000
0001
1000
0001
0000
1000
0000
,
0001
0000
1000
0000
0001
0000
1000
0010
,
0000
0010
0100
0010
,
1000
0000
0001
0000
1000
0000
0001
1000
,
0000
0001
0010
0001
,
1000
0000
0001
0000
0010
0000
0000
1000
,
0000
0001
0100
0010
,
0100
0001
1000
0010
,
0100
0001
0100
0010
,
1000
0010
0100
0010
,
0001
1000
0001
0100
,
0010
0100
0010
0100
,
1000
0000
0001
0000
0100
0000
0000
0200
,
0000
0000
0000
0000
0000
0000
0000
0300
,
0000
0001
0100
1000
,
0010
0000
0001
0000
0100
0000
1000
0001
,
0000
0100
0010
0001
,
0010
0000
0100
0000
0100
0000
0010
0100
,
0000
1000
0001
0000
1000
0000
0001
0000
,
1000
0010
0100
0010
,
1000
0010
1000
0001
,
1000
0000
0010
0000
1000
0100
0000
0001
,
0000
1000
0010
0001
,
0100
0000
1000
0000
0010
0000
1000
0001
,
0000
1000
0100
0010
,
1000
0000
0100
0000
0010
0000
0100
0001
,
0000
1000
0010
0000
1000
0000
0010
0000
,
0100
0010
0001
1000
,
0001
0000
0010
0000
0001
0000
0010
1000
;

//---------------dance-single - ----------------
#NOTEDATA:;
#CHARTNAME:;
#STEPSTYPE:dance-single;
#DESCRIPTION:;
#CHARTSTYLE:;
#DIFFICULTY:Beginner;
#METER:6;
#RADARVALUES:0.239284,0.336210,0.000000,0.131828,0.000000,199.000000,0.000000,17.000000,0.000000,0.000000,0.000000,0.000000,0.000000,0.239284,0.336210,0.000000,0.131828,0.000000,199.000000,0.000000,17.000000,0.000000,0.000000,0.000000,0.000000,0.000000;
#CREDIT:usaminseijin;
#NOTES:
0000
0000
0000
0000
,
0000
0000
0000
0000
,
0000
0000
0000
0000
,
0000
0000
0000
0000
,
0000
0000
0000
0000
,
0000
0000
0000
0000
,
0000
0000
0000
0000
,
0000
0000
0000
0000
,
0000
0000
0000
0000
0001
0000
0000
0200
,
0000
0000
0000
0000
0000
0300
0000
0020
,
0000
0000
0000
0000
0000
0030
0000
2000
,
0000
3000
0000
0000
,
0001
0000
0000
0000
,
0100
0000
0100
0000
,
1000
0000
1000
0000
,
0001
0000
0001
0000
,
2000
0000
0000
3000
,
0100
0000
0010
0000
,
0100
0000
0010
0000
,
0100
0000
0010
0000
,
0100
0000
0010
0000
,
1000
0000
0001
0000
,
0010
0000
0000
0000
1000
0000
0000
0200
,
0000
0000
0000
0000
0000
0000
0000
0300
,
0000
0000
0000
0000
,
1000
0000
0000
0002
0000
0000
0000
0000
,
0000
0003
0010
0000
,
1000
0000
0100
0000
,
0001
0000
1000
0000
,
1000
0000
0010
0000
,
0001
0000
1000
0000
,
0000
0100
0000
0010
,
0000
0100
0000
0010
,
0000
1000
0000
0001
,
0000
1000
0000
0001
,
0100
0000
0010
0000
,
1000
0000
0001
0000
,
1000
0000
0010
0000
,
0100
0000
0001
0000
,
1000
0000
0010
0000
,
0100
0000
0001
0000
,
0100
0000
1000
0000
,
0001
0000
0010
0000
,
1000
0000
0100
0000
,
0010
0000
0001
0000
,
0100
0000
0000
0000
0010
0000
0000
0002
,
0000
0000
0000
0000
0000
0003
0000
0000
,
0000
1000
1000
0000
,
0100
0100
0100
0000
,
0000
0001
0001
0000
,
0100
0100
0100
0000
,
0100
0000
0001
0000
,
0100
0000
0010
0000
,
0100
0000
0001
0000
,
0010
0000
1000
0001
,
0000
0100
0100
0000
,
0001
0001
0001
0000
,
0000
0010
0010
0000
,
0100
0100
1000
0000
,
1000
0000
0010
0000
,
0100
0000
0000
0000
0010
0000
0000
0002
,
0000
0000
0000
0000
,
0000
0000
0000
0003
0000
0000
0000
2000
,
0000
0000
0000
3000
,
0000
0000
0000
0000
0000
0000
0000
0002
,
0000
0000
0000
0000
0000
0000
0003
0200
,
0000
0000
0000
0300
,
1000
1000
0000
0001
,
0002
0000
0003
0000
,
1000
0000
1000
0000
,
0010
0000
0010
0000
,
0001
0000
0001
0000
,
0100
0000
0100
0000
,
1000
0000
1000
0000
,
0001
0000
0001
0000
,
0100
0000
0100
0000
,
0010
0000
0010
0000
,
0001
0000
0001
0000
,
0100
0000
0100
0000
,
1000
0000
0001
0000
,
0010
0000
1000
0000
,
0100
0000
0000
0000
0010
0000
0000
2000
,
0000
0000
0000
0000
,
0000
0000
0000
0000
3000
0000
0000
0002
,
0000
0000
0000
0003
,
0000
0000
0000
0000
,
0000
0000
0000
0000
,
0000
0000
0000
0000
,
0000
0000
0000
0000
,
0000
0000
0000
0000
,
0000
0000
0000
0000
,
0000
0000
0000
0000
,
0000
0000
0000
0000
1000
0000
0000
0020
,
0000
0000
0000
0000
0000
0030
0000
0200
,
0000
0000
0000
0000
0000
0300
0000
0000
,
0100
0000
0001
0000
,
1000
0000
0001
0000
,
0100
0000
0010
0000
,
1000
0000
0001
0000
,
1000
0000
0010
0000
,
1000
0000
0001
0000
,
1000
0000
0001
0000
,
0100
0000
0001
0000
,
0100
0000
0001
0000
,
1000
0000
0001
0000
,
0100
0000
0001
0000
,
0100
0000
0010
0000
,
1000
0000
0000
0000
0001
0000
0000
0200
,
0000
0000
0000
0300
,
0001
0000
0100
0000
,
0010
0000
0001
0000
,
1000
0000
0010
0000
,
0001
0000
0100
0000
,
0010
0000
0001
0000
,
1000
0000
0100
0000
,
0001
0000
0010
0000
,
1000
0000
0100
0000
,
0001
0000
1000
0000
,
0100
0000
0010
0000
,
0001
0000
0100
0000
,
0010
0000
1000
0000
,
0010
0000
0001
0000
,
0100
0000
1000
0000
,
0100
0000
0010
0000
0001
0000
0010
1000
;
