#VERSION:0.82;
#TITLE:sky;
#SUBTITLE:(vocal version);
#ARTIST:しろ feat. Ohyou (support by hammer);
#TITLETRANSLIT:;
#SUBTITLETRANSLIT:;
#ARTISTTRANSLIT:shiro feat. Ohyou (support by hammer);
#GENRE:Rock(JP);
#ORIGIN:;
#CREDIT:;
#BANNER:sky.png;
#BACKGROUND:sky-bg.png;
#PREVIEWVID:;
#JACKET:sky-jacket.png;
#CDIMAGE:;
#DISCIMAGE:;
#LYRICSPATH:sky.lrc;
#CDTITLE:cdtitle.png;
#MUSIC:sky.ogg;
#OFFSET:-0.238000;
#SAMPLESTART:89.757004;
#SAMPLELENGTH:20.845999;
#SELECTABLE:YES;
#BPMS:0.000=181.156;
#STOPS:;
#DELAYS:;
#WARPS:;
#TIMESIGNATURES:0.000=4=4;
#TICKCOUNTS:0.000=4;
#COMBOS:0.000=1;
#SPEEDS:0.000=1.000=0.000=0;
#SCROLLS:0.000=1.000;
#FAKES:;
#LABELS:0.000=Song Start;
#BGCHANGES:-1.000=sky.mp4=1.000=0=0=0=StretchNoLoop====,
99999=-nosongbg-=1.000=0=0=0 // don't automatically add -songbackground-
;
#KEYSOUNDS:;
#ATTACKS:
;

//---------------dance-single - ----------------
#NOTEDATA:;
#CHARTNAME:;
#STEPSTYPE:dance-single;
#DESCRIPTION:;
#CHARTSTYLE:;
#DIFFICULTY:Hard;
#METER:13;
#RADARVALUES:0.620767,0.785431,0.462418,0.068003,0.013601,561.000000,68.000000,10.000000,0.000000,0.000000,0.000000,0.000000,0.000000,0.620767,0.785431,0.462418,0.068003,0.013601,561.000000,68.000000,10.000000,0.000000,0.000000,0.000000,0.000000,0.000000;
#CREDIT:;
#NOTES:
0000
0000
0000
0000
,
0000
0000
0000
0000
,
0000
0000
0000
0000
,
0000
0000
0000
0000
,
1000
0000
0000
0000
,
0001
0000
0000
0000
,
1001
0000
0000
0000
,
0000
0000
0000
0001
,
1000
0000
0001
0000
0000
0100
0010
0000
,
1000
0001
0000
0010
,
1001
0000
0000
1001
0000
0000
0000
0000
,
0000
0000
0000
0000
,
0110
0000
0000
0110
0000
0000
0000
0000
,
1100
0000
0000
0101
0000
0000
0010
0001
,
0000
1000
0010
0000
1000
0100
0010
1000
,
0000
1000
0001
0000
0100
0010
0001
0100
,
0000
0100
0010
0000
1000
0100
0010
1000
,
0000
1000
0001
0000
0100
0010
0100
0001
,
0000
0010
0001
0000
1000
0100
0010
1000
,
0000
0100
0001
0000
0100
0010
1000
0001
,
0000
0100
0001
0000
1000
0100
0001
1000
,
0000
0010
0001
0000
1000
0100
0010
0001
,
0000
1000
0001
0000
1000
0100
0010
0001
,
0000
0100
0010
0000
1000
0001
0100
0010
,
0000
0100
0010
0000
1000
0001
1000
0010
,
0000
0100
0010
0000
1000
0100
0001
1000
,
0000
0010
0001
0000
1000
0100
0001
1000
,
0000
0010
0001
0000
0010
0100
0010
1001
,
0000
0100
0010
1000
0010
0100
0010
0001
,
0010
0100
0010
1001
0000
1010
0000
1001
,
0000
0001
0100
0001
1000
0001
0010
0001
,
1000
0001
0100
2002
0000
3003
0000
0110
,
0000
0010
1000
0001
1000
0010
1000
0001
,
1000
0010
1000
0110
0000
0101
0000
1010
,
0000
0001
0100
0010
0100
0001
0100
0010
,
0000
1000
0010
0000
0202
0000
0000
0303
,
1000
0000
0000
1000
0000
0000
0000
0000
,
0000
1000
0000
0000
1001
0000
0000
0001
,
0000
0000
0001
0000
0000
0001
0000
0000
,
0000
0001
0000
0000
1001
0000
0000
1000
,
1000
0000
0000
1000
0000
0000
0000
0000
,
0000
1000
0000
0000
1001
0000
0000
0001
,
0000
0000
0001
0000
0000
0001
0000
0000
,
0000
0001
0000
0000
1001
0000
0000
1000
,
0010
1000
0000
1000
0000
0000
0000
0000
,
0000
1000
0000
0000
1001
0000
0000
0001
,
0001
0010
0000
0001
0000
0000
0001
0000
,
0000
0001
0000
0000
1001
0000
0000
1000
,
1000
0000
0000
1000
0000
0000
1000
0000
,
0000
1000
0000
0000
1001
0000
0000
0001
,
0001
0000
0000
0001
0000
0000
0001
0000
,
1000
0000
1001
0000
1000
0100
0010
1001
,
0000
0100
0010
0000
1000
0100
0010
0100
,
0000
0100
0010
0000
1000
0001
1000
0110
,
0000
0100
0010
1001
0000
0100
0010
0001
,
0000
1000
0010
0001
0000
1000
0100
1001
,
0000
1000
0010
0000
1000
0100
0001
1000
,
0000
0100
0001
0000
1000
0010
0001
1001
,
0000
0100
0010
0100
0001
0100
0010
0100
,
0000
0100
0010
0100
1000
0100
0010
0110
,
0000
0100
0010
0000
1000
0100
0001
1000
,
0000
0010
0001
0000
1000
0100
0010
1001
,
0000
0100
0010
0000
0001
0010
1000
0001
,
0000
0010
1000
0000
0100
0010
0001
1001
,
0000
0100
0010
0000
1000
0001
1000
0010
,
0000
0100
0010
0000
1000
0001
0010
1000
,
0000
0001
1000
0001
0100
0010
0100
0010
,
1000
0001
0000
2020
0000
0000
3030
1001
,
0000
0010
0100
1000
0001
0010
0100
1000
,
0001
0100
0010
1000
0001
0100
0010
1001
,
0000
0100
0010
1001
0100
0010
0001
1000
,
0100
0001
1000
0010
0001
1000
0100
1001
,
0000
0100
0010
0001
1000
0100
0010
0001
,
1000
0010
0100
0001
1000
0010
0100
1001
,
0000
0100
0001
0110
0001
1000
0010
1000
,
0100
0000
0001
0000
0100
0000
0001
0000
1000
0001
1000
0001
1000
0000
1001
0000
,
0000
0100
0010
0001
1000
0100
0010
0001
,
1000
0010
0100
0001
1000
0010
0100
1001
,
0000
0100
0010
1001
0000
0010
1000
0100
,
0010
0001
0100
0010
1000
0100
0010
1001
,
0000
0100
0010
0001
1000
0100
0010
0001
,
1000
0010
0100
0001
1000
0010
0100
1001
,
0000
1000
0010
1000
0001
1000
0100
1000
,
0000
1000
0100
1000
0001
1000
0010
1001
,
0000
0100
0010
0000
1000
0001
1000
0001
,
0000
1000
0010
0000
0100
0001
0100
1001
,
0000
0100
1001
0000
0100
0010
0100
0001
,
0000
1000
0010
0000
0100
1000
0100
1001
,
0000
0100
0010
0000
1000
0001
1000
0010
,
0000
1000
0001
0000
1000
0100
0010
1001
,
0100
0010
1001
0100
0010
1001
0100
0010
,
0100
0000
0001
0000
0100
0000
0001
0000
1000
0001
1000
0001
1000
0000
1001
0000
,
0000
0100
0010
0001
0000
1000
0100
0010
,
0000
0100
0001
0100
0000
1000
0100
1001
,
0000
0100
1001
0000
0100
0010
1000
0001
,
0000
0010
0100
0000
1000
0001
0100
1001
,
0000
0100
0001
0000
1000
0001
1000
0010
,
0000
0100
0010
0000
1000
0100
0001
1001
,
0000
0100
0010
1000
0010
0100
0010
0001
,
0010
0100
0010
1001
0000
1010
0000
1001
,
0000
0001
0100
0001
1000
0001
0010
0001
,
1000
0001
0100
2002
0000
3003
0000
0110
,
0000
0010
1000
0001
1000
0010
1000
0001
,
1000
0010
1000
0110
0000
0101
0000
1010
,
0000
0001
0100
0010
0100
0001
0100
0010
,
0100
0001
0100
0010
0100
1001
0000
0110
,
0000
2002
0000
0000
,
0000
0000
0000
0000
,
0000
0000
0000
0000
,
0000
0000
0000
0000
0000
3003
0000
0010
,
0100
0000
0000
0000
;

//---------------dance-single - ----------------
#NOTEDATA:;
#CHARTNAME:;
#STEPSTYPE:dance-single;
#DESCRIPTION:;
#CHARTSTYLE:;
#DIFFICULTY:Medium;
#METER:10;
#RADARVALUES:0.449789,0.598424,0.122405,0.272011,0.000000,405.000000,18.000000,40.000000,0.000000,0.000000,0.000000,0.000000,0.000000,0.449789,0.598424,0.122405,0.272011,0.000000,405.000000,18.000000,40.000000,0.000000,0.000000,0.000000,0.000000,0.000000;
#CREDIT:;
#NOTES:
0000
0000
0000
0000
,
0000
0000
0000
0000
,
0000
0000
0000
0000
,
0000
0000
0000
0000
,
1000
0000
0000
0000
,
0001
0000
0000
0000
,
1000
0000
0000
0000
,
0000
0000
0000
0001
,
1000
0001
0000
0010
,
1000
0001
0000
0010
,
1000
0000
0000
0001
0000
0000
0000
0000
,
0000
0000
0000
0000
,
0100
0000
0000
0010
0000
0000
0000
0000
,
1000
0000
0000
0001
0000
0000
0010
0002
,
0000
0000
1000
0000
0000
0000
0000
2003
,
0000
0000
0000
3002
0000
0000
0003
0200
,
0000
0001
0000
0001
,
0000
0000
0000
0310
0000
1000
0001
2000
,
0000
0000
0001
0000
0000
0000
0000
3002
,
0000
0000
0000
0203
0000
0000
0000
0301
,
0000
1000
0001
0000
0000
0100
0000
0001
,
0000
0010
0001
0010
0000
0100
0000
2000
,
0000
0000
0000
3002
0000
0000
0000
0013
,
0000
0100
0000
1000
0000
0001
0000
0020
,
0000
0000
0001
0000
0000
0031
0000
2000
,
0000
0000
0001
0000
0000
3001
0000
0200
,
0000
0000
0000
0302
0000
0000
0003
1000
,
0000
0010
0000
0001
0000
0100
0000
1000
,
0000
0010
0100
0010
1000
0001
1000
0001
,
0100
0010
0100
0001
0000
0010
0000
1000
,
0000
0001
1000
0001
0100
0010
0100
0010
,
1000
0001
1000
0001
0000
0000
0000
0100
,
0000
0010
1000
0010
0100
0001
0100
0001
,
1000
0010
1000
0010
0000
0100
0000
1000
,
0000
0001
0010
0001
1000
0100
1000
0100
,
0000
1000
0010
0000
0101
0000
0000
0000
,
1000
0000
0000
1000
0000
0000
0000
0000
,
0000
1000
0000
0000
1001
0000
0000
0001
,
0000
0000
0001
0000
0000
0001
0000
0000
,
0000
0001
0000
0000
1001
0000
0000
1000
,
0100
0000
0000
1000
0000
0000
0000
0000
,
0000
1000
0000
0000
1001
0000
0000
0001
,
0000
0000
0001
0000
0000
0001
0000
0000
,
0000
0001
0000
0000
1001
0000
0000
1000
,
0010
1000
0000
1000
0000
0000
0000
0000
,
0000
1000
0000
0000
1001
0000
0000
0100
,
0001
0010
0000
0001
0000
0000
0001
0000
,
0000
0001
0000
0000
1001
0000
0000
1000
,
0100
0000
0000
1000
0000
0000
1000
0000
,
0000
1000
0000
0000
1001
0000
0000
0001
,
0010
0000
0000
0001
0000
0000
0001
0000
,
1000
0000
1001
0000
0100
0010
0000
2000
,
0000
0000
3000
0000
0100
0010
0000
0200
,
0000
0000
0301
0000
1000
0001
0000
0110
,
0000
0000
0100
0000
0010
0100
0000
0001
,
0000
0100
0010
0000
1000
0001
0100
0002
,
0000
0000
1000
0000
0000
1003
0010
2000
,
0000
0000
3100
0000
0010
0001
0000
1000
,
0000
0000
0010
0000
0100
0001
0000
1000
,
0000
0100
0010
0000
1000
0100
0010
0002
,
0000
0000
1000
0000
1003
0100
0000
0020
,
0000
0000
0001
0000
0031
1000
0000
0002
,
0000
0000
1000
0000
0000
1003
0010
2000
,
0000
0000
0001
3000
0100
0010
0000
1001
,
0000
0000
0100
0000
0010
0100
0000
0001
,
0000
1000
0010
1000
0001
1000
0100
0010
,
0000
0001
1000
0001
0100
0010
0100
0010
,
1000
0001
0000
1010
0000
0100
0010
0002
,
0000
0000
1000
0000
0000
1003
0010
2000
,
0000
0000
3001
0000
0100
0010
0000
1000
,
0100
1000
0001
0100
0001
1000
0010
1000
,
0001
0010
0001
1000
0001
0100
0000
2000
,
0000
0000
0001
0000
0000
3010
0100
0020
,
0000
1000
1030
0010
,
0100
0000
0000
0002
0000
0000
1000
0000
,
0000
0003
0000
0010
0000
0100
0000
0010
,
0000
1000
0001
1000
0000
0110
0000
0001
,
0000
0010
0000
0100
0000
0010
0000
1001
,
0000
0000
0000
1000
0000
0010
0100
0010
,
0000
1000
0000
0001
0000
0100
0010
2000
,
0000
0000
0001
0000
0000
3001
0100
0001
,
0000
0010
0000
0001
0000
1000
0000
0001
,
0000
0000
0100
0000
0010
0100
0000
0001
,
0000
0000
1000
0000
0010
0100
0010
2000
,
0000
0000
0000
3002
0000
0000
2003
0000
,
0000
0000
3010
0000
0100
0000
0001
2000
,
0000
0000
0000
3002
0000
0000
0203
0000
,
0000
0000
0000
0000
0300
0001
1000
0001
,
0000
0010
0000
0100
0000
1000
0000
0010
,
0000
0100
0000
0001
0000
0100
0001
1000
,
0000
0100
0000
0010
0000
0001
0000
0010
,
0000
0001
0000
1000
0000
0001
0000
1001
,
0000
0100
0010
0002
0000
0000
1000
0000
,
0000
0000
0203
0000
0000
0000
0301
1000
,
0000
0000
1001
0000
0100
0010
0000
1001
,
0000
0010
0100
0000
1000
0001
0100
0002
,
0000
0000
2003
0000
0000
3010
0000
0200
,
0000
0000
0000
0310
0000
1000
0000
0001
,
0000
0010
0100
0010
1000
0001
1000
0001
,
0100
0010
0100
0001
0000
0010
0000
1000
,
0000
0001
1000
0001
0100
0010
0100
0010
,
1000
0001
1000
0001
0000
0000
0000
0100
,
0000
0010
1000
0010
0100
0001
0100
0001
,
1000
0010
1000
0010
0000
0100
0000
1000
,
0000
0001
0010
0001
1000
0100
1000
0100
,
0010
0001
0010
0001
0000
1000
0000
0010
,
0000
2002
0000
0000
,
0000
0000
0000
0000
,
0000
0000
0000
0000
,
0000
0000
0000
0000
0000
3003
0000
0010
,
0100
0000
0000
0000
;

//---------------dance-single - ----------------
#NOTEDATA:;
#CHARTNAME:;
#STEPSTYPE:dance-single;
#DESCRIPTION:;
#CHARTSTYLE:;
#DIFFICULTY:Easy;
#METER:6;
#RADARVALUES:0.291440,0.335466,0.061202,0.190408,0.000000,263.000000,9.000000,28.000000,0.000000,0.000000,0.000000,0.000000,0.000000,0.291440,0.335466,0.061202,0.190408,0.000000,263.000000,9.000000,28.000000,0.000000,0.000000,0.000000,0.000000,0.000000;
#CREDIT:;
#NOTES:
0000
0000
0000
0000
,
0000
0000
0000
0000
,
0000
0000
0000
0000
,
0000
0000
0000
0000
,
1000
0000
0000
0000
,
0001
0000
0000
0000
,
1000
0000
0000
0000
,
0000
0000
0000
0001
,
1000
0001
0000
0010
,
1000
0001
0000
0010
,
1000
0000
0000
0001
0000
0000
0000
0000
,
0000
0000
0000
0000
,
0100
0000
0000
0010
0000
0000
0000
0000
,
1000
0000
0000
0001
0000
0000
0010
0001
,
0000
0000
0000
0000
0000
0000
0000
1000
,
0000
0000
0000
0001
0000
0000
0000
0200
,
0000
0000
0000
0000
,
0300
0000
0000
0010
0000
1000
0001
2000
,
0000
0000
0000
0000
3000
0000
0000
0001
,
0000
0000
0000
1000
0000
0000
0000
0001
,
0000
1000
0000
0000
0000
0100
0000
0001
,
0000
0010
0000
0001
0000
0100
0000
1000
,
0000
0000
0000
0001
0000
0000
0000
0010
,
0000
0100
0000
1000
0000
0001
0000
0020
,
0000
0000
0000
0030
0000
0001
0000
2000
,
0000
0000
0000
3000
0000
0001
0000
0100
,
0000
0000
0000
0001
0000
0000
0000
1000
,
0000
0010
0000
0001
0000
0100
0000
1000
,
0000
0010
0100
0000
0001
0000
1000
0000
,
0100
0000
0010
0001
0000
0010
0000
1000
,
0000
0001
1000
0000
0100
0000
0010
0000
,
1000
0000
0001
1000
0000
0000
0000
0100
,
0000
0010
1000
0000
0100
0000
0001
0000
,
1000
0000
0010
0100
0000
0010
0000
1000
,
0000
0001
0010
0000
0100
0000
1000
0000
,
0000
1000
0010
0000
0100
0000
0000
0000
,
1000
0000
0000
0000
,
0000
0000
1001
0000
,
0000
0000
0000
0000
,
0000
0000
1001
0000
,
0100
0000
0000
0000
,
0000
0000
1001
0000
,
0000
0000
0000
0000
,
0000
0000
1001
0000
,
0100
0000
0000
0000
,
0000
0000
1001
0000
,
0000
0010
0000
0000
0000
0000
0000
0000
,
0000
0000
1001
0000
,
0000
0000
0000
0000
,
0000
0000
1001
0000
,
0000
0000
0000
0000
,
0000
0000
1001
0000
0010
0001
0000
1000
,
0000
0000
0000
0000
0010
0100
0000
0010
,
0000
0000
0000
0000
1000
0001
0000
0200
,
0000
0000
0000
0300
,
0000
0000
0000
0000
0000
0001
0100
0001
,
0000
0000
0000
0000
0000
1000
0010
1000
,
0000
0000
0100
0000
0010
0001
0000
2000
,
0000
0000
0000
3000
,
0000
0000
0000
0000
0000
0100
0000
0002
,
0000
0000
0003
0000
1000
0100
0000
0020
,
0000
0000
0030
0000
0001
1000
0000
0002
,
0000
0000
0003
0000
0000
1000
0010
2000
,
0000
0000
0000
3000
0100
0010
0000
2000
,
0000
0000
0000
0000
,
0000
0000
0000
3000
0000
0100
0000
0200
,
0000
0000
0000
0300
,
1000
0001
0000
1000
0000
0100
0000
0002
,
0000
0000
0000
0000
0000
1003
0000
2000
,
0000
0000
3001
0000
0100
0010
0000
2000
,
0000
0000
0000
0000
,
0000
3000
0000
0000
0001
0100
0000
2000
,
0000
0000
0000
3000
0000
0010
0000
0020
,
0000
0030
1000
0010
,
0100
0000
0000
0002
0000
0000
0000
0000
,
0000
0003
0000
0010
0000
0100
0000
0001
,
0000
1000
0000
0001
0000
0010
0000
0001
,
0000
0010
0000
0100
0000
0010
0000
0001
,
0000
0000
0000
1000
0000
0010
0000
0010
,
0000
1000
0000
0001
0000
0100
0000
2000
,
0000
0000
0000
3000
0000
0001
0000
0001
,
0000
0010
0000
0001
0000
1000
0000
0001
,
0000
0000
0100
0000
0010
0100
0000
0001
,
0000
0000
1000
0000
0010
0100
0000
2000
,
0000
3000
0000
0002
0000
0003
2000
0000
,
3000
0000
0010
0000
0100
0000
0000
2000
,
0000
0000
3000
0001
0000
0000
0200
0000
,
0000
0000
0300
0000
0000
1000
0000
0001
,
0000
0010
0000
0100
0000
1000
0000
0010
,
0000
0100
0000
0001
0000
0100
0000
1000
,
0000
0100
0000
0010
0000
0001
0000
0010
,
0000
0001
0000
1000
0000
0001
0000
1000
,
0000
0100
0000
0002
0000
0000
0000
0000
,
0003
0000
0200
0000
0300
0000
0001
1000
,
0000
0000
0001
0000
0100
0010
0000
1000
,
0000
0000
0100
0000
1000
0001
0000
0010
,
0000
0000
0001
0000
0000
0010
0000
0100
,
0000
0000
0000
0010
0000
1000
0000
0001
,
0000
0010
0100
0000
0001
0000
1000
0000
,
0100
0000
0010
0001
0000
0010
0000
1000
,
0000
0001
1000
0000
0100
0000
0010
0000
,
1000
0000
0001
1000
0000
0000
0000
0100
,
0000
0010
1000
0000
0100
0000
0001
0000
,
1000
0000
0010
0100
0000
0010
0000
1000
,
0000
0001
0010
0000
0100
0000
1000
0000
,
0010
0000
0001
1000
0000
0100
0000
0010
,
0000
2002
0000
0000
,
0000
0000
0000
0000
,
0000
0000
0000
0000
,
0000
0000
0000
0000
0000
3003
0000
0000
;

//---------------dance-single - ----------------
#NOTEDATA:;
#CHARTNAME:;
#STEPSTYPE:dance-single;
#DESCRIPTION:;
#CHARTSTYLE:;
#DIFFICULTY:Beginner;
#METER:3;
#RADARVALUES:0.136005,0.186582,0.000000,0.047602,0.000000,133.000000,0.000000,7.000000,0.000000,0.000000,0.000000,0.000000,0.000000,0.136005,0.186582,0.000000,0.047602,0.000000,133.000000,0.000000,7.000000,0.000000,0.000000,0.000000,0.000000,0.000000;
#CREDIT:;
#NOTES:
// measure 0
0000
0000
0000
0000
,  // measure 1
0000
0000
0000
0000
,  // measure 2
0000
0000
0000
0000
,  // measure 3
0000
0000
0000
0000
,  // measure 4
1000
0000
0000
0000
,  // measure 5
0001
0000
0000
0000
,  // measure 6
1000
0000
0000
0000
,  // measure 7
0000
0000
0000
0000
,  // measure 8
1000
0000
0000
0000
,  // measure 9
0001
0000
0000
0000
,  // measure 10
0010
0000
0000
0000
,  // measure 11
0000
0000
0000
0000
,  // measure 12
0100
0000
0000
0000
,  // measure 13
1000
0000
0000
0000
0000
0000
0000
0001
,  // measure 14
0000
0000
0000
0000
0000
0000
0000
1000
,  // measure 15
0000
0000
0000
0001
0000
0000
0000
0100
,  // measure 16
0000
0000
0000
0000
,  // measure 17
0000
0000
0000
0010
0000
0000
0000
0001
,  // measure 18
0000
0000
0000
0000
0000
0000
0000
1000
,  // measure 19
0000
0000
0000
0001
0000
0000
0000
0100
,  // measure 20
0000
0000
0000
0000
0000
0001
0000
0000
,  // measure 21
0000
0010
0000
0000
0000
0000
0000
1000
,  // measure 22
0000
0000
0000
0001
0000
0000
0000
0010
,  // measure 23
0000
0000
0000
1000
0000
0000
0000
0010
,  // measure 24
0000
0000
0000
0000
0000
0000
0000
1000
,  // measure 25
0000
0000
0000
0000
0000
0000
0000
1000
,  // measure 26
0000
0000
0000
0001
0000
0000
0000
1000
,  // measure 27
0000
0000
0000
0000
0000
0100
0000
0010
,  // measure 28
0000
0000
1000
0000
,  // measure 29
0010
0000
0000
0001
0000
0000
0000
1000
,  // measure 30
0000
0000
0100
0000
,  // measure 31
0001
0000
0000
0010
0000
0000
0000
0100
,  // measure 32
0000
0000
0001
0000
,  // measure 33
0100
0000
0000
1000
0000
0000
0000
0001
,  // measure 34
0000
0000
0010
0000
,  // measure 35
0000
1000
0000
0000
0001
0000
0000
0000
,  // measure 36
1000
0000
0000
0000
,  // measure 37
0000
0000
1000
0000
,  // measure 38
0000
0000
0000
0000
,  // measure 39
0000
0000
0001
0000
,  // measure 40
0100
0000
0000
0000
,  // measure 41
0000
0000
0100
0000
,  // measure 42
0000
0000
0000
0000
,  // measure 43
0000
0000
0010
0000
,  // measure 44
0100
0000
0000
0000
,  // measure 45
0000
0000
1000
0000
,  // measure 46
0000
0000
0000
0000
,  // measure 47
0000
0000
0001
0000
,  // measure 48
0000
0000
0000
0000
,  // measure 49
0000
0000
1000
0000
,  // measure 50
0000
0000
0000
0000
,  // measure 51
0000
0001
0001
0000
,  // measure 52
0000
0000
0010
0000
,  // measure 53
1000
0000
0000
0000
0000
0000
0000
0200
,  // measure 54
0000
0000
0000
0000
0000
0000
0000
0300
,  // measure 55
0000
0000
0000
0000
0000
0100
0000
0100
,  // measure 56
0000
0000
1000
0000
,  // measure 57
0000
0000
0000
0000
0010
0000
0000
2000
,  // measure 58
0000
0000
3000
0000
,  // measure 59
0000
0000
0000
0000
0000
0100
0000
0100
,  // measure 60
0000
0000
0000
0000
0000
1000
0000
1000
,  // measure 61
0000
0000
0000
0000
0001
0000
0000
0001
,  // measure 62
0000
0000
0000
0000
0000
0010
0000
0010
,  // measure 63
0000
0000
0000
0000
1000
0000
0000
2000
,  // measure 64
0000
0000
0000
0000
0000
0000
0000
3000
,  // measure 65
0000
0000
0000
0000
0000
0100
0000
0200
,  // measure 66
0000
0000
0000
0000
0000
0000
0000
0300
,  // measure 67
0000
0000
0000
0000
0000
0001
0000
0001
,  // measure 68
0000
0000
0000
0000
0000
1000
0000
1000
,  // measure 69
0000
0000
0000
0000
0000
0010
0000
0010
,  // measure 70
0000
0000
0000
0000
,  // measure 71
0000
0000
0000
0000
0000
1000
0000
1000
,  // measure 72
0000
0000
0000
0000
0000
0010
0000
0010
,  // measure 73
0000
0000
1000
1000
,  // measure 74
0000
0000
0000
0002
0000
0000
0000
0003
,  // measure 75
0000
0000
0000
0010
0000
0000
0000
0001
,  // measure 76
0000
0000
0000
0000
0000
0000
0000
0010
,  // measure 77
0000
0000
0000
0000
0000
0000
0000
0001
,  // measure 78
0000
0000
0000
0000
0000
0000
0000
1000
,  // measure 79
0000
0000
0000
0000
0000
0000
0000
0100
,  // measure 80
0000
0000
0000
0000
0000
0000
0000
0010
,  // measure 81
0000
0000
0000
0000
0000
0000
0000
0002
,  // measure 82
0000
0000
0000
0000
,  // measure 83
0003
0000
0000
0000
0000
0000
0000
1000
,  // measure 84
0000
0000
0000
0000
,  // measure 85
0000
0010
0000
0000
0000
0000
0000
1000
,  // measure 86
0000
0000
0000
0001
0000
0000
0001
0000
,  // measure 87
0000
0000
0000
0000
0000
0000
0000
0001
,  // measure 88
0000
0000
0000
0000
0000
0000
0000
0010
,  // measure 89
0000
0000
0000
0000
0000
0000
0000
1000
,  // measure 90
0000
0000
0000
0000
0000
0000
0000
0010
,  // measure 91
0000
0000
0000
0000
0000
0000
0000
0100
,  // measure 92
0000
0100
0000
0000
0000
0000
0000
0000
,  // measure 93
0000
0010
0000
0001
,  // measure 94
0000
0000
1000
0000
1000
0000
0000
0010
,  // measure 95
0000
0000
0000
0000
0000
0000
0000
0100
,  // measure 96
0000
0000
0000
0000
0000
0000
0000
0001
,  // measure 97
0000
0000
0000
0000
0000
0000
0000
0100
,  // measure 98
0000
0000
1000
0000
,  // measure 99
0010
0000
0000
0001
0000
0000
0000
1000
,  // measure 100
0000
0000
0100
0000
,  // measure 101
0001
0000
0000
0010
0000
0000
0000
0100
,  // measure 102
0000
0000
0001
0000
,  // measure 103
0100
0000
0000
1000
0000
0000
0000
0001
,  // measure 104
0000
0000
0010
0000
,  // measure 105
0000
0000
0000
0000
0000
0100
0000
0100
,  // measure 106
0000
0020
0000
0000
,  // measure 107
0000
0000
0000
0000
,  // measure 108
0000
0000
0000
0000
,  // measure 109
0000
0000
0000
0030
;
