#VERSION:0.82;
#TITLE:Shade of Stars;
#SUBTITLE:;
#ARTIST:Yossy;
#TITLETRANSLIT:;
#SUBTITLETRANSLIT:;
#ARTISTTRANSLIT:;
#GENRE:Hyper Eurobeat;
#ORIGIN:;
#CREDIT:;
#BANNER:Shade of Stars.png;
#BACKGROUND:Shade of Stars-bg.png;
#PREVIEWVID:;
#JACKET:Shade of Stars-jacket.png;
#CDIMAGE:;
#DISCIMAGE:;
#LYRICSPATH:;
#CDTITLE:cdtitle.png;
#MUSIC:Shade of Stars.ogg;
#OFFSET:0.000000;
#SAMPLESTART:94.666664;
#SAMPLELENGTH:10.666667;
#SELECTABLE:YES;
#DISPLAYBPM:90.000000:180.000000;
#BPMS:0.000=90.000,
38.000=180.000,
174.000=90.000,
210.000=360.000,
218.000=180.000;
#STOPS:308.000=1.000;
#DELAYS:;
#WARPS:;
#TIMESIGNATURES:0.000=4=4;
#TICKCOUNTS:0.000=4;
#COMBOS:0.000=1;
#SPEEDS:0.000=1.000=0.000=0;
#SCROLLS:0.000=1.000;
#FAKES:;
#LABELS:0.000=Song Start;
#BGCHANGES:0.000=Shade of Stars.mp4=1.000=0=0=0=StretchNoLoop====,
99999=-nosongbg-=1.000=0=0=0 // don't automatically add -songbackground-
;
#KEYSOUNDS:;
#ATTACKS:
;

//---------------dance-single - ----------------
#NOTEDATA:;
#CHARTNAME:;
#STEPSTYPE:dance-single;
#DESCRIPTION:;
#CHARTSTYLE:;
#DIFFICULTY:Hard;
#METER:12;
#RADARVALUES:0.567858,0.540746,0.137332,0.167851,0.270850,481.000000,18.000000,22.000000,0.000000,0.000000,2.000000,0.000000,0.000000,0.567858,0.540746,0.137332,0.167851,0.270850,481.000000,18.000000,22.000000,0.000000,0.000000,2.000000,0.000000,0.000000;
#CREDIT:usaminseijin;
#DISPLAYBPM:90.000000:180.000000;
#NOTES:
0000
0000
0000
0000
,
1001
0000
0000
0000
,
0000
0000
0000
0000
,
0000
0000
0000
0000
,
0000
0000
0000
0000
0000
0000
0000
0000
0000
0000
1000
0000
0001
1000
0000
0000
,
1001
0000
0000
0000
0000
0000
0100
0010
0100
0000
0000
0000
0000
0000
0000
0000
0000
0000
0000
0000
0000
0000
0000
0000
0000
0000
0000
0000
0000
0000
0000
0000
,
0000
0000
0000
0000
,
0000
0000
0000
0000
,
0000
0000
0000
0000
,
1001
1001
1001
1001
1000
0010
0100
0001
,
1000
0000
0001
1000
0000
0001
0000
0000
0100
0000
0001
0000
0100
0000
0010
0000
,
1000
0001
1000
0001
0100
0001
1000
0001
,
1000
0000
0010
0000
1000
0000
0010
0000
1000
0000
0001
0000
1000
0000
0000
0100
,
1000
0000
0100
0000
1000
0000
0000
0001
1000
0000
0010
0000
1000
0000
0001
0000
,
0100
0000
0001
1000
0000
0010
0000
0000
0100
0000
0001
0000
1000
0000
0010
0000
,
1000
0001
1000
0001
1000
0010
0100
0001
,
1000
0001
1000
0001
1000
0010
1000
0010
,
1000
0001
0010
0100
1000
0100
1000
0100
,
1000
0001
1000
0001
0100
0001
0100
0001
,
0010
0001
0000
0000
0010
0000
0001
0000
0100
0000
0001
0000
0100
0000
0001
0000
,
0100
0010
0100
0010
1000
0100
1000
0100
,
1000
0001
1000
0001
0100
0001
0100
0001
,
0100
0010
0100
0010
1000
0010
1000
0010
,
1000
0001
0000
0000
1000
0000
0001
0000
0100
0000
0010
0000
1000
0001
0000
0000
,
1000
0000
0010
0000
0100
0001
0000
0000
1000
0010
0000
0000
0010
0100
0000
0000
,
0100
0001
0000
0000
2002
0000
3003
0000
0100
0000
0010
0000
0100
0000
0010
0000
,
1000
0010
1000
0010
0100
0010
0100
0010
,
1000
0001
0000
0000
1000
0000
0001
0000
0100
0000
0001
0000
0100
0000
0001
0000
,
0100
0010
0100
0010
1000
0010
1000
0010
,
1000
0001
1000
0001
0100
0001
0100
0001
,
0100
0010
0100
0010
0100
0001
0100
0001
,
1000
0001
0000
0000
1000
0000
0001
0000
0100
0000
0010
0000
1000
0001
0000
0000
,
0001
0010
0000
0000
0010
0100
0000
0000
0101
0000
0000
0000
0000
0000
0000
0000
,
4004
0000
0000
3003
0100
0010
1000
0010
,
0100
0000
0100
0001
0000
1000
0001
0000
0100
0000
0010
0000
1000
0000
0010
0000
,
1000
0000
1000
0001
0000
0100
0001
0000
1000
0000
0010
0000
1000
0000
0001
0000
,
0100
0000
0100
0010
0000
1000
0010
0000
1000
0000
0000
0010
0000
0000
1000
0000
,
2002
0000
0000
3003
0100
0001
1000
0001
,
0100
0000
0100
0001
0000
1000
0001
0000
1000
0000
0010
0000
0100
0000
0010
0000
,
1000
0000
1000
0001
0000
0100
0001
0000
1000
0000
0001
0000
1000
0010
0000
0000
,
0010
0100
0000
0000
0100
0001
0000
0000
0001
1000
0000
0000
1000
0010
0000
0000
,
0010
0100
0000
0000
0100
0001
0000
0000
0001
0000
0000
1000
0000
0000
0001
0000
,
0100
0000
0001
0000
1000
0001
0000
1000
0001
0000
0000
0100
0000
0000
0001
0000
,
1000
0100
0001
0100
2000
0000
0000
3000
,
0000
0000
0000
0000
0002
0000
0000
0003
,
0000
0000
0000
0000
0200
0000
0000
0300
,
0000
0000
0020
0030
,
0100
0000
0000
0000
0001
0000
0000
0000
1000
0000
0001
0000
0000
0000
0000
0000
1001
0000
0000
0000
0000
0000
0100
0010
0100
0000
0000
0000
0000
0000
0000
0000
,
0000
0000
0000
0000
0020
0000
0000
0030
,
0000
0000
0000
0000
2000
0000
0000
3000
,
0000
0000
0200
0300
,
0002
0000
0000
0000
0003
1000
0100
0010
1000
0100
0010
0001
1000
0100
0010
0001
,
1000
0100
0010
0001
1000
0100
0010
0001
2002
0000
0000
0000
0000
0000
0000
0000
,
0000
0000
0000
0000
,
0000
0000
0000
3003
0010
0100
0001
1000
,
0010
1000
0010
1000
0001
1000
0001
0100
,
1000
0010
0100
0001
1000
0001
1000
0001
,
0100
0010
0100
0010
0100
0001
1000
0001
,
1000
0010
1000
0010
0100
0001
1000
0001
,
0100
0010
0100
0010
1000
0010
1000
0001
,
0100
0001
1000
0010
0100
0001
1000
0001
,
2000
0000
0000
0000
0000
0000
0000
0000
3010
0000
0100
0000
0010
0000
1000
0010
,
0000
0000
0100
0000
0001
0000
0100
0000
0010
0000
1000
0000
0001
0000
1000
0002
,
0000
0000
0000
0003
1000
0000
0100
0000
1000
0000
0000
0010
0000
0000
1000
0000
,
1001
0000
0000
0000
1000
0000
0010
0000
0100
0000
0000
0001
0000
0000
0100
0000
,
1001
0000
0000
0000
0100
0000
0001
0000
1000
0000
0001
0000
1000
0000
0010
1000
,
0000
0000
0100
0000
0001
0000
1000
0000
0001
0000
0100
0000
0001
0000
0100
0010
,
0000
0000
1000
0010
1000
0000
0001
0000
1000
0000
0000
0010
0000
0000
1000
0000
,
2002
0000
0000
0000
3003
0000
0100
0000
1000
0000
0000
0001
0000
0000
1000
0000
,
2002
0000
3003
0000
1000
0010
0100
0001
,
1000
0000
0001
1000
0000
0001
0000
0000
0100
0000
0001
0000
0100
0000
0010
0000
,
1000
0001
1000
0001
0100
0001
1000
0001
,
1000
0000
0010
0000
1000
0000
0010
0000
1000
0000
0001
0000
1000
0000
0000
0100
,
1000
0000
0100
0000
1000
0000
0000
0001
1000
0000
0010
0000
1000
0000
0001
0000
,
0100
0000
0001
1000
0000
0010
0000
0000
0100
0000
0001
0000
1000
0000
0010
0000
,
1000
0001
1000
0001
1000
0010
0100
0001
,
1000
0001
1000
0001
1000
0001
0100
0001
,
1001
0220
0000
0000
,
0000
0000
0000
0330
;

//---------------dance-single - ----------------
#NOTEDATA:;
#CHARTNAME:;
#STEPSTYPE:dance-single;
#DESCRIPTION:;
#CHARTSTYLE:;
#DIFFICULTY:Challenge;
#METER:16;
#RADARVALUES:0.747698,0.841160,0.198369,0.137332,0.694291,642.000000,26.000000,18.000000,0.000000,0.000000,2.000000,0.000000,0.000000,0.747698,0.841160,0.198369,0.137332,0.694291,642.000000,26.000000,18.000000,0.000000,0.000000,2.000000,0.000000,0.000000;
#CREDIT:usaminseijin;
#DISPLAYBPM:90.000000:180.000000;
#NOTES:
// measure 0
0000
0000
0000
0000
,  // measure 1
1001
0000
0000
0000
,  // measure 2
0000
0000
0000
0000
,  // measure 3
0000
0000
0000
0000
,  // measure 4
0000
0000
0000
0000
0000
0000
0000
0000
0000
0000
1000
0000
0001
1000
0000
0000
,  // measure 5
1001
0000
0000
0000
0000
0000
0100
0010
0100
0000
0000
0000
0000
0000
0000
0000
0000
0000
0000
0000
0000
0000
0000
0000
0000
0000
0000
0000
0000
0000
0000
0000
,  // measure 6
0000
0000
0000
0000
,  // measure 7
0000
0000
0000
0000
,  // measure 8
0000
0000
0000
0000
,  // measure 9
1001
0000
1001
0000
1001
0000
1001
0000
1000
0000
0010
0000
0100
0001
0100
0000
,  // measure 10
1000
0000
0001
1000
0000
0001
0000
0000
0100
0000
0001
0000
0100
0000
0010
0000
,  // measure 11
1000
0001
1000
0010
1000
0001
1000
0010
0100
0000
0001
0000
1000
0000
0001
0000
,  // measure 12
1000
0100
1000
0010
1000
0100
1000
0000
1000
0001
1000
0001
1000
0000
0000
0100
,  // measure 13
1000
0100
1000
0100
1000
0000
0000
0001
1000
0000
0010
0000
1000
0001
1000
0000
,  // measure 14
0100
0000
0001
1000
0000
0010
0000
0000
0100
0000
0001
0000
1000
0000
0010
0000
,  // measure 15
1000
0001
1000
0100
1000
0001
1000
0100
1000
0000
0010
0000
0100
0000
0001
0000
,  // measure 16
1000
0010
1000
0100
1000
0010
1000
0100
1000
0010
0100
0010
1000
0010
0100
0010
,  // measure 17
1000
0001
0010
0100
1000
0100
1000
0100
,  // measure 18
1000
0001
1000
0001
0100
0001
0100
0001
,  // measure 19
0010
0001
0000
0000
0010
0000
0001
0000
0100
0000
0001
0000
0100
0000
0001
0000
,  // measure 20
0100
0010
0100
0010
1000
0100
1000
0100
,  // measure 21
1000
0001
1000
0001
0100
0001
0100
0001
,  // measure 22
0100
0010
0100
0010
1000
0010
1000
0010
,  // measure 23
1000
0001
0000
0000
1000
0000
0001
0000
0100
0000
0010
0000
1000
0001
1000
0000
,  // measure 24
1000
0001
1000
0001
0100
0010
0100
0010
1000
0010
1000
0010
0100
0001
0100
0001
,  // measure 25
1000
0100
1000
0100
0010
0001
0010
0001
1000
0000
0001
0000
1000
0000
0001
0000
,  // measure 26
1000
0010
1000
0010
0100
0010
0100
0010
,  // measure 27
1000
0001
0000
0000
1001
0000
0101
0000
0100
0000
0001
0000
0100
0000
0001
0000
,  // measure 28
0100
0010
0100
0010
1000
0010
1000
0010
,  // measure 29
1000
0000
0001
1000
0001
0000
0101
0000
0100
0000
0001
0000
0100
0000
0001
0000
,  // measure 30
0100
0010
0100
0010
0100
0001
0100
0001
,  // measure 31
1000
0001
0000
0000
1001
0000
0001
0000
0100
0000
0010
0000
1000
0001
1000
0000
,  // measure 32
0001
0010
0001
0010
0100
1000
0100
1000
0100
0000
0000
0000
0000
0000
0000
0000
,  // measure 33
4004
0000
0000
0000
0000
0000
0000
0000
0000
0000
0000
0000
0000
0000
0000
3003
0100
0000
0000
0000
0010
0000
0000
0000
1000
0000
0000
0000
0010
0000
0000
0000
,  // measure 34
0100
0000
0100
0001
0000
1000
0001
1000
0100
0000
0010
0000
1000
0000
0010
0000
,  // measure 35
1000
0000
1000
0001
0000
0100
0001
0100
0010
0000
0001
0000
1000
0000
0001
0000
,  // measure 36
0100
0000
0100
0010
0000
1000
0010
1000
0001
0000
0000
0010
0000
0000
1000
0000
,  // measure 37
2002
0000
0000
3003
0100
0001
1000
0001
,  // measure 38
0100
0000
0100
0001
0000
1000
0001
1000
0010
0000
0100
0000
0001
0000
0100
0000
,  // measure 39
1000
0000
1000
0001
0000
0100
0001
0100
0010
0000
1000
0000
0100
0001
0100
0000
,  // measure 40
0100
0010
0100
0010
1000
0001
1000
0001
1000
0010
1000
0010
0100
0001
0100
0001
,  // measure 41
1000
0100
1000
0100
0010
0001
0010
0001
0100
0000
0000
1000
0000
0000
0001
0000
,  // measure 42
0100
0000
0001
0000
1000
0001
0000
1000
0001
0000
0000
0100
0000
0000
0001
0000
,  // measure 43
1000
0000
0100
0000
0001
0000
0100
0000
2001
0000
0100
0000
0001
0000
3100
0001
,  // measure 44
0000
0000
1000
0000
0010
0000
1000
0000
0102
0000
0010
0000
0100
0000
0013
0100
,  // measure 45
0000
0000
0000
0000
0010
0000
0001
0000
0210
0000
0000
0001
0000
0000
1300
0000
,  // measure 46
0001
0000
0000
0000
0000
0000
0001
0000
1020
0000
0000
0100
0030
0000
0001
0000
,  // measure 47
0100
0000
0000
0000
0001
0000
0000
0000
1000
0000
0001
0000
0000
0000
0000
0000
1001
0000
0000
0000
0001
0000
0100
0010
0100
0000
0000
0000
1000
0000
0001
0000
,  // measure 48
0000
0000
0010
0000
0100
0000
0001
0000
1020
0000
0100
0000
1000
0000
0130
0001
,  // measure 49
0000
0000
0000
0000
0100
0000
0001
0000
2100
0000
0000
0010
0000
0000
3001
0000
,  // measure 50
0001
0000
0000
0000
0000
0000
0001
0000
0210
0000
0000
0001
0300
0000
1000
0000
,  // measure 51
0102
0000
0000
0000
0003
1000
0100
0010
1000
0100
0010
0001
1000
0100
0010
0001
,  // measure 52
1000
0100
0010
0001
1000
0100
0010
0001
1000
0000
0000
0000
0010
0000
0000
0000
,  // measure 53
1000
0000
0001
0100
0000
0000
0010
0000
,  // measure 54
0100
0000
0001
0000
0010
0100
0001
1000
,  // measure 55
0100
0001
0100
0010
0100
0001
0100
0010
0100
0000
0010
0000
1000
0000
0010
0000
,  // measure 56
0100
0010
1000
0010
0100
0010
1000
0000
1000
0100
1000
0100
1000
0000
0000
0001
,  // measure 57
0100
0010
0100
0010
0100
0000
0000
0010
0100
0000
0001
0000
1000
0001
1000
0000
,  // measure 58
1000
0000
0010
1000
0000
0010
0000
0000
0100
0000
0001
0000
1000
0000
0001
0000
,  // measure 59
0100
0010
0100
0010
1000
0010
1000
0010
1000
0000
0010
0000
1000
0000
0001
0000
,  // measure 60
0100
0001
0100
0001
1000
0010
1000
0000
0100
0001
0100
0001
1000
0001
1000
0001
,  // measure 61
2000
0000
0000
0000
3010
0100
0010
0100
0010
0000
0100
0000
0010
0000
1000
0010
,  // measure 62
0000
0000
0100
0000
0001
0000
0100
0000
0010
0000
1000
0000
0001
0000
1000
0002
,  // measure 63
0000
0000
0000
0003
1000
0000
0100
0000
1000
0000
0000
0010
0000
0000
1000
0000
,  // measure 64
1001
0000
0000
0000
1000
0000
0010
0000
0100
0000
0000
0001
0000
0000
0100
0000
,  // measure 65
1001
0000
0000
0000
0100
0000
0001
0000
1000
0000
0001
0000
1000
0000
0010
1000
,  // measure 66
0000
0000
0100
0000
0001
0000
1000
0000
0001
0000
0100
0000
0001
0000
0100
0010
,  // measure 67
0000
0000
1000
0010
1000
0001
0100
0001
1000
0000
0000
0010
0000
0000
1000
0000
,  // measure 68
2002
0000
0000
0000
3003
0000
0100
0000
1000
0000
0000
0001
0000
0000
1000
0000
,  // measure 69
2002
0000
0000
0000
3003
0000
0000
0000
1000
0000
0010
0000
0100
0001
0100
0000
,  // measure 70
1000
0000
0001
1000
0000
0001
0000
0000
0100
0000
0001
0000
0100
0000
0010
0000
,  // measure 71
1000
0001
1000
0010
1000
0001
1000
0010
0100
0000
0001
0000
1000
0000
0001
0000
,  // measure 72
1000
0100
1000
0010
1000
0100
1000
0000
1000
0001
1000
0001
1000
0000
0000
0100
,  // measure 73
1000
0100
1000
0100
1000
0000
0000
0001
1000
0000
0010
0000
1000
0001
1000
0000
,  // measure 74
0100
0000
0001
1000
0000
0010
0000
0000
0100
0000
0001
0000
1000
0000
0010
0000
,  // measure 75
1000
0001
1000
0100
1000
0001
1000
0100
1000
0000
0010
0000
0100
0000
0001
0000
,  // measure 76
1000
0010
1000
0100
1000
0010
1000
0100
1000
0010
0100
0010
1000
0010
0100
0010
,  // measure 77
1000
0220
0000
0000
,  // measure 78
0000
0000
0000
0330
;

//---------------dance-single - ----------------
#NOTEDATA:;
#CHARTNAME:;
#STEPSTYPE:dance-single;
#DESCRIPTION:;
#CHARTSTYLE:;
#DIFFICULTY:Medium;
#METER:10;
#RADARVALUES:0.478483,0.456344,0.328071,0.152591,0.087740,376.000000,43.000000,20.000000,0.000000,0.000000,0.000000,0.000000,0.000000,0.478483,0.456344,0.328071,0.152591,0.087740,376.000000,43.000000,20.000000,0.000000,0.000000,0.000000,0.000000,0.000000;
#CREDIT:;
#DISPLAYBPM:90.000000:180.000000;
#NOTES:
0000
0000
0000
0000
,
1001
0000
0000
0000
,
0000
0000
0000
0000
,
0000
0000
0000
0000
,
0000
0000
0000
0000
0000
0000
0000
0000
0000
0000
1000
0000
0001
1000
0000
0000
,
1001
0000
0000
0100
0010
0000
0000
0000
0000
0000
0000
0000
0000
0000
0000
0000
,
0000
0000
0000
0000
,
0000
0000
0000
0000
,
0000
0000
0000
0000
,
1001
1001
1001
1001
1000
0010
1000
0000
,
0001
1000
0001
0000
0100
0001
0100
0000
,
1000
0001
1000
0001
0100
0001
0100
0000
,
1000
0010
1000
0000
0100
0001
0100
0000
,
1000
0100
1000
0001
1000
0010
1000
0000
,
1000
0001
1000
0000
0100
0001
0100
0000
,
1000
0001
0100
0001
1000
0010
0100
0000
,
1000
0001
1000
0000
0100
0010
0100
0000
,
1000
0001
0100
0010
1000
0000
1100
0000
,
1000
1001
0100
0101
,
0010
0001
0000
0000
0010
0000
0001
0000
0100
0000
0000
0000
0101
0000
0000
0000
,
0100
0110
1000
1100
,
1000
0001
1000
0001
0100
0000
0101
0000
,
0100
0110
1000
1010
,
1000
0001
0000
0000
1000
0000
0001
0000
1000
0000
0010
0000
0100
0000
0000
0000
,
0010
0100
0001
0000
1010
0000
0110
0000
,
0101
1001
0100
0110
,
1000
1010
0100
0110
,
1000
0001
0000
0000
1000
0000
0001
0000
0100
0000
0000
0000
0101
0000
0000
0000
,
0100
0110
1000
1010
,
1000
0001
1000
0001
0100
0000
0101
0000
,
0100
0110
0100
0101
,
1000
0001
0000
0000
1000
0000
0001
0000
0100
0000
0010
0000
1000
0000
0000
0000
,
0011
0110
0101
0000
,
2002
0000
0000
3003
0100
0010
1000
0000
,
0100
0001
1000
0001
1000
0010
0100
0000
,
1000
0001
0100
0001
1000
0010
1000
0000
,
0100
0000
0010
0000
1000
0000
0010
0000
1000
0000
0000
0010
0000
0000
1000
0000
,
2002
0000
0000
3003
0100
0001
1000
0000
,
0100
0001
1000
0001
1000
0010
0100
0000
,
1000
0001
0100
0001
1000
0001
1000
0000
,
0110
0101
1001
1010
,
0110
0000
0000
0000
0101
0000
0000
0000
0001
0000
0000
1000
0000
0000
0001
0000
,
0100
0000
0001
0000
1000
0000
0001
0000
0100
0000
0000
0001
0000
0000
0100
0000
,
1000
0100
0001
0100
2000
0000
0000
3000
,
0000
0000
0000
0000
0002
0000
0000
0003
,
0000
0000
0000
0000
0200
0000
0000
0300
,
0000
0000
0020
0030
,
0100
0000
0001
0000
1000
0001
0000
0000
1001
0000
0000
0100
0010
0000
0000
0000
,
0000
0000
0000
0000
0020
0000
0000
0030
,
0000
0000
0000
0000
2000
0000
0000
3000
,
0000
0000
0200
0300
,
0002
0000
0000
0000
0003
0000
0000
0000
1000
0100
1000
0100
0010
0001
0010
0001
,
1000
0010
1000
0010
0100
0001
0100
0001
2002
0000
0000
0000
0000
0000
0000
0000
,
0000
0000
0000
0000
,
0000
0000
0000
3003
0010
0100
0001
0000
,
0010
1000
0010
1000
0001
1000
0001
0000
,
1000
0010
0100
0000
1000
0001
1000
0000
,
0100
0010
0100
0000
0100
0001
1000
0000
,
1000
0010
1000
0000
0100
0001
1000
0000
,
0100
0010
0100
0010
1000
0010
1000
0000
,
0100
0001
1000
0010
0100
0001
1000
0001
,
2000
0000
0000
0000
3010
0100
0010
1000
,
0000
0100
0001
0100
0010
1000
0001
0200
,
0000
0000
0300
0000
1000
0000
0100
0000
1000
0000
0000
0010
0000
0000
1000
0000
,
0001
0000
0000
0000
1000
0000
0010
0000
0100
0000
0000
0001
0000
0000
1000
0000
,
0001
0000
0100
0001
1000
0001
1000
0010
,
0000
0100
0001
1000
0001
0100
0001
0100
,
0000
0000
1000
0000
0010
0000
1000
0000
0001
0000
0000
0010
0000
0000
1000
0000
,
0002
0000
0000
0000
0003
0000
0100
0000
1000
0000
0000
0001
0000
0000
1000
0000
,
0002
0000
0003
0000
1000
0010
1000
0000
,
0001
1000
0001
0000
0100
0001
0100
0000
,
1000
0001
1000
0001
0100
0001
0100
0000
,
1000
0010
1000
0000
0100
0001
0100
0000
,
1000
0100
1000
0001
1000
0010
1000
0000
,
1000
0001
1000
0000
0100
0001
0100
0000
,
1000
0001
0100
0001
1000
0010
0100
0000
,
1000
0001
1000
0000
0100
0010
0100
0000
,
1001
0220
0000
0000
,
0000
0000
0000
0000
,
0000
0000
0000
0330
;

//---------------dance-single - ----------------
#NOTEDATA:;
#CHARTNAME:;
#STEPSTYPE:dance-single;
#DESCRIPTION:;
#CHARTSTYLE:;
#DIFFICULTY:Easy;
#METER:7;
#RADARVALUES:0.405457,0.395498,0.564588,0.083925,0.007630,287.000000,74.000000,11.000000,0.000000,0.000000,0.000000,0.000000,0.000000,0.405457,0.395498,0.564588,0.083925,0.007630,287.000000,74.000000,11.000000,0.000000,0.000000,0.000000,0.000000,0.000000;
#CREDIT:;
#DISPLAYBPM:90.000000:180.000000;
#NOTES:
0000
0000
0000
0000
,
1001
0000
0000
0000
,
0000
0000
0000
0000
,
0000
0000
0000
0000
,
0000
0000
0000
0000
0000
1000
0001
0000
,
1001
0000
0000
0100
0000
0000
0000
0000
0000
0000
0000
0000
0000
0000
0000
0000
,
0000
0000
0000
0000
,
0000
0000
0000
0000
,
0000
0000
0000
0000
,
1000
0001
1000
0001
1000
0000
1001
0000
,
0001
1001
0100
0110
,
1000
1001
0100
0110
,
1000
0000
1001
0000
0100
0001
0100
0000
,
1000
0100
1000
0000
0100
0000
0110
0000
,
1000
1001
0100
0110
,
0001
1000
0001
0000
1000
0000
0110
0000
,
1000
0000
1001
0000
0100
0010
0100
0000
,
1000
0001
1000
0000
1000
0000
1100
0000
,
1000
1001
0100
0101
,
0010
0000
0010
0001
0100
0000
0101
0000
,
0100
0110
1000
1100
,
1000
0001
1000
0001
0100
0000
0101
0000
,
0100
0110
1000
1010
,
1000
0000
1000
0001
1000
0000
0100
0000
,
0010
0001
1000
0100
,
0001
1001
0100
0110
,
1000
1010
0100
0110
,
1000
0000
1000
0001
0100
0000
0101
0000
,
0100
0110
1000
1010
,
1000
1001
0100
0101
,
0100
0110
0100
0101
,
1000
0000
1000
0001
0100
0000
1000
0000
,
0010
0100
0001
0000
,
1001
0000
0000
0000
0100
0010
0100
0000
,
0100
0000
1001
0000
1000
0010
1000
0000
,
1000
0000
0101
0000
1000
0010
1000
0000
,
0100
0000
1010
0000
0100
0010
0100
0000
,
1001
0000
0000
0000
0100
0001
0100
0000
,
0100
0000
1001
0000
1000
0010
1000
0000
,
1000
0000
1001
0000
1000
0001
1000
0000
,
0100
0101
1000
0010
,
0100
0001
0001
1000
,
0100
0001
0100
0000
0010
0000
1001
0000
,
1001
0000
1001
0000
2000
0000
0000
3000
,
0000
0000
0000
0000
0002
0000
0000
0003
,
0000
0000
0000
0000
0200
0000
0000
0300
,
0000
0000
0020
0030
,
0100
0000
0001
0000
1000
0000
0000
0000
1000
0000
0000
0100
0000
0000
0000
0000
,
0000
0000
0000
0000
0020
0000
0000
0030
,
0000
0000
0000
0000
2000
0000
0000
3000
,
0000
0000
0200
0300
,
0002
0003
1000
0100
,
0010
0001
1001
0000
,
0000
0000
0000
0000
,
0000
0000
0010
0101
,
0010
1010
0001
1001
,
1000
0000
1010
0000
1000
0001
1000
0000
,
0100
0010
0100
0000
0100
0000
1001
0000
,
1000
1010
0100
1010
,
0100
0110
1000
1001
,
0100
0000
1001
0000
0100
0001
0100
0000
,
0002
0000
0003
0000
0010
0100
0010
0000
,
0100
0000
0101
0000
0010
1000
0010
0000
,
0100
0000
1100
0000
1000
0010
1000
0000
,
1000
0000
1010
0000
0100
0001
0100
0000
,
1000
0010
1000
0000
1000
0001
1000
0000
,
0010
0000
0101
0000
0001
0100
0001
0000
,
1000
0000
1010
0000
0001
0010
0001
0000
,
1000
0000
1001
0000
0001
1000
0001
0000
,
0001
1001
1000
1001
,
0001
1001
0100
0110
,
1000
1001
0100
0110
,
1000
0000
1001
0000
0100
0001
0100
0000
,
1000
0100
1000
0000
0100
0000
0110
0000
,
1000
1001
0100
0110
,
0001
1000
0001
0000
1000
0000
0110
0000
,
1000
0001
1000
0000
0100
0010
0100
0000
,
1001
0220
0000
0000
,
0000
0000
0000
0000
,
0000
0000
0000
0330
;

//---------------dance-single - ----------------
#NOTEDATA:;
#CHARTNAME:;
#STEPSTYPE:dance-single;
#DESCRIPTION:;
#CHARTSTYLE:;
#DIFFICULTY:Beginner;
#METER:4;
#RADARVALUES:0.271395,0.235754,0.045777,0.000000,0.000000,243.000000,6.000000,0.000000,0.000000,0.000000,0.000000,0.000000,0.000000,0.271395,0.235754,0.045777,0.000000,0.000000,243.000000,6.000000,0.000000,0.000000,0.000000,0.000000,0.000000,0.000000;
#CREDIT:;
#DISPLAYBPM:90.000000:180.000000;
#NOTES:
0000
0000
0000
0000
,
1001
0000
0000
0000
,
0000
0000
0000
0000
,
0000
0000
0000
0000
,
0000
0000
0000
0000
,
1001
0000
0000
0000
,
0000
0000
0000
0000
,
0000
0000
0000
0000
,
0000
0000
0000
0000
,
1001
1001
1000
1000
,
0001
0001
0100
0100
,
0010
0010
0100
0010
,
1000
0001
0100
0001
,
1000
0001
0100
0100
,
1000
1000
0010
0010
,
0001
0001
1000
0010
,
1000
0001
0100
0100
,
1000
0001
1000
0100
,
1000
0001
0100
0001
,
0010
0001
0100
0001
,
0100
0010
1000
0100
,
1000
0001
0100
0001
,
0100
0010
1000
0010
,
1000
0001
1000
0100
,
0010
0001
1000
0100
,
0010
0001
0100
0010
,
1000
0010
0100
0010
,
1000
0001
0100
0001
,
0100
0010
1000
0010
,
1000
0001
0100
0001
,
0100
0010
0100
0001
,
1000
0001
0100
1000
,
0010
0100
0001
0000
,
1001
0000
0100
0010
,
0100
0001
1000
0010
,
1000
0001
1000
0010
,
0100
1000
0100
0010
,
0001
0000
0100
0001
,
0100
1000
1000
0010
,
1000
0001
1000
0001
,
0100
0001
1000
0010
,
0100
0001
0001
1000
,
0100
0001
0010
0001
,
1000
0001
1000
0000
,
0000
0000
0001
0000
,
0000
0000
0100
0000
,
0000
0000
0010
0000
,
0100
0000
1000
0000
,
0000
0000
0010
0000
,
0000
0000
1000
0000
,
0000
0000
0100
0000
,
0001
0000
1000
0100
,
0010
0001
1001
0000
,
0000
0000
0000
0000
,
0000
0000
0010
0100
,
0010
1000
0001
1000
,
1000
0010
1000
0001
,
0100
0010
0100
0001
,
1000
0010
0100
1000
,
0100
0010
1000
0001
,
0100
0001
0100
1000
,
0001
0000
0010
0010
,
0100
0001
0010
1000
,
0100
1000
1000
0010
,
1000
0010
0100
0001
,
1000
0010
1000
0001
,
0010
0001
0001
0100
,
1000
0010
0001
0010
,
1000
0001
1000
0001
,
0010
0001
1000
1000
,
0001
0001
0100
0100
,
0010
0010
0100
0010
,
1000
0001
0100
0001
,
1000
0001
0100
0100
,
1000
1000
0010
0010
,
0001
0001
1000
0010
,
1000
0001
0100
0100
,
1000
0010
0000
0000
;
