#VERSION:0.82;
#TITLE:사탕요정과 갈대피리의 춤;
#SUBTITLE:(Classic Remake);
#ARTIST:SHK;
#TITLETRANSLIT:Satang-yojeong-gwa Galdaepirieui Chum;
#SUBTITLETRANSLIT:;
#ARTISTTRANSLIT:;
#GENRE:Classical;
#ORIGIN:;
#CREDIT:;
#BANNER:Satang-yojeong-gwa Galdaepirieui Chum.png;
#BACKGROUND:Satang-yojeong-gwa Galdaepirieui Chum-bg.png;
#PREVIEWVID:;
#JACKET:Satang-yojeong-gwa Galdaepirieui Chum-jacket.png;
#CDIMAGE:;
#DISCIMAGE:;
#LYRICSPATH:;
#CDTITLE:cdtitle.png;
#MUSIC:Satang-yojeong-gwa Galdaepirieui Chum.ogg;
#OFFSET:0.000000;
#SAMPLESTART:8.000000;
#SAMPLELENGTH:15.980000;
#SELECTABLE:YES;
#BPMS:0.000=120.000;
#STOPS:;
#DELAYS:;
#WARPS:;
#TIMESIGNATURES:0.000=4=4;
#TICKCOUNTS:0.000=4;
#COMBOS:0.000=1;
#SPEEDS:0.000=1.000=0.000=0;
#SCROLLS:0.000=1.000;
#FAKES:;
#LABELS:0.000=Song Start;
#BGCHANGES:;
#KEYSOUNDS:;
#ATTACKS:
;

//---------------dance-single - ----------------
#NOTEDATA:;
#CHARTNAME:;
#STEPSTYPE:dance-single;
#DESCRIPTION:;
#CHARTSTYLE:;
#DIFFICULTY:Hard;
#METER:11;
#RADARVALUES:0.546368,0.514473,0.722067,0.126957,0.126957,375.000000,91.000000,16.000000,0.000000,0.000000,0.000000,0.000000,0.000000,0.546368,0.514473,0.722067,0.126957,0.126957,375.000000,91.000000,16.000000,0.000000,0.000000,0.000000,0.000000,0.000000;
#CREDIT:usaminseijin;
#NOTES:
0000
0000
0000
0000
,
0000
0000
0000
0000
,
0000
0000
0000
0000
,
0000
0000
0000
0000
,
0000
0000
1000
0001
1000
0000
0010
0000
,
0100
0000
0001
0000
1010
1010
1010
0000
,
1001
1001
1001
0000
0101
0101
0101
0000
,
1000
0000
0001
0000
0100
0000
0001
0000
0010
0000
0000
0000
1000
0100
1000
0100
,
1000
0000
0001
1000
0001
0000
0100
0000
,
0010
0000
1000
0000
1100
1100
1100
0000
,
0110
0110
0110
0000
0011
0011
0011
0000
,
1000
0000
0001
0000
1000
0000
0100
0000
1000
0000
0000
0000
0001
0010
0001
0010
,
0001
0000
0100
0010
0100
0000
0001
0000
,
1000
0000
0010
0000
1010
1010
1010
0000
,
0110
0110
0110
0000
0101
0101
0101
0000
,
0100
0000
0001
0000
0010
0000
0001
0000
0100
0000
0000
0000
0010
1000
0010
1000
,
0010
0000
0000
0000
0100
0000
0001
0000
0100
0000
0000
0000
0001
1000
0001
1000
,
0001
0000
0000
0000
0010
0000
1000
0000
0010
0000
0000
0000
1000
0001
1000
0001
,
1000
0000
0000
0000
0100
0000
0010
0000
0100
0000
0000
0000
0001
1000
0001
1000
,
0001
0000
0000
0000
1000
0010
1000
0010
1000
0000
0000
0000
0110
0000
0110
0000
,
1000
0001
0100
0010
,
1000
0010
0100
0001
,
1000
0100
1000
0100
1010
0000
1100
0000
,
1001
0000
0000
0000
0100
0001
0100
0001
0200
0000
0000
0000
0000
0000
0300
0000
,
0001
0100
0001
0100
0010
1000
0100
1000
,
0002
0000
0000
0000
0003
0000
0000
1000
0200
0000
0000
0000
0000
0000
0300
0000
,
1001
0100
1000
0100
1001
0000
1100
0000
,
1001
0010
0001
0010
1001
0000
0011
0000
,
1001
0010
1000
0010
1001
0100
1000
0100
,
1001
0000
0010
0000
0001
0000
0100
0000
1001
0000
0000
0000
0100
0001
0100
0001
,
0010
1000
0010
1000
1001
0000
1010
0000
,
1001
0000
0000
0000
0100
0001
0100
0001
0200
0000
0000
0000
0000
0000
0300
0000
,
0010
1000
0010
1000
0001
0100
0010
1000
,
0002
0000
0000
0000
0003
0000
0000
0100
0020
0000
0000
0000
0000
0000
0030
0000
,
0110
1000
0010
1000
0110
0000
1010
0000
,
0101
0001
0100
0001
0101
0000
0011
0000
,
1001
0100
0001
0010
0001
0100
0001
0010
,
1001
0100
0010
0100
1001
0010
0100
0010
,
1010
0100
0010
0100
0101
0010
0001
0010
,
0110
1000
0001
1000
0110
0001
1000
0001
,
0101
0001
0100
0001
1010
1000
0010
1000
,
1100
0100
1000
0100
0101
0001
0100
0001
,
1001
1000
0001
1000
1001
0001
1000
0001
,
1010
1000
0010
1000
0101
0100
0001
0100
,
1000
0100
0010
0001
1000
0010
0100
0001
,
1000
0001
0100
0010
1000
0010
0100
0001
,
1000
0100
1000
0100
1010
0000
1100
0000
,
1001
0000
0000
0000
0100
0001
0100
0001
0200
0000
0000
0000
0000
0000
0300
0000
,
0001
0100
0001
0100
0010
1000
0100
1000
,
0002
0000
0000
0000
0003
0000
0000
1000
0200
0000
0000
0000
0000
0000
0300
0000
,
1001
0100
1000
0100
1001
0000
1100
0000
,
1001
0010
0001
0010
1001
0000
0011
0000
,
1001
0010
1000
0010
1001
0100
1000
0100
,
1001
0000
0010
0000
0001
0000
0100
0000
1001
0000
0000
0000
0100
0001
0100
0001
,
0010
1000
0010
1000
1001
0000
1010
0000
,
1001
0000
0000
0000
0100
0001
0100
0001
0200
0000
0000
0000
0000
0000
0300
0000
,
0010
1000
0010
1000
0001
0100
0010
1000
,
0002
0000
0000
0000
0003
0000
0000
0100
0020
0000
0000
0000
0000
0000
0030
0000
,
0110
1000
0010
1000
0110
0000
1010
0000
,
0101
0001
0100
0001
0101
0000
0011
0000
,
1001
0000
0000
0000
0010
1000
0010
1000
0000
0000
0000
0000
0220
0000
0000
0000
,
0330
2002
0000
3003
;

//---------------dance-single - ----------------
#NOTEDATA:;
#CHARTNAME:;
#STEPSTYPE:dance-single;
#DESCRIPTION:;
#CHARTSTYLE:;
#DIFFICULTY:Medium;
#METER:7;
#RADARVALUES:0.431880,0.416478,0.031739,0.015870,0.126957,375.000000,4.000000,2.000000,0.000000,0.000000,0.000000,0.000000,0.000000,0.431880,0.416478,0.031739,0.015870,0.126957,375.000000,4.000000,2.000000,0.000000,0.000000,0.000000,0.000000,0.000000;
#CREDIT:;
#NOTES:
0000
0000
0000
0000
,
0000
0000
0000
0000
,
0000
0000
0000
0000
,
0000
0000
0000
0000
,
0000
0000
1000
0001
1000
0000
0010
0000
,
0100
0000
0001
0000
1000
1000
1000
0000
,
0001
0001
0001
0000
0100
0100
0100
0000
,
1000
0000
0001
0000
0100
0000
0001
0000
0010
0000
0000
0000
1000
0100
1000
0100
,
1000
0000
0001
1000
0001
0000
0100
0000
,
0010
0000
1000
0000
1000
1000
1000
0000
,
0010
0010
0010
0000
0001
0001
0001
0000
,
1000
0000
0001
0000
1000
0000
0100
0000
1000
0000
0000
0000
0001
0010
0001
0010
,
0001
0000
0100
0010
0100
0000
0001
0000
,
1000
0000
0010
0000
1000
0100
1000
0000
,
0100
0010
0100
0000
0001
0100
0001
0000
,
0100
0000
0001
0000
0010
0000
0001
0000
0100
0000
0000
0000
0010
1000
0010
1000
,
0010
0000
0000
0000
0100
0000
0001
0000
0100
0000
0000
0000
0001
1000
0001
1000
,
0001
0000
0000
0000
0010
0000
1000
0000
0010
0000
0000
0000
1000
0001
1000
0001
,
1000
0000
0000
0000
0100
0000
0010
0000
0100
0000
0000
0000
0001
1000
0001
1000
,
0001
0000
0000
0000
1000
0010
1000
0010
1000
0000
0000
0000
0100
0000
0100
0000
,
1000
0001
0100
0010
,
1000
0010
0100
0001
,
1000
0100
1000
0100
0010
0000
0001
0000
,
1000
0000
0000
0000
0100
0001
0100
0001
0100
0000
0000
0000
0000
0000
0000
0000
,
0001
0100
0001
0100
0010
1000
0100
1000
,
0001
0000
0000
0000
0000
0000
0000
1000
0100
0000
0000
0000
0000
0000
0000
0000
,
1000
0100
1000
0100
0010
0000
0001
0000
,
0001
0010
0001
0010
0100
0000
1000
0000
,
1000
0010
1000
0010
1000
0100
1000
0100
,
1000
0000
0010
0000
0100
0000
0001
0000
1000
0000
0000
0000
0100
0001
0100
0001
,
0010
1000
0010
1000
0001
0000
1000
0000
,
0001
0000
0000
0000
0100
0001
0100
0001
0100
0000
0000
0000
0000
0000
0000
0000
,
0010
1000
0010
1000
0001
0100
0010
1000
,
0001
0000
0000
0000
0000
0000
0000
0100
0010
0000
0000
0000
0000
0000
0000
0000
,
0100
1000
0010
1000
0100
0000
0010
0000
,
0100
0001
0010
0001
0100
0000
0010
0000
,
0001
0100
0001
0010
0001
0100
0001
0010
,
0001
0100
0010
0100
1000
0010
0100
0010
,
1000
0100
0010
0100
0001
0010
0001
0010
,
0100
1000
0001
1000
0100
0001
1000
0001
,
0100
0010
0100
0001
0010
1000
0100
1000
,
0010
0100
1000
0100
0010
0001
0100
0001
,
0010
1000
0001
1000
0100
0001
1000
0001
,
0100
1000
0010
1000
0001
0100
0001
0100
,
1000
0100
0010
0001
1000
0010
0100
0001
,
1000
0001
0100
0010
1000
0010
0100
0001
,
1000
0100
1000
0100
0010
0000
0100
0000
,
1001
0000
0000
0000
0100
0001
0100
0001
0100
0000
0000
0000
0000
0000
0000
0000
,
0001
0100
0001
0100
0010
1000
0100
1000
,
0001
0000
0000
0000
0000
0000
0000
1000
0100
0000
0000
0000
0000
0000
0000
0000
,
1000
0100
0010
0100
1000
0000
0100
0000
,
0001
0010
0100
0010
0001
0000
0010
0000
,
1000
0010
0100
0010
1000
0100
0010
0100
,
1000
0000
0010
0000
0001
0000
0100
0000
0001
0000
0000
0000
0100
0001
0100
0001
,
0010
1000
0010
1000
0001
0000
1000
0000
,
0001
0000
0000
0000
0100
0001
0100
0001
0100
0000
0000
0000
0000
0000
0000
0000
,
0010
1000
0010
1000
0001
0100
0010
1000
,
0001
0000
0000
0000
0000
0000
0000
0100
0010
0000
0000
0000
0000
0000
0000
0000
,
0100
1000
0010
1000
0100
0000
0010
0000
,
0100
0001
0010
0001
0100
0000
0001
0000
,
1001
0000
0000
0000
0010
1000
0010
1000
0000
0000
0000
0000
0110
0000
0000
0000
,
0000
2002
0000
3003
;

//---------------dance-single - ----------------
#NOTEDATA:;
#CHARTNAME:;
#STEPSTYPE:dance-single;
#DESCRIPTION:;
#CHARTSTYLE:;
#DIFFICULTY:Easy;
#METER:3;
#RADARVALUES:0.264116,0.269486,0.007935,0.015870,0.000000,230.000000,1.000000,2.000000,0.000000,0.000000,0.000000,0.000000,0.000000,0.264116,0.269486,0.007935,0.015870,0.000000,230.000000,1.000000,2.000000,0.000000,0.000000,0.000000,0.000000,0.000000;
#CREDIT:;
#NOTES:
0000
0000
0000
0000
,
0000
0000
0000
0000
,
0000
0000
0000
0000
,
0000
0000
0000
0000
,
0000
1000
1000
0010
,
0100
0001
1000
1000
,
0001
0001
0100
0100
,
1000
0000
0100
0000
0010
0000
1000
0100
,
1000
0001
0001
0100
,
0010
1000
1000
1000
,
0010
0010
0001
0001
,
1000
0000
0001
0000
1000
0000
0001
0010
,
0001
0100
0100
0001
,
1000
0010
1000
1000
,
0100
0100
0001
0001
,
0100
0000
0001
0000
0100
0000
0010
1000
,
0010
0000
0100
0000
0100
0000
0001
1000
,
0001
0000
0010
0000
0010
0000
1000
0001
,
1000
0000
0100
0000
0100
0000
0001
1000
,
0001
0000
1000
0010
1000
0000
0100
0100
,
1000
0001
0100
0010
,
1000
0010
0100
0001
,
1000
0100
0010
0001
,
1000
0000
0100
0001
0100
0000
0000
0000
,
0001
0100
0010
1000
,
0001
0000
0100
0000
,
1000
0100
0010
0001
,
0001
0010
0100
1000
,
1000
0010
1000
0100
,
1000
0000
0100
0000
0001
0000
0100
0001
,
0010
1000
0001
1000
,
0001
0000
0100
0001
0100
0000
0000
0000
,
0010
1000
0001
0100
,
0001
0000
0010
0000
,
0100
1000
0100
0010
,
0100
0001
0100
0010
,
0001
0010
0001
0100
,
0001
0010
1000
0100
,
1000
0010
0001
0010
,
0100
0001
0100
1000
,
0100
0001
0010
0100
,
0010
1000
0010
0100
,
0010
0001
0100
1000
,
0100
0010
0001
0010
,
1000
0001
1000
0100
,
1000
0010
1000
0100
,
1000
0100
0010
0100
,
0001
0000
0100
0001
0100
0000
0000
0000
,
0001
0100
0010
1000
,
0001
0000
0100
0000
,
1000
0010
1000
0100
,
0001
0100
0001
0010
,
1000
0100
1000
0010
,
1000
0000
0001
0000
0100
0000
0100
0001
,
0010
1000
0001
1000
,
0001
0000
0100
0001
0100
0000
0000
0000
,
0010
1000
0001
0010
,
0001
0000
0010
0000
,
0100
1000
0100
0010
,
0100
0001
0100
0001
,
1000
0000
0010
1000
0000
0000
0100
0000
,
0000
2002
0000
3003
;

//---------------dance-single - ----------------
#NOTEDATA:;
#CHARTNAME:;
#STEPSTYPE:dance-single;
#DESCRIPTION:;
#CHARTSTYLE:;
#DIFFICULTY:Beginner;
#METER:1;
#RADARVALUES:0.142827,0.121502,0.007935,0.000000,0.000000,125.000000,1.000000,0.000000,0.000000,0.000000,0.000000,0.000000,0.000000,0.142827,0.121502,0.007935,0.000000,0.000000,125.000000,1.000000,0.000000,0.000000,0.000000,0.000000,0.000000,0.000000;
#CREDIT:;
#NOTES:
// measure 0
0000
0000
0000
0000
,  // measure 1
0000
0000
0000
0000
,  // measure 2
0000
0000
0000
0000
,  // measure 3
0000
0000
0000
0000
,  // measure 4
0000
1000
1000
0000
,  // measure 5
0100
0100
1000
0000
,  // measure 6
0001
0000
0100
0000
,  // measure 7
1000
1000
0000
0000
,  // measure 8
0000
0001
0001
0000
,  // measure 9
0100
0100
1000
0000
,  // measure 10
0010
0000
0001
0000
,  // measure 11
1000
1000
0000
0000
,  // measure 12
0000
0100
0100
0000
,  // measure 13
0010
0010
1000
0000
,  // measure 14
0100
0000
0001
0000
,  // measure 15
0100
0100
0000
0000
,  // measure 16
0000
0100
0100
0000
,  // measure 17
0000
0010
0010
0000
,  // measure 18
0000
0100
0100
0000
,  // measure 19
0000
1000
1000
0000
,  // measure 20
1000
0000
0100
0000
,  // measure 21
0001
0000
0100
0000
,  // measure 22
1000
0000
1000
0000
,  // measure 23
1000
0100
0100
0000
,  // measure 24
0001
0000
0001
0000
,  // measure 25
0100
0000
0100
0000
,  // measure 26
1000
1000
0000
0000
,  // measure 27
0001
0001
0000
0000
,  // measure 28
0010
0010
0000
0000
,  // measure 29
0100
0100
0001
0000
,  // measure 30
1000
0000
1000
0000
,  // measure 31
0100
0100
0001
0000
,  // measure 32
0010
0000
0010
0000
,  // measure 33
0001
0000
0001
0000
,  // measure 34
0100
0100
0000
0000
,  // measure 35
0001
0001
0000
0000
,  // measure 36
0010
0010
0000
0000
,  // measure 37
0001
0000
0001
0000
,  // measure 38
0010
0000
0010
0000
,  // measure 39
0100
0000
0100
0000
,  // measure 40
0001
0000
0001
0000
,  // measure 41
1000
0000
1000
0000
,  // measure 42
0010
0000
0010
0000
,  // measure 43
0100
0000
0100
0000
,  // measure 44
1000
0000
1000
0000
,  // measure 45
1000
1000
0100
0000
,  // measure 46
1000
0000
1000
0000
,  // measure 47
0100
0100
0010
0000
,  // measure 48
0001
0000
0001
0000
,  // measure 49
0100
0000
0100
0000
,  // measure 50
1000
1000
0000
0000
,  // measure 51
0001
0001
0000
0000
,  // measure 52
0100
0100
0000
0000
,  // measure 53
1000
1000
0100
0000
,  // measure 54
0010
0000
0010
0000
,  // measure 55
0001
0001
0100
0000
,  // measure 56
1000
0000
1000
0000
,  // measure 57
0001
0000
0001
0000
,  // measure 58
0100
0100
0000
0000
,  // measure 59
0001
0001
0000
0000
,  // measure 60
1000
0000
0010
0000
,  // measure 61
0000
1001
0000
0000
;
