#VERSION:0.82;
#TITLE:三月十五日、快晴。;
#SUBTITLE:;
#ARTIST:Caspi Cruz;
#TITLETRANSLIT:Sangatsu Jugonichi, Kaisei.;
#SUBTITLETRANSLIT:;
#ARTISTTRANSLIT:;
#GENRE:Japanese Punk;
#ORIGIN:;
#CREDIT:;
#BANNER:Sangatsu Jugonichi, Kaisei.png;
#BACKGROUND:Sangatsu Jugonichi, Kaisei-bg.png;
#PREVIEWVID:;
#JACKET:Sangatsu Jugonichi, Kaisei-jacket.png;
#CDIMAGE:;
#DISCIMAGE:;
#LYRICSPATH:Sangatsu Jugonichi, Kaisei.lrc;
#CDTITLE:cdtitle.png;
#MUSIC:Sangatsu Jugonichi, Kaisei.ogg;
#OFFSET:-0.587000;
#SAMPLESTART:58.977001;
#SAMPLELENGTH:18.035999;
#SELECTABLE:YES;
#DISPLAYBPM:216.000000;
#BPMS:0.000=216.000,
325.000=197.486,
326.000=216.000;
#STOPS:64.000=0.584,
206.000=0.584,
324.000=0.646;
#DELAYS:;
#WARPS:;
#TIMESIGNATURES:0.000=4=4;
#TICKCOUNTS:0.000=4;
#COMBOS:0.000=1;
#SPEEDS:0.000=1.000=0.000=0;
#SCROLLS:0.000=1.000;
#FAKES:;
#LABELS:0.000=Song Start;
#BGCHANGES:;
#KEYSOUNDS:;
#ATTACKS:
;

//---------------dance-single - ----------------
#NOTEDATA:;
#CHARTNAME:;
#STEPSTYPE:dance-single;
#DESCRIPTION:;
#CHARTSTYLE:;
#DIFFICULTY:Hard;
#METER:11;
#RADARVALUES:0.582292,0.780757,0.083015,0.049809,0.008302,475.000000,10.000000,6.000000,0.000000,0.000000,0.000000,0.000000,0.000000,0.582292,0.780757,0.083015,0.049809,0.008302,475.000000,10.000000,6.000000,0.000000,0.000000,0.000000,0.000000,0.000000;
#CREDIT:usaminseijin;
#DISPLAYBPM:216.000000;
#NOTES:
0000
0000
0000
0000
,
0000
0000
0000
0000
,
0000
0000
0000
0000
,
0000
0000
0000
0000
,
0000
0000
0000
0000
,
0000
0000
0000
0000
,
0000
0000
0000
0000
,
0000
0000
0000
0000
,
0000
0000
0000
0000
,
0000
0000
0000
0000
,
0000
0000
0000
0000
,
0000
0000
0000
0000
,
0000
0000
0000
0000
,
0000
0000
0000
0000
,
0000
0000
0000
0000
,
1000
1000
0001
0001
,
2002
3003
0110
0000
1000
0000
0001
0000
,
0100
0010
0100
0000
1000
0001
1000
0000
,
0010
0100
0010
0000
1000
0000
0010
0000
,
0100
0001
0100
0000
0010
1000
0010
0000
,
0100
0001
0100
0000
0010
0000
0100
0000
,
0001
1000
0001
0000
0010
0100
0010
0000
,
1000
0001
1000
0000
0001
0000
0010
0000
,
1000
0100
1000
0000
0001
0010
0001
0000
,
1000
0100
1000
0000
1000
0000
0100
0000
,
0010
0001
0100
0000
0010
1000
0100
0000
,
1000
0001
1000
0000
0010
0000
0001
0000
,
0100
1000
0010
0000
0100
0001
0010
0000
,
0001
1000
0001
0000
1000
0000
0001
0000
,
0010
1000
0100
0000
0010
0000
0100
0000
,
0001
0010
1000
0000
0001
0000
1000
0000
,
0001
0100
1000
0000
1000
0100
1000
0001
,
0100
0010
0100
0001
1000
0000
0100
0000
,
0001
0000
0100
0000
1000
0000
1000
0010
,
0000
0100
0001
0000
0100
0000
0001
0000
,
0100
0000
1000
0000
0001
0000
0100
0010
,
0000
1000
0001
0000
1000
0000
0010
0000
,
0001
0000
0010
0000
1000
0000
1000
0010
,
0000
0100
0001
0000
0001
0000
0010
0000
,
1000
0000
0010
0000
0001
0000
0010
0001
,
0000
1000
0100
0000
0010
0000
0100
0000
,
0001
0000
1000
0000
0010
0000
0100
0001
,
0000
0010
1000
0000
1000
0000
0001
0000
,
0100
0000
0010
0000
1000
0000
0100
0001
,
0000
0010
1000
0000
1001
0000
0010
0000
,
1000
0001
1000
0000
0010
0100
0010
0000
,
0001
1000
0001
0000
0010
0000
1000
0000
,
0010
0100
0010
0000
0100
0001
0100
0000
,
0010
0100
0010
0000
1000
0001
1000
0001
,
1000
0001
1000
0001
0100
0010
0100
0010
,
0100
0010
0100
0010
1001
0000
1000
0010
,
0100
0001
1000
0001
2002
3003
0110
0000
,
1000
0000
0001
0000
1000
0100
0001
0000
,
1000
0010
0001
0000
1000
0100
0001
0000
,
0001
0000
1000
0000
0001
0010
1000
0000
,
0001
0100
1000
0000
0001
0010
1000
0000
,
0010
0000
0100
0000
0010
0001
0100
0000
,
0010
1000
0100
0000
0010
0001
0100
0000
,
0100
0000
0010
0000
0100
1000
0010
0000
,
0100
0001
0010
0000
0100
1000
0010
0000
,
1000
0000
0001
0100
0000
0010
0100
0000
,
0010
1000
0010
0100
0000
0001
0100
0000
,
1000
0000
0010
0100
0000
0010
1000
0000
,
0100
0010
0100
0001
0000
0100
0010
0000
,
1000
0000
0001
0000
1000
0100
0001
0000
,
1000
0100
0001
0000
1000
0100
0001
0000
,
0001
0000
1000
0000
0001
0100
1000
0000
,
0001
0100
1000
0100
0001
1000
0001
1000
,
0001
0000
1000
0000
0001
0100
1000
0000
,
0001
0010
1000
0000
0001
0100
1000
0000
,
1000
0000
0001
0000
1000
0010
0001
0000
,
1000
0100
0001
0000
1000
0010
0001
0000
,
0100
0000
0010
0000
0100
0001
0010
0000
,
0100
1000
0010
0000
0100
0001
0010
0000
,
0010
0000
0100
0000
0010
0001
0100
0000
,
0010
1000
0100
0000
0010
0001
0100
0000
,
1000
0000
0001
0100
0000
0010
1000
0000
,
0001
1000
0001
0100
0000
0010
0100
0000
,
1000
0000
0010
0100
0000
0100
0001
0000
,
1000
0010
1000
0100
0000
0010
0001
0000
,
1000
0000
1001
0000
0100
0010
0100
0000
,
1001
0000
1001
0000
1000
0010
1000
0001
,
0000
1000
0000
0010
0100
0010
1000
0001
,
0000
1000
0010
1000
0010
0100
0010
1000
,
0000
0001
0000
0100
0010
1000
0010
0100
,
0000
0001
1000
0010
1000
0001
1000
0100
,
0000
0010
0000
0100
0001
0100
0010
1000
,
0000
0000
0000
0010
0000
0000
0001
0000
0000
0100
0000
0000
0010
0000
0000
0000
0000
0000
1000
0000
0010
0000
1000
0000
,
0010
0000
0100
0001
0000
1000
0010
0100
,
0010
0001
0010
0100
0010
1000
0010
0100
,
0000
0010
0000
1000
0100
0010
0100
0001
,
0000
1000
0010
1000
0100
1000
0001
0010
,
0000
1000
0000
0001
0100
0010
1000
0010
,
0000
0001
0100
0010
1000
0000
0100
0010
,
0000
1000
0001
0000
0100
0010
0100
0001
,
0000
1000
0001
0100
0010
0000
0100
0001
,
0000
0100
0010
0000
1000
0001
0100
0010
,
0000
1000
0010
1000
0001
0000
0100
0001
,
0000
0010
0001
0000
1000
0001
1000
0001
,
0100
0010
0100
0000
2002
0000
0000
0000
,
0000
0000
0000
0000
,
0000
0000
0000
0000
,
0000
0000
0000
0000
,
0000
0000
0000
0000
,
0000
0000
3003
0000
;

//---------------dance-single - ----------------
#NOTEDATA:;
#CHARTNAME:;
#STEPSTYPE:dance-single;
#DESCRIPTION:;
#CHARTSTYLE:;
#DIFFICULTY:Medium;
#METER:8;
#RADARVALUES:0.429307,0.650631,0.481488,0.107920,0.000000,291.000000,58.000000,13.000000,0.000000,0.000000,0.000000,0.000000,0.000000,0.429307,0.650631,0.481488,0.107920,0.000000,291.000000,58.000000,13.000000,0.000000,0.000000,0.000000,0.000000,0.000000;
#CREDIT:usaminseijin;
#DISPLAYBPM:216.000000;
#NOTES:
// measure 0
0000
0000
0000
0000
,  // measure 1
0000
0000
0000
0000
,  // measure 2
0000
0000
0000
0000
,  // measure 3
0000
0000
0000
0000
,  // measure 4
0000
0000
0000
0000
,  // measure 5
0000
0000
0000
0000
,  // measure 6
0000
0000
0000
0000
,  // measure 7
0000
0000
0000
0000
,  // measure 8
0000
0000
0000
0000
,  // measure 9
0000
0000
0000
0000
,  // measure 10
0000
0000
0000
0000
,  // measure 11
0000
0000
0000
0000
,  // measure 12
0000
0000
0000
0000
,  // measure 13
0000
0000
0000
0000
,  // measure 14
0000
0000
0000
0000
,  // measure 15
1000
1000
0001
0001
,  // measure 16
1001
0110
1000
0001
,  // measure 17
0100
0010
1001
0000
,  // measure 18
0010
0100
0010
1000
,  // measure 19
0001
0010
1001
0000
,  // measure 20
0100
0001
0010
0100
,  // measure 21
0001
0100
1001
0000
,  // measure 22
1000
0001
0010
0001
,  // measure 23
1000
0001
0110
0000
,  // measure 24
1000
0010
0001
0100
,  // measure 25
1000
0100
1001
0000
,  // measure 26
0100
0010
1000
0010
,  // measure 27
0100
0001
1001
0000
,  // measure 28
1000
0001
0110
0000
,  // measure 29
0100
0010
1001
0000
,  // measure 30
1000
0000
0001
0000
0101
0000
0000
2002
,  // measure 31
0000
0000
0000
0000
,  // measure 32
3003
0000
1000
0000
,  // measure 33
0101
0000
1010
0000
,  // measure 34
1001
0000
0000
0000
0100
0000
0001
0100
,  // measure 35
0000
0010
0000
0000
0001
0000
0000
0000
,  // measure 36
1000
0100
0010
0000
,  // measure 37
1000
0001
1000
0010
,  // measure 38
0100
0001
1000
0002
,  // measure 39
0000
0000
0000
0000
,  // measure 40
0003
0000
1000
0000
,  // measure 41
0101
0000
0110
0000
,  // measure 42
1010
0000
0000
0000
1000
0000
0000
0100
,  // measure 43
0000
0010
1000
0000
,  // measure 44
0000
0000
1000
0001
1000
0000
0010
0100
,  // measure 45
0000
0000
1000
0010
0100
0000
0001
0010
,  // measure 46
0000
0000
1000
0001
1000
0000
0010
0000
,  // measure 47
0100
0000
0010
0000
1010
0000
0000
1001
,  // measure 48
0000
0101
1001
1001
,  // measure 49
1001
1001
0110
0110
,  // measure 50
0110
0000
0110
0000
1001
0000
0100
0010
,  // measure 51
0100
0010
0100
0000
1001
0000
0110
0000
,  // measure 52
2001
0000
3010
1000
,  // measure 53
0001
1000
0100
1000
,  // measure 54
0110
0000
0000
0010
2000
0000
0000
0000
,  // measure 55
0000
0000
3010
0100
,  // measure 56
2001
0000
3010
0001
,  // measure 57
0010
0100
0001
0100
,  // measure 58
0010
0000
0000
0100
0002
0000
0000
0000
,  // measure 59
0000
0000
1003
0010
,  // measure 60
1001
0000
0100
0010
,  // measure 61
0100
0000
0001
0100
,  // measure 62
1000
0100
0001
0010
,  // measure 63
1001
0000
0100
0010
,  // measure 64
0110
0000
0100
0001
,  // measure 65
1000
0001
0100
0001
,  // measure 66
0020
0000
0000
0200
0000
0000
0000
0000
,  // measure 67
0000
0330
1000
0010
,  // measure 68
1001
0000
1000
0001
,  // measure 69
0100
0010
1000
0001
,  // measure 70
1000
0000
0000
0001
0200
0000
0000
0000
,  // measure 71
0000
0000
0310
0001
,  // measure 72
0110
0000
0100
0001
,  // measure 73
0010
0001
1000
0001
,  // measure 74
0010
0000
0000
0100
0002
0000
0000
0000
,  // measure 75
0000
0000
1003
0010
,  // measure 76
1001
0000
0100
0010
,  // measure 77
1001
0000
1000
0001
,  // measure 78
0100
0001
0010
0001
,  // measure 79
1001
0000
0100
0010
,  // measure 80
0001
0010
0100
0010
,  // measure 81
1001
0000
1001
0000
1000
0000
1000
0010
,  // measure 82
0000
0100
0000
0010
0100
0000
0001
1000
,  // measure 83
0000
0010
0000
1000
0010
0000
0100
0001
,  // measure 84
0000
1000
0000
0001
0100
0000
0010
0100
,  // measure 85
0000
1000
0000
0001
1000
0000
0010
0100
,  // measure 86
0000
0001
0000
0010
0001
0000
1000
0001
,  // measure 87
0000
0010
0000
0001
1000
0000
0100
0000
,  // measure 88
0010
0000
0100
0001
0000
0000
1000
0000
,  // measure 89
0100
0000
0001
0000
0100
0000
0010
0100
,  // measure 90
0000
0001
0000
1000
0100
0000
0010
0001
,  // measure 91
0000
1000
0000
0001
0100
0000
0100
0010
,  // measure 92
0000
1000
0000
0001
1000
0000
1000
0010
,  // measure 93
0000
0100
0000
0001
1010
0000
0000
0110
,  // measure 94
0000
0000
0101
0000
0100
0010
0100
0000
,  // measure 95
1000
0000
0001
0000
1010
0000
0000
1001
,  // measure 96
0000
0000
0101
0000
1000
0001
1000
0000
,  // measure 97
0010
0000
0001
0000
1010
0000
0000
0011
,  // measure 98
0000
0000
1001
0000
1100
0000
0000
0101
,  // measure 99
0000
0110
2002
0000
,  // measure 100
0000
0000
0000
0000
,  // measure 101
0000
0000
0000
0000
,  // measure 102
0000
0000
0000
0000
,  // measure 103
0000
0000
0000
0000
,  // measure 104
0000
0000
3003
0000
;

//---------------dance-single - ----------------
#NOTEDATA:;
#CHARTNAME:;
#STEPSTYPE:dance-single;
#DESCRIPTION:;
#CHARTSTYLE:;
#DIFFICULTY:Easy;
#METER:6;
#RADARVALUES:0.310714,0.413000,0.083015,0.083015,0.000000,242.000000,10.000000,10.000000,0.000000,0.000000,0.000000,0.000000,0.000000,0.310714,0.413000,0.083015,0.083015,0.000000,242.000000,10.000000,10.000000,0.000000,0.000000,0.000000,0.000000,0.000000;
#CREDIT:usaminseijin;
#DISPLAYBPM:216.000000;
#NOTES:
0000
0000
0000
0000
,
0000
0000
0000
0000
,
0000
0000
0000
0000
,
0000
0000
0000
0000
,
0000
0000
0000
0000
,
0000
0000
0000
0000
,
0000
0000
0000
0000
,
0000
0000
0000
0000
,
0000
0000
0000
0000
,
0000
0000
0000
0000
,
0000
0000
0000
0000
,
0000
0000
0000
0000
,
0000
0000
0000
0000
,
0000
0000
0000
0000
,
0000
0000
0000
0000
,
0000
0000
0000
0000
,
1001
0010
1000
0001
,
0100
0010
1000
0000
,
0010
0100
0010
1000
,
0001
0010
0001
0000
,
0100
0001
0010
0100
,
0001
0100
1000
0000
,
1000
0001
0010
0001
,
1000
0001
0100
0000
,
1000
0010
0001
0100
,
1000
0100
0001
0000
,
0100
0010
1000
0010
,
0100
0001
1000
0000
,
1000
0001
0100
0000
,
0100
0010
0001
0000
,
1000
0000
0001
0000
0100
0000
0000
0002
,
0000
0000
0000
0000
,
0003
0000
1000
0000
,
0100
0000
0010
0000
,
0001
0000
0100
0001
,
0000
0010
0000
0000
0001
0000
0000
0000
,
1000
0100
0010
0000
,
1000
0001
1000
0010
,
0100
0001
1000
0002
,
0000
0000
0000
0000
,
0003
0000
1000
0000
,
0001
0000
0010
0000
,
1000
0000
0000
0000
1000
0000
0000
0100
,
0000
0010
1000
0000
,
0000
1000
0001
0010
,
0000
1000
0100
0001
,
0000
1000
0001
0010
,
0000
0000
0000
0000
0001
0000
0000
1000
,
0000
0010
2000
0000
,
0000
0000
0000
0000
,
3001
0000
2002
0000
,
0000
3003
1001
0010
,
1001
0000
0010
1000
,
0001
1000
0100
1000
,
0010
0000
0000
2000
0000
0000
0000
0000
,
0000
3000
0010
0100
,
1001
0000
0010
0001
,
0010
0100
0001
0100
,
0010
0000
0000
0200
0000
0000
0000
0000
,
0000
0300
1000
0010
,
1000
0000
0100
0010
,
0100
0000
0001
0100
,
1000
0100
0001
0010
,
1000
0000
0100
0010
,
0100
0000
0100
0001
,
1000
0001
0100
0001
,
0010
0000
0000
0200
0000
0000
0000
0000
,
0000
0300
1000
0010
,
1001
0000
1000
0001
,
0100
0010
1000
0001
,
1000
0000
0000
0200
0000
0000
0000
0000
,
0000
0300
0010
0001
,
0110
0000
0100
0001
,
0010
0001
1000
0001
,
0010
0000
0000
0200
0000
0000
0000
0000
,
0000
0300
1000
0010
,
1000
0000
0100
0010
,
0100
0000
1000
0001
,
0100
0001
0010
0001
,
1000
0000
0100
0010
,
0001
0010
0100
0010
,
1001
0000
1001
0000
1000
0000
0000
0010
,
0000
0000
0100
0000
1000
0000
0000
0010
,
0000
0000
0001
0000
0010
0000
0000
0001
,
0000
0000
1000
0000
0100
0000
0000
0010
,
0000
0000
0001
0000
1000
0000
0000
0100
,
0000
0000
0001
0000
0010
0000
0000
1000
,
0000
0100
1000
0100
,
0001
0100
1000
0010
,
0001
0000
0100
0000
0010
0000
0000
1000
,
0000
0000
0001
0000
0100
0000
0000
0001
,
0000
0000
1000
0000
0100
0000
0000
0010
,
0000
0000
0001
0000
1000
0000
0000
0010
,
0000
0000
0100
0000
1000
0000
0000
0010
,
0000
0001
0100
0010
,
1000
0000
0001
0000
0010
0000
0000
1000
,
0000
0100
0001
1000
,
0010
0000
0001
0000
1000
0000
0000
0010
,
0000
0000
1000
0000
0100
0000
0000
0001
,
0000
0100
1001
0000
;

//---------------dance-single - ----------------
#NOTEDATA:;
#CHARTNAME:;
#STEPSTYPE:dance-single;
#DESCRIPTION:;
#CHARTSTYLE:;
#DIFFICULTY:Beginner;
#METER:2;
#RADARVALUES:0.181447,0.206500,0.083015,0.083015,0.000000,133.000000,10.000000,10.000000,0.000000,0.000000,0.000000,0.000000,0.000000,0.181447,0.206500,0.083015,0.083015,0.000000,133.000000,10.000000,10.000000,0.000000,0.000000,0.000000,0.000000,0.000000;
#CREDIT:usaminseijin;
#DISPLAYBPM:216.000000;
#NOTES:
0000
0000
0000
0000
,
0000
0000
0000
0000
,
0000
0000
0000
0000
,
0000
0000
0000
0000
,
0000
0000
0000
0000
,
0000
0000
0000
0000
,
0000
0000
0000
0000
,
0000
0000
0000
0000
,
0000
0000
0000
0000
,
0000
0000
0000
0000
,
0000
0000
0000
0000
,
0000
0000
0000
0000
,
0000
0000
0000
0000
,
0000
0000
0000
0000
,
0000
0000
0000
0000
,
0000
0000
0000
0000
,
1001
0000
1000
0000
,
1000
0000
1000
0000
,
0000
0000
0010
0000
,
0010
0000
0010
0000
,
0000
0000
0001
0000
,
0001
0000
0001
0000
,
0000
0000
0100
0000
,
0100
0000
0100
0000
,
0000
0000
1000
0000
,
1000
0000
1000
0000
,
0000
0000
0100
0000
,
0100
0000
0100
0000
,
0000
0000
0010
0000
,
0010
0000
0100
0000
,
0100
0000
1000
0000
,
0002
0000
0000
0000
,
0003
0000
1000
0000
,
1000
0000
0010
0000
,
0010
0000
0001
0000
,
0001
0000
0010
0000
,
0000
0000
0010
0000
,
0010
0000
0100
0000
,
0100
0000
0001
0000
,
0001
0000
1000
0000
,
1000
0000
0100
0000
,
0100
0000
0010
0000
,
0010
0000
0001
0000
,
0001
0000
0100
0000
,
0000
0000
1000
0000
,
0001
0000
1000
0000
,
0001
0000
0100
0000
,
0010
0000
0100
0000
,
0010
0000
1001
0000
,
0000
0000
1001
0000
,
0000
0000
1001
0000
,
0000
0000
1001
0000
,
1000
0000
0010
0000
,
1000
0000
0000
0000
,
1000
0000
0100
0000
,
1000
0000
0000
0000
,
0001
0000
0100
0000
,
0001
0000
0000
0000
,
0001
0000
0010
0000
,
0001
0000
0000
0000
,
1001
0000
0000
0000
,
0110
0000
0000
0000
,
1000
0000
0100
0000
,
0001
0000
0000
0000
,
0100
0000
0100
0000
,
0001
0000
0001
0000
,
0010
0000
0010
0000
,
1001
0000
0000
0000
,
1000
0000
0001
0000
,
1000
0000
0000
0000
,
0001
0000
1000
0000
,
0001
0000
0000
0000
,
0100
0000
0010
0000
,
0100
0000
0000
0000
,
0010
0000
0100
0000
,
0010
0000
0000
0000
,
2000
0000
3000
0000
,
0200
0000
0300
0000
,
0002
0000
0003
0000
,
0020
0000
0030
0000
,
1000
0000
0100
0000
,
0001
0000
1000
0000
,
0100
0000
1000
0000
,
0001
0000
1000
0000
,
0010
0000
1000
0000
,
0001
0000
0100
0000
,
0010
0000
1000
0000
,
0010
0000
0100
0000
,
0010
0000
0001
0000
,
0010
0000
1000
0000
,
0001
0000
0100
0000
,
0010
0000
1000
0000
,
0001
0000
0100
0000
,
0010
0000
2000
0000
,
0000
3000
0010
0000
,
0000
0000
0002
0000
,
0000
0003
0100
0000
,
0000
0000
2002
0000
,
3003
0000
0020
0000
,
0030
0000
1001
0000
;
