#VERSION:0.82;
#TITLE:OFF LIMIT;
#SUBTITLE:;
#ARTIST:juno & une;
#TITLETRANSLIT:;
#SUBTITLETRANSLIT:;
#ARTISTTRANSLIT:;
#GENRE:Rock;
#ORIGIN:;
#CREDIT:;
#BANNER:OFF LIMIT.png;
#BACKGROUND:OFF LIMIT-bg.png;
#PREVIEWVID:;
#JACKET:OFF LIMIT-jacket.png;
#CDIMAGE:;
#DISCIMAGE:;
#LYRICSPATH:;
#CDTITLE:cdtitle.png;
#MUSIC:OFF LIMIT.ogg;
#OFFSET:0.000000;
#SAMPLESTART:45.882000;
#SAMPLELENGTH:14.098000;
#SELECTABLE:YES;
#BPMS:0.000=136.000;
#STOPS:;
#DELAYS:;
#WARPS:;
#TIMESIGNATURES:0.000=4=4;
#TICKCOUNTS:0.000=4;
#COMBOS:0.000=1;
#SPEEDS:0.000=1.000=0.000=0;
#SCROLLS:0.000=1.000;
#FAKES:;
#LABELS:0.000=Song Start;
#BGCHANGES:;
#KEYSOUNDS:;
#ATTACKS:
;

//---------------dance-single - ----------------
#NOTEDATA:;
#CHARTNAME:;
#STEPSTYPE:dance-single;
#DESCRIPTION:;
#CHARTSTYLE:;
#DIFFICULTY:Hard;
#METER:13;
#RADARVALUES:0.505818,0.610470,0.610470,0.386631,0.193315,250.000000,60.000000,38.000000,0.000000,0.000000,0.000000,0.000000,0.000000,0.505818,0.610470,0.610470,0.386631,0.193315,250.000000,60.000000,38.000000,0.000000,0.000000,0.000000,0.000000,0.000000;
#CREDIT:usaminseijin;
#NOTES:
0000
0000
0000
0000
,
0000
0000
0000
0000
,
0000
0000
0000
0000
,
0010
0000
0000
1000
0000
0000
0100
0000
0000
0001
0000
0000
0010
0000
0100
0000
,
1010
0000
0000
1001
0000
0000
1100
0000
0000
1001
0000
0000
1010
0000
0101
0000
,
0011
0000
0000
1001
0000
0000
0101
0000
0000
1001
0000
0000
0011
0000
1100
0000
,
2002
0000
0000
0000
0000
0000
0000
3003
,
0010
0000
0100
0000
0010
0000
1000
0001
0100
0000
0010
0000
1000
0001
1000
0001
,
1000
0100
0010
0100
0001
0100
0010
0100
,
0000
0100
1000
0010
1000
0001
1000
0010
,
0000
0010
0100
0001
0100
0010
0100
0001
,
0000
0001
1000
0001
0010
0001
1000
0001
,
0020
1000
0230
1000
,
0302
0000
1000
0000
0000
0100
0000
0100
,
2003
3200
0320
0032
,
2003
0000
0000
0000
3002
0000
0000
0000
2003
0000
0000
3020
0000
0000
0230
0000
,
0300
0000
0000
0000
,
2000
0000
0000
0000
0000
0000
3002
0000
0000
0000
0000
0000
0103
1000
0100
1000
,
0100
1000
0200
0000
0300
0000
0010
0000
0000
0001
0000
0000
0100
0000
1000
0001
,
2000
0000
0000
0000
0000
0000
0000
0000
3000
0000
0001
0100
0001
0100
0001
0100
,
1010
0000
0000
0000
1010
0000
0000
0000
0101
0000
0000
0110
0000
0000
1010
0000
,
1001
0000
0000
1001
0000
0000
1010
0000
0000
1010
0000
0000
0110
0000
0000
0000
,
1010
0000
0000
1010
0000
0000
1001
0000
0000
1001
0000
0000
0101
0000
0000
0000
,
0110
0000
0000
0110
0000
0000
1010
0000
0000
1010
0000
0000
0101
0000
0000
0000
,
1010
0000
0000
0000
0101
0000
0000
0000
1010
0000
0000
1001
0000
0000
0101
0000
,
2002
0000
0000
0000
0000
0000
0000
3003
,
0000
0010
0100
0010
1000
0010
0100
0010
,
0000
0010
0100
0001
0100
1001
0100
0011
,
0000
0010
1000
0010
0100
0010
0001
0010
,
1010
0000
1010
0000
0101
0010
1010
1000
,
0000
0100
1000
0100
0010
0100
0001
0100
,
0000
0100
0010
1000
0010
0101
0010
1001
,
0000
0100
0010
0100
0001
0100
1000
0100
,
0000
0010
0100
0001
1000
1001
0001
1001
,
0020
0000
2030
0000
,
3200
0000
0000
0000
,
0320
0000
0032
0000
,
0203
0000
0000
0000
,
0320
0000
2030
0000
,
3200
0000
0000
0000
,
2300
3200
0320
0032
,
2003
0000
0000
0000
3020
0000
0000
0000
0230
0000
0300
0002
0000
0003
0020
0030
,
1000
0000
0010
0000
1000
0010
0000
0000
1000
0000
0000
0001
0000
0000
0001
0000
,
0100
0000
0001
0000
0100
0001
0000
0000
1000
0000
0100
0001
0000
0000
0101
0000
,
1000
0000
0001
0000
1000
0001
0000
0000
1000
0000
0000
0010
0000
0000
0010
0000
,
1010
0011
1100
0101
,
1000
0000
0010
0000
1000
0010
0000
0000
1000
0000
0000
0001
0000
0000
0001
0000
,
0100
0000
0001
0000
0100
0000
0001
0000
1000
0000
0100
0001
0000
0000
0101
0000
,
0010
0000
1000
0000
0000
0000
0010
0000
1000
0000
0000
1001
0000
0000
1001
0000
,
0100
0000
0010
0000
0000
0000
0100
0000
0001
0000
0000
1100
0000
0000
0101
0000
,
1001
0000
0000
0000
;

//---------------dance-single - ----------------
#NOTEDATA:;
#CHARTNAME:;
#STEPSTYPE:dance-single;
#DESCRIPTION:;
#CHARTSTYLE:;
#DIFFICULTY:Easy;
#METER:6;
#RADARVALUES:0.264537,0.228926,0.000000,0.203490,0.035611,162.000000,0.000000,20.000000,0.000000,0.000000,0.000000,0.000000,0.000000,0.264537,0.228926,0.000000,0.203490,0.035611,162.000000,0.000000,20.000000,0.000000,0.000000,0.000000,0.000000,0.000000;
#CREDIT:usaminseijin;
#NOTES:
0000
0000
0000
0000
,
0000
0000
0000
0000
,
0000
0000
0000
0000
,
0010
0000
0000
0100
0000
0000
0010
0000
,
1000
0000
0000
0001
0000
0000
1000
0000
,
0100
0000
0000
0010
0000
0000
0100
0000
,
2000
0000
0000
0000
0000
0000
0000
3000
,
0010
0100
0010
1000
,
2000
3000
0200
0300
,
0020
0000
0030
0000
0000
0100
0000
0100
,
0002
0003
2000
3000
,
0200
0000
0300
0000
0000
1000
0000
1000
,
0100
0001
0010
0001
,
0100
0000
0001
0000
0010
0100
0000
0100
,
1000
0100
1000
0010
,
1000
0000
0000
0000
0100
0000
0000
0000
1000
0000
0000
0010
0000
0000
0001
0000
,
0000
0000
0000
0000
,
2000
0000
3000
0002
0000
0003
0100
0000
,
0001
0000
0000
0000
0000
0000
0010
0000
0000
0001
0000
0000
0100
0000
0001
0000
,
2000
0000
0000
3000
0000
0001
0000
0001
,
1000
0000
0000
0000
0010
0000
0000
0000
0001
0000
0000
0010
0000
0000
1000
0000
,
0001
0000
0000
1000
0000
0000
0010
0000
,
0100
0000
0000
0010
0000
0000
1000
0000
,
0010
0000
0000
1000
0000
0000
0001
0000
,
0001
0000
0000
0000
0100
0000
0000
0000
1000
0000
0000
0100
0000
0000
0001
0000
,
0200
0000
0000
0000
0000
0000
0000
0300
,
1000
0010
0001
0010
,
1000
0000
0010
0000
0000
0001
0000
0001
,
1000
0100
0001
0010
,
1000
0000
0100
0000
0000
0001
0000
0001
,
0100
0001
0100
1000
,
0100
0000
0001
0000
0100
1000
0000
1000
,
0010
0001
0100
1000
,
0010
0000
0000
0000
0001
0000
0000
0000
0100
0000
0000
1000
0000
0000
0001
0000
,
0020
0030
2000
3000
,
0200
0000
0000
0300
,
0020
0030
0002
0003
,
0200
0000
0000
0300
,
0020
0030
2000
3000
,
0200
0000
0000
0300
,
1000
0100
0010
0001
,
1000
0000
0000
0000
0010
0000
0000
0000
0100
0000
0000
0001
0000
0000
0010
0000
,
1000
0100
0001
0100
,
1000
0000
0100
0000
0001
1000
0000
1000
,
0010
0001
0100
1000
,
0010
0000
0001
0000
0100
1000
0000
1000
,
0100
1000
0100
0001
,
0100
0000
1000
0000
0100
0001
0000
0001
,
1000
0001
0100
0010
,
1000
0000
0000
0000
0100
0000
0000
0000
0010
0000
0000
0001
0000
0000
0100
0000
,
1000
0000
0000
0000
;

//---------------dance-single - ----------------
#NOTEDATA:;
#CHARTNAME:;
#STEPSTYPE:dance-single;
#DESCRIPTION:;
#CHARTSTYLE:;
#DIFFICULTY:Beginner;
#METER:3;
#RADARVALUES:0.188955,0.203490,0.000000,0.050872,0.000000,125.000000,0.000000,5.000000,0.000000,0.000000,0.000000,0.000000,0.000000,0.188955,0.203490,0.000000,0.050872,0.000000,125.000000,0.000000,5.000000,0.000000,0.000000,0.000000,0.000000,0.000000;
#CREDIT:usaminseijin;
#NOTES:
0000
0000
0000
0000
,
0000
0000
0000
0000
,
0000
0000
0000
0000
,
0010
0000
0010
0000
,
1000
0000
1000
0000
,
0100
0000
0100
0000
,
0001
0000
0001
0000
,
0020
0000
0030
0000
,
1000
0000
0100
0000
,
0010
0000
0000
0000
,
0001
0000
1000
0000
,
0100
0000
0000
0000
,
0100
0100
0100
0000
,
0001
0001
0001
0000
,
1000
1000
1000
0000
,
0010
0010
0010
0000
,
0000
0000
0000
0000
,
1000
0000
0001
0000
,
1000
0000
0001
0000
,
0010
0000
0100
0000
,
0010
0000
0100
0000
,
0001
0001
0001
0000
,
0100
0100
0100
0000
,
0010
0010
0010
0000
,
0001
0001
1000
1000
,
0200
0000
0000
0300
,
1000
1000
0001
0000
,
1000
1000
0010
0000
,
0100
0100
0010
0000
,
0100
0100
1000
1000
,
0100
0100
0001
0000
,
0100
0100
1000
0000
,
0010
0010
0100
0000
,
0010
0010
0001
1000
,
0010
0000
1000
0000
,
0200
0000
0300
0000
,
0010
0000
0001
0000
,
0200
0000
0300
0000
,
0010
0000
1000
0000
,
0200
0000
0300
0000
,
1000
1000
0010
0010
,
0001
0001
0100
0100
,
1000
1000
0010
0010
,
0001
0001
0010
0010
,
1000
1000
0100
0100
,
0010
0010
0001
0001
,
0100
0100
0001
0001
,
0010
0010
1000
1000
,
1000
0001
0100
0010
,
1000
0100
0010
0001
,
1000
0000
0000
0000
;

//---------------dance-single - ----------------
#NOTEDATA:;
#CHARTNAME:;
#STEPSTYPE:dance-single;
#DESCRIPTION:;
#CHARTSTYLE:;
#DIFFICULTY:Medium;
#METER:10;
#RADARVALUES:0.393898,0.406980,0.091570,0.335758,0.101745,229.000000,9.000000,33.000000,0.000000,0.000000,0.000000,0.000000,0.000000,0.393898,0.406980,0.091570,0.335758,0.101745,229.000000,9.000000,33.000000,0.000000,0.000000,0.000000,0.000000,0.000000;
#CREDIT:usaminseijin;
#NOTES:
0000
0000
0000
0000
,
0000
0000
0000
0000
,
0000
0000
0000
0000
,
0010
0000
0000
1000
0000
0000
0100
0000
0000
0001
0000
0000
0010
0000
0100
0000
,
0010
0000
0000
1000
0000
0000
0100
0000
0000
0001
0000
0000
0010
0000
0100
0000
,
0010
0000
0000
1000
0000
0000
0100
0000
0000
0001
0000
0000
0010
0000
0100
0000
,
2000
0000
0001
0000
0001
0000
0001
3000
,
0010
0000
0000
0000
0100
0000
0000
0000
0010
0000
0000
0000
1000
0001
1000
0001
,
2000
0000
3200
0000
,
0320
0000
0000
0000
0000
0100
0000
0100
,
0032
0000
2003
0000
,
3200
0000
0000
0000
0000
1000
0000
1000
,
0310
0001
0100
0001
,
1000
0000
0001
0000
0000
0100
0000
0100
,
2000
3200
0320
0032
,
2003
0000
0000
0000
3002
0000
0000
0000
2003
0000
0000
3010
0000
0000
0100
0000
,
0000
0000
0000
0000
,
2000
0000
0000
3002
0000
0000
1003
0000
,
0100
0000
0010
0000
0001
0000
0010
0000
0000
0001
0000
0000
0100
0000
0001
0000
,
2000
0000
0000
0000
3000
0001
0100
0001
,
1000
0000
0000
0000
1010
0000
0000
0000
0001
0000
0000
0010
0000
0000
1000
0000
,
0001
0000
0000
0001
0000
0000
1000
0000
0000
1000
0000
0000
0010
0000
0000
0000
,
0100
0000
0000
0100
0000
0000
0010
0000
0000
0010
0000
0000
1000
0000
0000
0000
,
0010
0000
0000
0010
0000
0000
1000
0000
0000
1000
0000
0000
0001
0000
0000
0000
,
1001
0000
0000
0000
0110
0000
0000
0000
1000
0000
0000
0100
0000
0000
0001
0000
,
0200
0000
0000
0000
0000
0000
0000
0300
,
0000
0010
0100
0010
1000
0010
0100
0010
,
0000
0010
0100
0001
0100
1000
0100
0010
,
0000
0010
1000
0010
0100
0010
0001
0010
,
1000
0000
1001
0000
0100
0010
1000
0010
,
0000
0100
1000
0100
0010
0100
0001
0100
,
0000
0100
0010
1000
0010
0100
0010
0001
,
0000
0100
0010
0100
0001
0100
1000
0100
,
0000
0010
0100
0001
0100
1000
0100
0001
,
0020
0000
2030
0000
,
3200
0000
0000
0000
,
0320
0000
0032
0000
,
0203
0000
0000
0000
,
0320
0000
2030
0000
,
3200
0000
0000
0000
,
2300
3200
0320
0032
,
2003
0000
0000
0000
3020
0000
0000
0000
0130
0000
0000
0001
0000
0000
0010
0000
,
0001
1000
0001
1000
0010
0100
0010
0100
,
0001
0100
0001
0100
0010
1000
0010
1000
,
0010
0100
0010
0100
0001
0100
0001
0100
,
1001
1001
0110
0110
,
1000
0010
1000
0010
1000
0001
1000
0001
,
0100
0001
0100
0001
0100
0010
0100
0010
,
1000
0001
1000
0001
0100
0010
0100
0010
,
1000
0000
0100
0000
0010
0000
0001
0000
1000
0000
0000
0010
0000
0000
0100
0000
,
1001
0000
0000
0000
;

//---------------dance-single - ----------------
#NOTEDATA:;
#CHARTNAME:;
#STEPSTYPE:dance-single;
#DESCRIPTION:;
#CHARTSTYLE:;
#DIFFICULTY:Challenge;
#METER:15;
#RADARVALUES:0.661342,0.813959,0.264537,0.244188,0.564684,405.000000,26.000000,24.000000,0.000000,0.000000,2.000000,0.000000,0.000000,0.661342,0.813959,0.264537,0.244188,0.564684,405.000000,26.000000,24.000000,0.000000,0.000000,2.000000,0.000000,0.000000;
#CREDIT:usaminseijin;
#NOTES:
// measure 0
0000
0000
0000
0000
,  // measure 1
0000
0000
0000
0000
,  // measure 2
0000
0000
0000
0000
,  // measure 3
0010
0000
0000
1000
0000
0000
0100
0000
0000
0001
0000
0000
0010
0000
0100
0000
,  // measure 4
1010
0000
0000
1001
0000
0000
1100
0000
0000
1001
0000
0000
1010
0000
0101
0000
,  // measure 5
0011
0000
0000
1001
0000
0000
0101
0000
0000
1001
0000
0000
0011
0000
1100
0000
,  // measure 6
1000
0100
1000
0100
0010
0100
0010
0100
0010
0001
0010
0001
1000
0001
1000
0001
,  // measure 7
0010
0000
0100
0000
0010
0000
1000
0001
0100
0000
0010
0000
1000
0001
1000
0001
,  // measure 8
1000
0100
0010
0100
0001
0100
0010
0100
,  // measure 9
0000
0100
1000
0010
1000
0001
1000
0010
,  // measure 10
0000
0010
0100
0001
0100
0010
0100
0001
,  // measure 11
0000
0001
1000
0001
0010
0001
1000
0001
,  // measure 12
0020
1000
0230
1000
,  // measure 13
0302
0000
1000
0000
0000
0100
0000
0100
,  // measure 14
2003
3200
0320
0032
,  // measure 15
2003
0000
0000
0000
3002
0000
0000
0000
2003
0000
0000
3020
0000
0000
0230
0000
,  // measure 16
1300
0000
0001
0000
0100
0010
0100
0010
1000
0000
0001
0100
0001
0100
0000
0001
,  // measure 17
2000
0000
0000
0000
0000
0000
3002
0000
0000
0000
0000
0000
0103
1000
0100
1000
,  // measure 18
0100
1000
0200
0000
0300
0000
0010
0000
0000
0001
0000
0000
0100
0000
1000
0001
,  // measure 19
2000
0000
0000
0000
0000
0000
0000
0000
3000
0000
0001
0100
0001
0100
0001
0100
,  // measure 20
1000
0001
1000
0000
1000
0000
0001
0000
0100
0010
0100
0000
0001
0000
1000
0000
,  // measure 21
1000
0001
1000
0001
1000
0010
1000
0010
1000
0100
1000
0100
1000
0001
1000
0001
,  // measure 22
1000
0010
1000
0010
0100
0010
0100
0010
0100
0001
0100
0001
0200
0000
0000
0000
,  // measure 23
0300
0000
0000
0020
0000
0000
0000
0000
0000
0030
0000
0000
0000
0000
0000
0001
0000
0000
0100
0000
0001
0000
1000
0000
,  // measure 24
0010
1000
0010
1000
0001
1000
0001
1000
0001
0100
0001
0100
0010
0100
0010
0100
,  // measure 25
1000
0000
0001
0000
0100
0000
0010
0100
0001
0000
1000
0000
0010
0100
0010
0100
,  // measure 26
1000
0000
0010
0000
0100
0001
0010
0000
1000
0000
0010
0001
0100
0000
0010
0000
,  // measure 27
1000
0000
0010
0000
0100
1000
0001
0000
0100
0000
1000
0001
0100
0000
0001
0000
,  // measure 28
0100
0000
0010
0000
1000
0001
0010
0000
0001
0000
0010
1000
0000
0000
0010
0000
,  // measure 29
1010
0000
1010
0000
0101
0010
1010
1000
,  // measure 30
0010
0000
0100
0000
1000
0001
0100
0000
1000
0000
0100
1000
0001
0000
0100
0000
,  // measure 31
0001
0000
0100
0000
0010
0001
1000
0000
0010
0000
0001
1000
0010
0000
1000
0000
,  // measure 32
0010
0000
0100
0000
0001
0000
0100
0000
1000
0000
0100
0010
1000
0000
0100
0000
,  // measure 33
1000
0000
0010
0000
0100
0000
0001
0000
1000
0000
1001
0010
0001
0000
1001
0000
,  // measure 34
0020
0000
2030
0000
,  // measure 35
3200
0000
0000
0000
,  // measure 36
0320
0000
0032
0000
,  // measure 37
0203
0000
0000
0000
,  // measure 38
1300
0001
1000
0010
1000
0001
1000
0010
1000
0001
1000
0100
1000
0001
1000
0100
,  // measure 39
1000
0010
0100
0010
1000
0010
0100
0010
1000
0010
0001
0010
1000
0010
0001
0010
,  // measure 40
1000
0001
0100
0001
1000
0001
0100
0001
0010
0001
1000
0001
0010
0001
1000
0001
,  // measure 41
0010
1000
0100
1000
0010
1000
0100
1000
4004
0000
0000
0000
0000
0000
3003
0000
,  // measure 42
0100
0000
0010
0000
1000
0010
0001
0000
1000
0000
0100
0001
1000
0000
0001
0000
,  // measure 43
0100
0000
0001
0000
0100
0001
0010
0000
1000
0000
0100
0001
1000
0000
0001
0000
,  // measure 44
1000
0000
0010
0000
1000
0001
0010
0000
1000
0000
0001
0010
1000
0000
0010
0000
,  // measure 45
1010
0000
0011
0000
1100
1000
0101
0001
,  // measure 46
1000
0000
0010
0000
1000
0010
0001
0000
1000
0000
0100
0001
1000
0000
0001
0000
,  // measure 47
0100
0000
0001
0000
0100
0000
0001
0000
1000
0000
0100
0001
1000
0000
0100
0000
,  // measure 48
0010
0000
1000
0000
0100
0000
1000
0000
0010
0000
0100
1000
0010
0000
1000
0000
,  // measure 49
0100
0000
0010
0000
1000
0000
0100
0000
1010
0000
0010
1000
0101
0000
0100
0000
,  // measure 50
1001
0000
0000
0000
;
