#VERSION:0.82;
#TITLE:Maharaja Trance;
#SUBTITLE:;
#ARTIST:Queen P.A.L.;
#TITLETRANSLIT:;
#SUBTITLETRANSLIT:;
#ARTISTTRANSLIT:;
#GENRE:Hyper Techno;
#ORIGIN:;
#CREDIT:;
#BANNER:Maharaja Trance.png;
#BACKGROUND:Maharaja Trance-bg.png;
#PREVIEWVID:;
#JACKET:Maharaja Trance-jacket.png;
#CDIMAGE:;
#DISCIMAGE:;
#LYRICSPATH:;
#CDTITLE:cdtitle.png;
#MUSIC:Maharaja Trance.ogg;
#OFFSET:0.000000;
#SAMPLESTART:3.097000;
#SAMPLELENGTH:12.367000;
#SELECTABLE:YES;
#DISPLAYBPM:155.000000;
#BPMS:0.000=155.000,
158.000=77.500,
159.000=155.000,
163.000=77.500,
164.000=155.000;
#STOPS:;
#DELAYS:;
#WARPS:;
#TIMESIGNATURES:0.000=4=4;
#TICKCOUNTS:0.000=4;
#COMBOS:0.000=1;
#SPEEDS:0.000=1.000=0.000=0;
#SCROLLS:0.000=1.000;
#FAKES:;
#LABELS:0.000=Song Start;
#BGCHANGES:;
#KEYSOUNDS:;
#ATTACKS:
;

//---------------dance-single - ----------------
#NOTEDATA:;
#CHARTNAME:;
#STEPSTYPE:dance-single;
#DESCRIPTION:;
#CHARTSTYLE:;
#DIFFICULTY:Hard;
#METER:14;
#RADARVALUES:0.747498,0.838115,0.531757,0.085081,0.441358,434.000000,50.000000,8.000000,0.000000,0.000000,0.000000,0.000000,0.000000,0.747498,0.838115,0.531757,0.085081,0.441358,434.000000,50.000000,8.000000,0.000000,0.000000,0.000000,0.000000,0.000000;
#CREDIT:usaminseijin;
#DISPLAYBPM:155.000000;
#NOTES:
0000
0000
0000
0000
,
1100
0101
1100
0101
,
1000
0000
0010
0000
1000
0000
0010
0000
0100
0000
0000
0001
0000
0000
0010
0000
,
1000
0000
0010
0000
1000
0000
0010
0000
0100
0000
0000
0001
0000
0000
0010
0000
,
0100
0000
0001
0000
0100
0000
0001
0000
0010
0000
0000
1000
0000
0000
0001
0000
,
0100
0000
0001
0000
0100
0000
0001
0000
0011
0000
0000
1010
0000
0000
1001
0000
,
0000
0000
1001
0000
0000
0000
0000
0000
0010
0000
0000
1000
0000
0000
0100
0000
,
0010
0000
0001
0000
0010
0000
0001
0000
0010
0000
0000
1000
0000
0000
0100
0000
,
0001
0000
0100
0000
0001
0000
0100
0000
0010
0000
0000
1000
0000
0000
0100
0000
,
2000
0000
0000
0000
0002
0000
0000
3003
,
0100
1000
0001
0000
1000
0001
0000
0000
,
0100
0000
0100
0000
0010
1001
0100
1001
,
0010
0001
1000
0000
0001
1000
0000
0000
,
0010
0000
0010
0000
1001
1001
1001
1001
,
0100
0001
0100
0001
0100
0001
0100
0001
,
1000
0010
1000
0010
0100
0001
1000
0001
,
0100
0001
0100
0001
0100
0001
0100
0001
,
1000
0010
1000
0010
0100
0001
1000
0001
,
0100
0000
1000
0100
1000
0000
0001
1000
0001
0000
0100
0010
0100
0000
1000
0001
,
1000
0000
0010
1000
0010
0000
1000
0001
1000
0000
0100
0001
0100
0000
0001
1000
,
0001
0000
1000
0100
1000
0000
0010
0100
0010
0000
0001
1000
0001
0000
0010
1000
,
0010
0000
1000
0001
1000
0000
0100
0010
0100
0000
0001
1000
0001
0000
0100
0001
,
0100
0000
1000
0100
1000
0000
0001
1000
0001
0000
0100
0010
0100
0000
1000
0001
,
1000
0000
0010
1000
0010
0000
1000
0001
1000
0000
0100
0001
0100
0000
0001
1000
,
0001
0000
1000
0100
1000
0000
0010
0100
0010
0000
0001
1000
0001
0000
0010
1000
,
0010
0000
1000
0001
1000
0000
0100
0010
0100
0000
0001
1000
0001
0000
0100
0001
,
1000
1000
1000
1001
,
0100
0100
0010
0110
,
1001
0001
0001
1001
,
0110
0100
1001
1001
,
0110
0010
0010
0110
,
1001
1000
1000
1001
,
1010
1000
0010
1010
,
0101
0100
0001
0101
,
0010
1000
0010
1000
0010
1000
0010
1000
,
0001
0100
0001
0100
0010
1000
0001
1000
,
0010
1000
0010
1000
0010
1000
0010
1000
,
0001
0100
0001
0100
0010
1000
0001
1000
,
0000
1001
1001
0000
0110
0220
0000
0000
,
0000
0000
0000
0000
0000
0000
0330
0000
1000
0001
1000
0001
0000
0000
0110
0000
,
0110
0000
0000
0000
0000
0000
0000
0000
0000
0000
0000
0000
1001
0000
0000
0000
0000
0000
2002
0000
0000
0000
0000
0000
0000
0000
0000
0000
0000
0000
3003
0000
0000
0000
0000
0000
1000
0000
0010
0000
1000
0000
0100
0000
0000
0001
0000
0000
,
1001
0000
1001
0000
1001
0000
1001
0000
0100
0000
1000
0100
1000
0000
0001
1000
,
0001
0000
0100
0010
0100
0000
1000
0001
1000
0000
0010
1000
0010
0000
1000
0001
,
1000
0000
0100
0001
0100
0000
0001
1000
0001
0000
1000
0100
1000
0000
0010
0100
,
0010
0000
0001
1000
0001
0000
0010
1000
0010
0000
1000
0001
1000
0000
0100
0010
,
0100
0000
0001
1000
0001
0000
0100
0001
0100
0000
1000
0100
1000
0000
0001
1000
,
0001
0000
0100
0010
0100
0000
1000
0001
1000
0000
0010
1000
0010
0000
1000
0001
,
1000
0000
0100
0001
0100
0000
0001
1000
0001
0000
1000
0100
1000
0000
0010
0100
,
0010
0000
0001
1000
0001
0000
0010
1000
0010
0000
1000
0001
1000
0000
0100
0010
,
0100
0000
0001
1000
0001
0000
0100
0001
1000
0000
0010
0000
1000
0000
0010
0000
,
0100
0000
0000
0001
0000
0000
0010
0000
1000
0000
0010
0000
1000
0000
0010
0000
,
0100
0000
0000
0001
0000
0000
0010
0000
0100
0000
0001
0000
0100
0000
0001
0000
,
0010
0000
0000
1000
0000
0000
0001
0000
0100
0000
0001
0000
0100
0000
0001
0000
,
0011
0000
0000
1010
0000
0000
1001
0000
0000
0000
1001
0000
0000
0000
0000
0000
,
0010
0000
0000
1000
0000
0000
0100
0000
0010
0000
0001
0000
0010
0000
0001
0000
,
0010
0000
0000
1000
0000
0000
0100
0000
0001
0000
0100
0000
0001
0000
0100
0000
,
0010
0000
0000
1000
0000
0000
0100
0000
1100
0000
0000
0000
0101
0000
0000
0000
,
1100
0101
2002
0000
,
0000
0000
0000
3003
0000
0000
0000
0000
;

//---------------dance-single - ----------------
#NOTEDATA:;
#CHARTNAME:;
#STEPSTYPE:dance-single;
#DESCRIPTION:;
#CHARTSTYLE:;
#DIFFICULTY:Medium;
#METER:10;
#RADARVALUES:0.571258,0.558743,0.233973,0.085081,0.441358,346.000000,22.000000,8.000000,0.000000,0.000000,0.000000,0.000000,0.000000,0.571258,0.558743,0.233973,0.085081,0.441358,346.000000,22.000000,8.000000,0.000000,0.000000,0.000000,0.000000,0.000000;
#CREDIT:usaminseijin;
#DISPLAYBPM:155.000000;
#NOTES:
0000
0000
0000
0000
,
1000
0001
1000
0001
,
1000
0000
0000
0000
0010
0000
0000
0000
0100
0000
0000
0001
0000
0000
0010
0000
,
1000
0000
0000
0000
0010
0000
0000
0000
0100
0000
0000
0001
0000
0000
0010
0000
,
0100
0000
0000
0000
0001
0000
0000
0000
0010
0000
0000
1000
0000
0000
0001
0000
,
0100
0000
0000
0000
0001
0000
0000
0000
1000
0000
0000
0001
0000
0000
1000
0000
,
0000
0000
1001
0000
0000
0000
0000
0000
0010
0000
0000
1000
0000
0000
0100
0000
,
0010
0000
0000
0000
0001
0000
0000
0000
0010
0000
0000
1000
0000
0000
0100
0000
,
0001
0000
0000
0000
0100
0000
0000
0000
0010
0000
0000
1000
0000
0000
0100
0000
,
2000
0000
0000
0000
0002
0000
0000
3003
,
0100
1000
0001
0000
1000
0001
0000
0000
,
0100
0000
0100
0000
0010
0001
0100
0001
,
0010
0001
1000
0000
0001
1000
0000
0000
,
0010
0000
0010
0000
1000
0001
1000
0001
,
0100
0001
0100
0001
0100
0001
0100
0001
,
1000
0010
1000
0010
0100
0001
1000
0001
,
0100
0001
0100
0001
0100
0001
0100
0001
,
1000
0010
1000
0010
0100
0001
1000
0001
,
0100
0000
0000
0100
1000
0000
0000
1000
0001
0000
0000
0001
0100
0000
0000
0100
,
0010
0000
0000
0010
1000
0000
0000
1000
0001
0000
0000
0001
0010
0000
0000
0010
,
0100
0000
0000
0100
0001
0000
0000
0001
1000
0000
0000
1000
0100
0000
0000
0100
,
0010
0000
0000
0010
0001
0000
0000
0001
1000
0000
0000
1000
0010
0000
0000
0010
,
0100
0000
0000
0100
1000
0000
0000
1000
0001
0000
0000
0001
0100
0000
0000
0100
,
0010
0000
0000
0010
1000
0000
0000
1000
0001
0000
0000
0001
0010
0000
0000
0010
,
0100
0000
0000
0100
0001
0000
0000
0001
1000
0000
0000
1000
0100
0000
0000
0100
,
0010
0000
0000
0010
0001
0000
0000
0001
1000
0000
0000
1000
0010
0000
0000
0010
,
1000
1000
1000
1001
,
0100
0100
0010
0110
,
1001
0001
0001
1001
,
0110
0100
1001
1001
,
0110
0010
0010
0110
,
1001
1000
1000
1001
,
1010
1000
0010
1010
,
0101
0100
0001
0101
,
0010
1000
0010
1000
0010
1000
0010
1000
,
0001
0100
0001
0100
0010
1000
0001
1000
,
0010
1000
0010
1000
0010
1000
0010
1000
,
0001
0100
0001
0100
0010
1000
0001
1000
,
0000
1000
0001
0000
0200
0020
0000
0000
,
0000
0000
0000
0000
0000
0000
0330
0000
1000
0001
1000
0001
0000
0000
0100
0000
,
0010
0000
0000
0000
0000
0000
0000
0000
0000
0000
0000
0000
2000
0000
0000
0000
0000
0000
0002
0000
0000
0000
0000
0000
0000
0000
0000
0000
0000
0000
3003
0000
0000
0000
0000
0000
1000
0000
0010
0000
1000
0000
0100
0000
0000
0001
0000
0000
,
1000
0000
0001
0000
1000
0000
0001
0000
0100
0000
0000
0100
0001
0000
0000
0001
,
1000
0000
0000
1000
0100
0000
0000
0100
0010
0000
0000
0010
0001
0000
0000
0001
,
1000
0000
0000
1000
0010
0000
0000
0010
0100
0000
0000
0100
1000
0000
0000
1000
,
0001
0000
0000
0001
0100
0000
0000
0100
0010
0000
0000
0010
1000
0000
0000
1000
,
0001
0000
0000
0001
0010
0000
0000
0010
0100
0000
0000
0100
0001
0000
0000
0001
,
1000
0000
0000
1000
0100
0000
0000
0100
0010
0000
0000
0010
0001
0000
0000
0001
,
1000
0000
0000
1000
0010
0000
0000
0010
0100
0000
0000
0100
1000
0000
0000
1000
,
0001
0000
0000
0001
0100
0000
0000
0100
0010
0000
0000
0010
1000
0000
0000
1000
,
0001
0000
0000
0001
0010
0000
0000
0010
1000
0000
0000
0000
0010
0000
0000
0000
,
0100
0000
0000
0001
0000
0000
0010
0000
1000
0000
0000
0000
0010
0000
0000
0000
,
0100
0000
0000
0001
0000
0000
0010
0000
0100
0000
0000
0000
0001
0000
0000
0000
,
0010
0000
0000
1000
0000
0000
0001
0000
0100
0000
0000
0000
0001
0000
0000
0000
,
1000
0000
0000
0001
0000
0000
1000
0000
0000
0000
1001
0000
0000
0000
0000
0000
,
0010
0000
0000
1000
0000
0000
0100
0000
0010
0000
0000
0000
0001
0000
0000
0000
,
0010
0000
0000
1000
0000
0000
0100
0000
0001
0000
0000
0000
0100
0000
0000
0000
,
0010
0000
0000
1000
0000
0000
0100
0000
1001
0000
0000
0000
1001
0000
0000
0000
,
1001
1001
2002
0000
,
0000
0000
0000
3003
0000
0000
0000
0000
;

//---------------dance-single - ----------------
#NOTEDATA:;
#CHARTNAME:;
#STEPSTYPE:dance-single;
#DESCRIPTION:;
#CHARTSTYLE:;
#DIFFICULTY:Easy;
#METER:6;
#RADARVALUES:0.373749,0.372495,0.063811,0.170162,0.010635,224.000000,6.000000,16.000000,0.000000,0.000000,0.000000,0.000000,0.000000,0.373749,0.372495,0.063811,0.170162,0.010635,224.000000,6.000000,16.000000,0.000000,0.000000,0.000000,0.000000,0.000000;
#CREDIT:usaminseijin;
#DISPLAYBPM:155.000000;
#NOTES:
0000
0000
0000
0000
,
1000
0001
1000
0001
,
1000
0010
0100
0001
,
1000
0010
0100
1001
,
0100
0001
0010
1000
,
0100
0000
0000
0000
0001
0000
0000
0000
1000
0000
0000
0001
0000
0000
1000
0000
,
0000
1001
0000
0000
0010
0000
1000
0000
,
0010
0001
0010
1001
,
0001
0100
0010
1000
,
2000
0000
3000
0000
0002
0000
0000
0003
,
1000
1000
0001
0001
,
0100
0000
0100
0000
0010
0001
0010
0001
,
0100
0100
1000
1000
,
0010
0000
0010
0000
1000
0001
1000
0001
,
0100
0001
0100
0001
,
1000
0010
1000
0001
,
0100
0001
0100
0001
,
1000
0001
1000
0001
1000
0001
1000
0001
,
0100
1000
0001
0100
,
0010
1000
0001
0010
,
0100
0001
1000
0100
,
0010
0001
1000
0010
,
0100
1000
0001
0100
,
0010
1000
0001
0010
,
0100
0001
1000
0100
,
0010
0001
1000
0010
,
2000
0000
0000
3001
,
0200
0300
0020
0130
,
0002
0000
0000
1003
,
0200
0300
1000
0001
,
0020
0000
0000
0130
,
2000
3000
0002
1003
,
2000
3000
0020
0030
,
0200
0300
0002
0003
,
0010
1000
0010
1000
,
0001
0100
0010
0001
,
0010
1000
0010
1000
,
0001
1000
0001
1000
0001
1000
0001
1000
,
0000
1000
0001
0000
0100
0010
0000
0000
,
0000
0000
0000
0000
1000
0001
0000
0100
,
0010
0000
1000
0001
0000
0000
1000
0100
,
1000
0001
0100
0001
,
1000
0100
0010
0001
,
1000
0010
0100
1000
,
0001
0100
0010
1000
,
0001
0010
0100
0001
,
1000
0100
0010
0001
,
1000
0010
0100
1000
,
0001
0100
0010
1000
,
0001
0010
1000
0010
,
0100
0001
1000
0010
,
0100
1001
0100
0001
,
0010
1000
0100
0001
,
1000
0000
0000
0001
0000
0000
1000
0000
0000
0000
1001
0000
0000
0000
0000
0000
,
0010
1000
0010
0001
,
0010
1000
0001
0100
,
0010
1000
1000
0001
,
1000
0001
2002
0000
,
0000
0000
0000
3003
0000
0000
0000
0000
;

//---------------dance-single - ----------------
#NOTEDATA:;
#CHARTNAME:;
#STEPSTYPE:dance-single;
#DESCRIPTION:;
#CHARTSTYLE:;
#DIFFICULTY:Beginner;
#METER:2;
#RADARVALUES:0.195990,0.279372,0.116986,0.053176,0.000000,113.000000,11.000000,5.000000,0.000000,0.000000,0.000000,0.000000,0.000000,0.195990,0.279372,0.116986,0.053176,0.000000,113.000000,11.000000,5.000000,0.000000,0.000000,0.000000,0.000000,0.000000;
#CREDIT:usaminseijin;
#DISPLAYBPM:155.000000;
#NOTES:
// measure 0
0000
0000
0000
0000
,  // measure 1
1001
0000
1001
0000
,  // measure 2
1000
0000
0100
0000
,  // measure 3
1000
0000
0100
1001
,  // measure 4
0100
0000
0010
0000
,  // measure 5
0100
0000
1000
0000
,  // measure 6
0000
1001
0000
0000
0010
0000
0000
0000
,  // measure 7
1000
0000
0010
1001
,  // measure 8
0001
0000
0010
0000
,  // measure 9
1000
0000
0001
0000
,  // measure 10
1000
0000
0001
0000
,  // measure 11
0100
0000
0010
0010
,  // measure 12
0100
0000
1000
0000
,  // measure 13
0010
0000
1000
1000
,  // measure 14
0100
0000
0100
0000
,  // measure 15
1000
0000
1000
0000
,  // measure 16
0001
0000
0001
0000
,  // measure 17
1000
0001
1000
0001
,  // measure 18
0100
0000
0000
0000
,  // measure 19
0010
0000
0000
0001
,  // measure 20
0100
0000
0000
0000
,  // measure 21
0010
0000
0000
0000
0000
0000
0000
0001
,  // measure 22
1000
0000
0000
0000
,  // measure 23
0001
0000
0000
0010
,  // measure 24
1000
0000
0000
0000
,  // measure 25
0001
0000
0000
0000
0000
0000
0000
0010
,  // measure 26
2000
0000
0000
3000
,  // measure 27
0100
0000
0010
0000
,  // measure 28
0002
0000
0000
0003
,  // measure 29
0100
0000
1000
0001
,  // measure 30
0020
0000
0000
0030
,  // measure 31
1000
0000
0001
0000
,  // measure 32
1000
0000
0010
0000
,  // measure 33
0100
0000
0000
0000
,  // measure 34
0010
0000
0010
0000
,  // measure 35
0100
0000
0001
0000
,  // measure 36
0010
0000
0010
0000
,  // measure 37
1000
0001
1000
0001
,  // measure 38
0100
0000
0010
0000
,  // measure 39
0000
0000
1000
0100
,  // measure 40
0000
0001
0000
1000
,  // measure 41
1000
0000
0100
0000
,  // measure 42
0000
0000
0010
0000
,  // measure 43
0000
0001
0100
0000
,  // measure 44
0000
0000
0010
0000
,  // measure 45
0000
0000
0000
0001
1000
0000
0000
0000
,  // measure 46
0000
0000
0001
0000
,  // measure 47
0000
0010
1000
0000
,  // measure 48
0000
0000
0001
0000
,  // measure 49
0000
0000
0000
0010
1000
0000
0000
0000
,  // measure 50
0100
0000
1000
0000
,  // measure 51
0100
1001
0100
0000
,  // measure 52
0010
0000
0100
0000
,  // measure 53
1000
0000
0000
0000
0000
1001
0000
0000
,  // measure 54
0010
0000
1000
0000
,  // measure 55
0010
1001
0001
0000
,  // measure 56
0010
0000
1001
0000
,  // measure 57
1001
0000
2002
0000
,  // measure 58
0000
0000
0000
3003
0000
0000
0000
0000
;
