#VERSION:0.82;
#TITLE:Love Module;
#SUBTITLE:;
#ARTIST:Gun-SEKI allotrope;
#TITLETRANSLIT:;
#SUBTITLETRANSLIT:;
#ARTISTTRANSLIT:;
#GENRE:J-Trance;
#ORIGIN:;
#CREDIT:;
#BANNER:Love Module.png;
#BACKGROUND:Love Module-bg.png;
#PREVIEWVID:;
#JACKET:Love Module-jacket.png;
#CDIMAGE:;
#DISCIMAGE:;
#LYRICSPATH:Love Module.lrc;
#CDTITLE:cdtitle.png;
#MUSIC:Love Module.ogg;
#OFFSET:0.000000;
#SAMPLESTART:95.378998;
#SAMPLELENGTH:26.483000;
#SELECTABLE:YES;
#BPMS:0.000=145.000;
#STOPS:;
#DELAYS:;
#WARPS:;
#TIMESIGNATURES:0.000=4=4;
#TICKCOUNTS:0.000=4;
#COMBOS:0.000=1;
#SPEEDS:0.000=1.000=0.000=0;
#SCROLLS:0.000=1.000;
#FAKES:;
#LABELS:0.000=Song Start;
#BGCHANGES:0.000=Love Module.mp4=1.000=0=0=0=StretchNoLoop====,
99999=-nosongbg-=1.000=0=0=0 // don't automatically add -songbackground-
;
#KEYSOUNDS:;
#ATTACKS:
;

//---------------dance-single - ----------------
#NOTEDATA:;
#CHARTNAME:;
#STEPSTYPE:dance-single;
#DESCRIPTION:;
#CHARTSTYLE:;
#DIFFICULTY:Hard;
#METER:13;
#RADARVALUES:0.527094,0.543894,0.565943,0.316046,0.202123,382.000000,77.000000,43.000000,0.000000,0.000000,0.000000,0.000000,0.000000,0.527094,0.543894,0.565943,0.316046,0.202123,382.000000,77.000000,43.000000,0.000000,0.000000,0.000000,0.000000,0.000000;
#CREDIT:usaminseijin;
#NOTES:
0000
0000
0000
0000
,
0000
0000
0000
0000
,
2000
0000
0000
0000
,
3000
0000
0000
0000
,
0002
0000
0000
0000
,
0003
0000
0000
0000
,
0200
0000
0000
0000
,
0300
0000
0000
0000
,
0020
0000
0000
0000
,
0030
0000
0000
0000
,
2000
0000
0000
0000
,
3000
0000
0000
0000
,
0200
0000
0000
0000
,
0300
0000
0000
0000
,
0020
0000
0030
0000
,
2000
0000
3000
0000
,
0002
0000
0003
0000
,
1000
0001
1000
0001
0100
0010
0100
0010
0100
0000
0000
0001
1000
0000
0001
0000
,
1010
1010
0011
0011
,
0101
0101
1100
1100
,
1001
1001
1010
1010
,
0011
0011
0110
0110
,
1010
1010
0101
0101
,
0011
0011
1100
1100
,
0101
0101
1010
1010
,
1001
0000
0000
0000
0110
0000
0000
0000
1000
0010
1000
0010
0100
0000
0001
0000
,
1000
0010
1000
0001
1000
0100
1000
0001
,
0100
0001
1000
0001
0010
0001
0100
0001
,
0010
0001
0010
0100
0010
1000
0010
0100
,
1000
0001
0010
0001
1000
0001
0100
0001
,
1000
0100
0001
0100
1000
0100
0001
0100
,
1000
0001
1000
0100
1000
0001
1000
0010
,
0100
0001
1000
0001
0010
0001
0100
0001
,
1000
0000
0001
0000
0100
0000
0000
0010
0000
0100
0000
0000
0001
0000
0100
0000
,
0000
0000
0001
0000
1000
0000
0001
0000
0110
0000
0000
0110
0000
0000
0110
0000
,
0000
0000
0010
0000
1000
0000
0010
0000
0101
0000
0000
0101
0000
0000
0101
0000
,
0000
0000
0010
0000
0001
0000
0010
0000
1100
0000
0000
1100
0000
0000
1100
0000
,
0000
0000
0010
0000
0100
0000
0010
0000
1001
0000
0000
1001
0000
0000
1001
0000
,
0000
0000
1000
0000
0100
0000
1000
0000
0011
0000
0000
0011
0000
0000
0011
0000
,
0000
0000
0100
0000
0001
0000
0100
0000
1010
0000
0000
1010
0000
0000
1010
0000
,
0000
0000
1000
0000
0001
0000
1000
0000
0110
0000
0000
0110
0000
0000
0110
0000
,
0000
0010
0100
0010
1001
1001
1010
1010
,
2002
0000
0000
0000
0000
0000
0000
0000
0000
0000
0000
0000
3003
0000
0100
0010
,
0100
0000
1000
0010
1000
0001
0100
0001
,
2000
0000
0000
3020
0000
0000
1030
0000
,
2002
0000
3003
0100
1000
0100
0001
0100
,
0002
0000
0000
2003
0000
0000
3020
0000
,
0000
0000
1030
0000
0001
0010
0100
1000
,
1001
0000
1000
0001
1010
0000
0100
0001
,
1010
0000
0100
0001
0100
0101
1001
1001
,
2020
0000
3030
0202
0000
0303
1001
0000
,
1000
0010
1000
0001
0100
0001
1000
0010
,
1000
0001
0100
0001
1000
0010
0100
0001
,
1000
0010
1000
0001
0100
0001
1000
0001
,
2200
0000
3300
2002
0000
3003
1010
0000
,
0100
0001
1000
0010
0100
0010
1000
0001
,
1001
0000
1000
0001
1000
0010
0100
0001
,
1100
0000
0000
0101
0000
0000
1001
0000
1010
0000
0000
0000
0011
0000
0000
0000
,
1000
0001
0000
0001
1000
0000
0001
0000
1000
0010
0000
0010
1000
0000
0001
0000
,
0100
0001
0000
0001
0100
0000
0001
0000
1000
0001
0000
0001
1000
0000
0001
0000
,
1000
0010
0000
0010
1000
0000
0010
0000
0100
0010
0000
0010
0100
0000
0010
0000
,
2000
3200
0320
0032
,
1003
0010
0000
0010
1000
0000
0010
0000
0100
0010
0000
0010
0100
0000
0010
0000
,
0100
0001
0000
0001
0100
0000
0001
0000
1000
0001
0000
0001
1000
0000
0001
0000
,
2000
0001
3002
0100
,
0103
0000
0010
0000
0100
0000
0000
0010
1000
0001
1000
0001
1000
0000
0100
0000
,
2002
0000
0000
3003
0100
0001
1000
0010
,
0200
0302
2003
3002
,
0203
0000
0010
0000
0000
0000
0310
0100
,
0002
0023
0230
2300
,
3001
0100
0000
0100
0001
0000
0100
0000
0001
1000
0000
1000
0001
0000
1000
0000
,
0010
1000
0000
1000
0010
0000
1000
0000
0001
0100
0000
0100
0001
0000
0100
0000
,
0001
1000
0000
1000
0001
0000
1000
0000
0010
0100
0000
0100
0010
0000
0100
0000
,
1000
0000
0010
0000
0100
0000
0000
0010
0000
1000
0000
0000
0001
0000
0100
0000
,
1001
0000
0000
0000
;

//---------------dance-single - ----------------
#NOTEDATA:;
#CHARTNAME:;
#STEPSTYPE:dance-single;
#DESCRIPTION:;
#CHARTSTYLE:;
#DIFFICULTY:Challenge;
#METER:16;
#RADARVALUES:0.644692,0.788646,0.698242,0.360146,0.488769,470.000000,95.000000,49.000000,0.000000,0.000000,0.000000,0.000000,0.000000,0.644692,0.788646,0.698242,0.360146,0.488769,470.000000,95.000000,49.000000,0.000000,0.000000,0.000000,0.000000,0.000000;
#CREDIT:usaminseijin;
#NOTES:
0000
0000
0000
0000
,
0000
0000
0000
0000
,
2000
0000
0000
0000
,
3000
0000
0000
0000
,
0002
0000
0000
0000
,
0003
0000
0000
0000
,
0200
0000
0000
0000
,
0300
0000
0000
0000
,
0020
0000
0000
0000
,
0030
0000
0000
0000
,
2000
0000
0000
0000
,
3000
0000
0000
0000
,
0200
0000
0000
0000
,
0300
0000
0000
0000
,
0020
0000
0030
0000
,
2000
0000
3000
0000
,
0002
0000
0003
0000
,
1000
0001
1000
0001
0100
0010
0100
0010
0100
0000
0000
0001
1000
0000
0001
0000
,
1010
1010
1001
0011
,
0101
0110
1001
1100
,
1001
0000
1001
0000
1010
0000
1001
0100
,
0011
0000
0000
0000
1000
0001
1000
0001
1000
0010
1000
0010
0100
0001
0100
0001
,
1010
0000
0000
0000
1010
0000
0001
1000
0001
0000
0000
0000
0101
0000
0000
0000
,
0011
0110
1100
1001
,
0101
0000
0000
0000
0101
0000
0010
0000
1000
0000
0000
0000
1010
0000
0100
0001
,
0100
0000
0000
0010
0100
0010
0100
0010
1000
0010
1000
0010
0100
0000
0001
1000
,
0001
0010
1000
0001
1010
0000
1001
0010
,
1100
1010
0110
1001
,
0110
0001
0010
0100
0010
1000
0110
0110
,
1001
0000
0001
0000
0010
0001
0010
0001
1000
0100
1000
0100
0000
0000
1000
0001
,
1000
0000
0100
0000
0001
0000
1000
0001
1000
0000
0100
0000
0011
0000
0100
0000
,
1001
0000
1010
0000
1100
0000
1010
0001
,
0110
0000
0000
0000
1000
0000
0001
0000
0010
0000
0001
0000
0100
0000
0010
0001
,
0010
0000
0000
0100
0001
0100
0001
0100
0010
1000
0010
1000
0001
1000
0001
1000
,
0010
0000
0001
0000
1000
0000
0001
0000
0110
0000
0000
0110
0000
0000
0110
0000
,
1000
0000
0010
0000
1000
0000
0010
0000
0101
0000
0000
0101
0000
0000
0101
0000
,
0001
0000
0010
0000
0001
0000
0010
0000
1100
0000
0000
1100
0000
0000
1100
0000
,
0100
0000
0010
0000
0100
0000
0010
0000
1001
0000
0000
1001
0000
0000
1001
0000
,
0100
0000
1000
0000
0100
0000
1000
0000
0011
0000
0000
0011
0000
0000
0011
0000
,
0001
0000
0100
0000
0001
0000
0100
0000
1010
0000
0000
1010
0000
0000
1010
0000
,
0001
0000
1000
0000
0001
0000
1000
0000
0110
0000
0000
0110
0000
0000
0110
0000
,
0100
0010
0100
0010
1001
1001
1010
1010
,
2002
0000
0000
0000
0000
0000
0000
0000
0000
0000
0000
0000
3003
0000
0100
0010
,
0100
0000
0000
0000
1000
0010
1000
0010
1000
0001
1000
0001
0100
0001
0100
0001
,
2000
0000
0000
3020
0000
0000
1030
0000
,
2002
0000
0000
0000
3003
0000
0100
0010
0100
0001
0100
0010
0100
0000
0001
0000
,
0002
0000
0000
2003
0000
0000
3020
0000
,
0000
0000
0000
0000
1030
0000
0000
0000
0001
0010
0100
1000
0001
0010
0100
1000
,
1001
0000
0000
0000
1000
0100
0010
0001
1000
0000
0000
0000
1000
0100
0010
0001
,
1000
0100
1000
0100
0010
0100
0010
0100
0010
0001
0010
0001
1000
0001
1000
0001
,
2020
0000
3030
0202
0000
0303
1001
0000
,
1000
0000
1000
0010
1000
0000
0001
0100
0001
0000
1000
0100
1000
0000
0010
1000
,
0010
0100
0010
0100
0001
1000
0001
1000
0010
1000
0010
1000
0100
0001
0100
0001
,
1000
0010
1000
0000
0100
0001
0100
0000
1000
0001
1000
0010
1000
0100
1000
0000
,
2200
0000
3300
2002
0000
3003
1010
0000
,
0100
0000
0010
0001
0010
0100
0010
0100
0001
1000
0001
1000
0010
1000
0010
1000
,
1001
0000
0000
0000
1000
0001
1000
0010
1000
0001
1000
0010
1000
0001
1000
0010
,
1100
0000
0000
0101
0000
0000
1001
0000
1010
0000
0000
0000
0011
0000
0000
0000
,
1000
0001
0000
0001
1010
0000
0001
0000
1000
0010
0000
0010
1001
0000
0001
0000
,
0100
0001
0000
0001
0110
0000
0001
0000
1000
0001
0000
0001
1010
0000
0001
0000
,
1000
0010
0000
0010
1001
0000
0010
0000
0100
0010
0000
0010
0101
0000
0010
0000
,
2000
3200
0320
0032
,
1003
0010
0000
0010
1001
0000
0010
0000
0100
0010
0000
0010
0101
0000
0010
0000
,
0100
0001
0000
0001
0110
0000
0001
1000
0001
0000
0010
0000
0100
0000
0001
0000
,
2000
0000
0000
0100
3002
0000
0100
0000
,
0103
0000
0010
0001
0010
0100
0010
0100
1000
0001
1000
0001
1000
0100
1000
0100
,
2002
0000
0000
3003
0200
0302
2003
3020
,
0230
0302
2003
3002
,
0203
0000
0010
0000
0000
0000
0320
0230
,
0302
0023
0230
2300
,
3001
0000
0000
0000
1000
0001
1000
0001
0100
0001
0100
0001
1000
0010
1000
0010
,
0100
0101
1001
0110
,
1001
0000
0001
0000
0010
0000
1001
1001
,
0100
0000
0000
0000
0010
0000
0000
0000
1000
0001
1000
0010
0100
0010
1000
0001
,
1000
0000
0000
0000
;

//---------------dance-single - ----------------
#NOTEDATA:;
#CHARTNAME:;
#STEPSTYPE:dance-single;
#DESCRIPTION:;
#CHARTSTYLE:;
#DIFFICULTY:Medium;
#METER:9;
#RADARVALUES:0.397945,0.380726,0.198448,0.169048,0.047774,329.000000,27.000000,23.000000,0.000000,0.000000,0.000000,0.000000,0.000000,0.397945,0.380726,0.198448,0.169048,0.047774,329.000000,27.000000,23.000000,0.000000,0.000000,0.000000,0.000000,0.000000;
#CREDIT:usaminseijin;
#NOTES:
0000
0000
0000
0000
,
0000
0000
0000
0000
,
2000
0000
0000
0000
,
3000
0000
0000
0000
,
0002
0000
0000
0000
,
0003
0000
0000
0000
,
0200
0000
0000
0000
,
0300
0000
0000
0000
,
0020
0000
0000
0000
,
0030
0000
0000
0000
,
2000
0000
0000
0000
,
3000
0000
0000
0000
,
0200
0000
0000
0000
,
0300
0000
0000
0000
,
0020
0000
0030
0000
,
2000
0000
3000
0000
,
0002
0000
0003
0000
,
1000
0000
0001
0000
0100
0000
0010
0000
0100
0000
0000
0001
1000
0000
0001
0000
,
1000
1010
0010
0011
,
0001
0101
0100
1100
,
1000
1001
1000
1010
,
0010
0011
0010
0110
,
1000
1010
0001
0101
,
0001
0011
0100
1100
,
0100
0101
1000
1010
,
1000
0000
0110
0000
1000
0010
0100
0001
,
1000
0010
1000
0000
1000
0100
1000
0000
,
0100
0001
0100
0000
0010
0001
0010
0000
,
0010
0001
0010
0000
0010
1000
0010
0000
,
1000
0001
0100
0001
1000
0001
0100
0000
,
1000
0100
0001
0000
1000
0100
0001
0000
,
1000
0001
0100
0000
1000
0001
0100
0000
,
0100
0001
1000
0000
0100
0001
1000
0000
,
1000
0000
0001
0000
0100
0000
0000
0010
0000
0100
0000
0000
0001
0000
0100
0000
,
0000
0000
0001
0000
1000
0000
0001
0000
0100
0000
0000
0010
0000
0000
0100
0000
,
0000
0000
0010
0000
1000
0000
0010
0000
0100
0000
0000
0001
0000
0000
0100
0000
,
0000
0000
0010
0000
0001
0000
0010
0000
1000
0000
0000
0100
0000
0000
1000
0000
,
0000
0000
0010
0000
0100
0000
0010
0000
1000
0000
0000
0001
0000
0000
1000
0000
,
0000
0000
1000
0000
0100
0000
1000
0000
0010
0000
0000
0001
0000
0000
0010
0000
,
0000
0000
0100
0000
0001
0000
0100
0000
1000
0000
0000
0010
0000
0000
1000
0000
,
0000
0000
1000
0000
0001
0000
1000
0000
0100
0000
0000
0010
0000
0000
0100
0000
,
0000
0010
0100
0010
1000
0001
1000
0010
,
2002
0000
0000
0000
0000
0000
3003
0100
,
0010
0000
1000
0010
1000
0001
0100
0001
,
2000
0000
0000
3020
0000
0000
1030
0000
,
0002
0000
0003
0100
1000
0100
0001
0100
,
0002
0000
0000
2003
0000
0000
3020
0000
,
0000
0000
1030
0000
0001
0010
0100
1000
,
0001
0000
1000
0001
0010
0000
0100
0001
,
1000
0000
0100
0001
0100
0001
1000
0001
,
1010
0000
0000
0101
0000
0000
1001
0000
,
1000
0010
1000
0001
0100
0001
1000
0000
,
1000
0001
0100
0001
1000
0010
0100
0000
,
1000
0010
1000
0000
0100
0001
0100
0000
,
1100
0000
0000
1001
0000
0000
1010
0000
,
0100
0001
0100
0000
1000
0010
1000
0000
,
1001
0000
1000
0001
1000
0010
0100
0001
,
1000
0000
0000
0100
0000
0000
0001
0000
1000
0000
0000
0000
0001
0000
0000
0000
,
1000
0001
1000
0001
1000
0010
1000
0000
,
0100
0001
0100
0001
1000
0001
1000
0000
,
1000
0010
1000
0010
0100
0010
0100
0000
,
1000
0100
0010
0001
,
1000
0010
1000
0010
0100
0010
0100
0000
,
0100
0001
0100
0001
1000
0001
1000
0000
,
2000
0001
3002
0100
,
0103
0010
0100
0010
1000
0001
1000
0000
,
2002
0000
3003
0000
0100
0001
1000
0010
,
0100
1001
0010
1001
,
0200
0000
0020
0000
0330
0000
0010
0100
,
0001
0010
0100
1000
,
0001
0100
0001
0100
0001
1000
0001
0000
,
0010
1000
0010
1000
0001
0100
0001
0000
,
0001
1000
0001
1000
0010
0100
0010
0000
,
1000
0000
0010
0000
0100
0000
0000
0010
0000
1000
0000
0000
0001
0000
0100
0000
,
1001
0000
0000
0000
;

//---------------dance-single - ----------------
#NOTEDATA:;
#CHARTNAME:;
#STEPSTYPE:dance-single;
#DESCRIPTION:;
#CHARTSTYLE:;
#DIFFICULTY:Easy;
#METER:6;
#RADARVALUES:0.312896,0.326336,0.161698,0.080849,0.003675,265.000000,22.000000,11.000000,0.000000,0.000000,0.000000,0.000000,0.000000,0.312896,0.326336,0.161698,0.080849,0.003675,265.000000,22.000000,11.000000,0.000000,0.000000,0.000000,0.000000,0.000000;
#CREDIT:usaminseijin;
#NOTES:
0000
0000
0000
0000
,
0000
0000
0000
0000
,
2000
0000
0000
0000
,
3000
0000
0000
0000
,
0002
0000
0000
0000
,
0003
0000
0000
0000
,
0200
0000
0000
0000
,
0300
0000
0000
0000
,
0020
0000
0000
0000
,
0030
0000
0000
0000
,
2000
0000
0000
0000
,
3000
0000
0000
0000
,
0200
0000
0000
0000
,
0300
0000
0000
0000
,
0020
0000
0030
0000
,
2000
0000
3000
0000
,
0002
0000
0003
0000
,
1000
0001
1000
0000
0100
0000
1000
0001
,
1000
1000
0010
0010
,
0001
0001
0100
0100
,
1000
1000
1000
1000
,
0010
0010
0010
0010
,
1000
1000
0001
0001
,
0001
0001
0100
0100
,
0100
0100
1000
1000
,
1000
0000
0100
0000
1000
0010
1000
0000
,
1000
1010
1000
1010
,
0100
0101
0010
0011
,
0010
0011
0010
1010
,
1000
0101
1000
0101
,
1000
0101
1000
0101
,
1000
0011
1000
0011
,
0100
1001
0100
1001
,
1000
0001
1000
0000
0010
0100
0010
0000
,
0000
0001
1000
0000
0100
0000
0010
0000
,
0000
0010
1000
0000
0100
0000
0001
0000
,
0000
0010
0001
0000
1000
0000
0100
0000
,
0000
0010
0100
0000
1000
0000
0001
0000
,
0000
1000
0100
0000
0010
0000
0001
0000
,
0000
0100
0001
0000
1000
0000
0010
0000
,
0000
1000
0001
0000
0100
0000
0010
0000
,
0000
0010
0100
0000
1000
0001
1000
0000
,
1001
0100
0100
0100
,
0010
0000
1000
0000
1000
0001
1000
0000
,
1000
0010
0100
1001
,
0001
0000
0010
0000
1000
0100
0001
0000
,
0001
0010
1000
0010
,
0001
0010
1000
0100
,
0001
0010
1000
0100
,
1000
0000
0100
0001
0100
0000
1000
0001
,
1000
0000
0000
0001
0000
0000
1001
0000
,
1000
0010
1000
0000
0100
0001
0100
0000
,
1000
0001
1000
0000
0100
0010
0100
0000
,
1000
0010
1000
0000
0100
0001
0100
0000
,
1000
0000
0000
0001
0000
0000
1000
0000
,
0100
0001
0100
0000
1000
0010
1000
0000
,
1001
0000
1000
0001
1000
0000
0010
0100
,
0010
0000
0000
0100
0000
0000
0001
0000
1000
0000
0000
0000
0001
0000
0000
0000
,
1000
0001
1000
0000
0100
0000
0010
0000
,
0100
0001
0100
0000
1000
0000
0001
0000
,
1000
0010
1000
0000
0100
0000
0010
0000
,
1000
0100
0010
0001
,
1000
0010
1000
0000
0100
0000
0010
0000
,
0100
0001
0100
0000
1000
0000
0001
0000
,
2000
3000
0002
0003
,
0100
0000
0010
0000
1000
0001
1000
0000
,
1001
0000
0000
0000
0010
0001
0010
0000
,
0100
1001
0010
1001
,
0100
0000
0010
0000
1000
0000
0001
0100
,
0001
0010
0100
1000
,
0001
0000
0100
0000
0001
1000
0001
0000
,
0010
0000
1000
0000
0001
0100
0001
0000
,
0001
0000
1000
0000
0010
0100
0010
0000
,
1000
0100
0010
0001
,
1001
0000
0000
0000
;

//---------------dance-single - ----------------
#NOTEDATA:;
#CHARTNAME:;
#STEPSTYPE:dance-single;
#DESCRIPTION:;
#CHARTSTYLE:;
#DIFFICULTY:Beginner;
#METER:3;
#RADARVALUES:0.204748,0.217557,0.102899,0.000000,0.000000,181.000000,14.000000,0.000000,0.000000,0.000000,0.000000,0.000000,0.000000,0.204748,0.217557,0.102899,0.000000,0.000000,181.000000,14.000000,0.000000,0.000000,0.000000,0.000000,0.000000,0.000000;
#CREDIT:usaminseijin;
#NOTES:
// measure 0
0000
0000
0000
0000
,  // measure 1
0000
0000
0000
0000
,  // measure 2
1000
0000
0000
0000
,  // measure 3
0000
0000
0000
0000
,  // measure 4
0001
0000
0000
0000
,  // measure 5
0000
0000
0000
0000
,  // measure 6
0000
0000
0000
0000
,  // measure 7
0000
0000
0000
0000
,  // measure 8
0000
0000
0000
0000
,  // measure 9
0000
0000
0000
0000
,  // measure 10
1000
0000
0000
0000
,  // measure 11
0000
0000
0000
0000
,  // measure 12
0100
0000
0000
0000
,  // measure 13
0000
0000
0000
0000
,  // measure 14
0010
0000
0000
0000
,  // measure 15
1000
0000
0000
0000
,  // measure 16
0001
0000
0000
0000
,  // measure 17
1000
1000
0001
0001
,  // measure 18
1000
1000
0000
0000
,  // measure 19
0001
0001
0000
0000
,  // measure 20
1000
1000
0000
0000
,  // measure 21
0010
0010
0000
0000
,  // measure 22
1000
1000
0000
0000
,  // measure 23
0001
0001
0000
0000
,  // measure 24
0100
0100
0000
0000
,  // measure 25
1000
1000
0010
0010
,  // measure 26
1000
1000
1000
0000
,  // measure 27
0100
0100
0010
0000
,  // measure 28
0010
0010
0010
0000
,  // measure 29
1000
0100
1000
0000
,  // measure 30
0001
0100
0001
0000
,  // measure 31
0001
0010
0001
0000
,  // measure 32
0100
1000
0100
0000
,  // measure 33
1000
1000
0010
0010
,  // measure 34
0010
1000
0100
0000
,  // measure 35
0010
1000
0100
0000
,  // measure 36
0010
0001
1000
0000
,  // measure 37
0010
0100
1000
0000
,  // measure 38
1000
0100
0010
0000
,  // measure 39
0100
0001
1000
0000
,  // measure 40
1000
0001
0100
0000
,  // measure 41
0010
0100
1000
0001
,  // measure 42
1001
0100
0000
0100
,  // measure 43
0110
1000
0000
1000
,  // measure 44
1001
0010
0000
0010
,  // measure 45
1001
0100
0000
0100
,  // measure 46
1001
0010
0000
0010
,  // measure 47
0110
1000
0000
1000
,  // measure 48
0001
0010
1000
0100
,  // measure 49
1000
0010
0001
0100
,  // measure 50
1000
0000
0000
1001
,  // measure 51
1000
0000
0100
0101
,  // measure 52
1000
0000
0100
0110
,  // measure 53
1000
0000
0100
0101
,  // measure 54
1000
0000
0001
1000
,  // measure 55
0100
0000
1000
1001
,  // measure 56
1000
1000
0000
0110
,  // measure 57
0010
0100
1000
0001
,  // measure 58
1000
1000
0100
0000
,  // measure 59
0100
0100
1000
0000
,  // measure 60
1000
1000
0100
0000
,  // measure 61
1000
0100
0010
0001
,  // measure 62
1000
1000
0100
0000
,  // measure 63
0100
0100
1000
0000
,  // measure 64
1000
0000
0001
0000
,  // measure 65
0100
0100
0001
0000
,  // measure 66
1001
0000
0010
0010
,  // measure 67
0100
1000
0010
0001
,  // measure 68
0100
0100
1000
0000
,  // measure 69
0001
0010
0100
0000
,  // measure 70
0001
0100
1000
0000
,  // measure 71
0010
1000
0001
0000
,  // measure 72
0001
1000
0010
0010
,  // measure 73
1000
0100
0010
0001
,  // measure 74
1001
0000
0000
0000
;
