#VERSION:0.82;
#TITLE:호랑풍류가;
#SUBTITLE:시드노벨 '나와 호랑이님' Opening Theme;
#ARTIST:상록수 feat. 나래;
#TITLETRANSLIT:Horang Pungryuga;
#SUBTITLETRANSLIT:SEEDNOVEL 'Nawa Horangi-Nim' Opening Theme;
#ARTISTTRANSLIT:Sangnoksu feat. Narae;
#GENRE:Oriental Pop;
#ORIGIN:;
#CREDIT:;
#BANNER:Horang Pungryuga.png;
#BACKGROUND:Horang Pungryuga-bg.png;
#PREVIEWVID:;
#JACKET:Horang Pungryuga-jacket.png;
#CDIMAGE:;
#DISCIMAGE:;
#LYRICSPATH:Horang Pungryuga.lrc;
#CDTITLE:cdtitle.png;
#MUSIC:Horang Pungryuga.ogg;
#OFFSET:0.000000;
#SAMPLESTART:15.000000;
#SAMPLELENGTH:24.000000;
#SELECTABLE:YES;
#BPMS:0.000=160.000,
136.000=80.000,
152.000=160.000;
#STOPS:;
#DELAYS:;
#WARPS:;
#TIMESIGNATURES:0.000=4=4;
#TICKCOUNTS:0.000=4;
#COMBOS:0.000=1;
#SPEEDS:0.000=1.000=0.000=0;
#SCROLLS:0.000=1.000;
#FAKES:;
#LABELS:0.000=Song Start;
#BGCHANGES:0.000=Horang Pungryuga.mp4=1.000=0=0=0=StretchNoLoop====,
99999=-nosongbg-=1.000=0=0=0 // don't automatically add -songbackground-
;
#KEYSOUNDS:;
#ATTACKS:
;

//---------------dance-single - ----------------
#NOTEDATA:;
#CHARTNAME:;
#STEPSTYPE:dance-single;
#DESCRIPTION:;
#CHARTSTYLE:;
#DIFFICULTY:Hard;
#METER:12;
#RADARVALUES:0.705845,0.611990,0.845986,0.341994,0.161997,417.000000,94.000000,38.000000,0.000000,0.000000,0.000000,0.000000,0.000000,0.705845,0.611990,0.845986,0.341994,0.161997,417.000000,94.000000,38.000000,0.000000,0.000000,0.000000,0.000000,0.000000;
#CREDIT:usaminseijin;
#NOTES:
0000
0000
0000
0000
,
0000
0000
0000
0000
1000
0010
0100
0001
,
0110
0000
1001
0000
1000
0100
0010
0001
,
1001
0000
0110
0000
1000
0100
0010
0001
,
1010
0101
0011
1100
,
1001
0000
1100
0000
0100
1000
0010
0001
,
0110
0000
1001
0000
0100
0001
0010
1000
,
1001
0000
0110
0000
1000
0010
0100
0001
,
1001
1100
0101
0011
,
1010
0000
1001
0000
0220
0000
0000
0330
,
1000
0001
0000
0001
1000
0000
0001
0000
1000
0010
0000
0010
1000
0000
0010
0000
,
0100
0001
0000
0001
0100
0000
0001
0000
0100
0000
0010
0000
1001
0000
0000
0000
,
1000
0100
0000
0100
1000
0000
0100
0000
1000
0001
0000
0001
0100
0000
0001
0000
,
0100
0010
0000
0010
0100
0000
0010
0000
0001
0000
1000
0000
0110
0000
0000
0000
,
0100
0010
0000
0010
0100
0000
0010
0000
0100
0001
0000
0001
0100
0000
0001
0000
,
1000
0001
0000
0001
1000
0000
0010
0000
0100
0000
0010
0000
1001
0000
0000
0000
,
1010
0000
0100
0001
1010
0000
1001
0000
,
0100
0001
0010
0001
2002
0000
3003
0000
,
0010
1000
0000
1000
0010
0000
1000
0000
0001
1000
0000
1000
0001
0000
1000
0000
,
0010
0100
0000
0100
0010
0000
0100
0000
0001
0000
1000
0000
0110
0000
0000
0000
,
0010
0100
0000
0100
0010
0000
0100
0000
0010
1000
0000
1000
0001
0000
1000
0000
,
0001
0100
0000
0100
0001
0000
0100
0000
0010
0000
0100
0000
1001
0000
0000
0000
,
0001
0100
0000
0100
0001
0000
0100
0000
0001
1000
0000
1000
0001
0000
1000
0000
,
0010
1000
0000
1000
0010
0000
1000
0000
0001
0000
1000
0000
0110
0000
0000
0000
,
1001
0000
1000
0001
0110
0000
1001
0000
,
1010
0001
0010
0001
2002
0000
3003
0100
,
0200
0000
0000
0001
0302
0000
0000
2000
,
3003
0010
1000
0010
2000
0000
0001
3010
,
0002
0000
1003
0010
1000
0100
1000
0001
,
1010
0000
0001
0010
2002
0000
3003
1000
,
2000
0000
0000
0001
3002
0000
0000
2000
,
3003
0010
1000
0010
0101
0000
0001
1000
,
0002
0000
0103
0010
0200
0000
0320
0000
,
2030
0000
3001
0000
2200
0000
0300
0001
,
3002
0203
0320
2030
,
3002
2003
3020
0230
,
0301
0001
1000
1000
0010
0010
0100
0100
,
0001
0001
1000
1000
1001
1001
2002
3003
,
1000
0001
1000
0001
0100
0010
0100
0010
,
1000
0001
1000
0001
1010
0000
1000
0001
,
1100
0000
1000
0010
0100
0001
1010
0000
,
0101
1000
0001
0100
0001
0010
0001
1000
,
0100
0010
0100
0010
1000
0001
1000
0001
,
0100
0001
0100
0001
0110
0000
0100
0010
,
1001
0000
1000
0001
0100
0001
1010
0000
,
1001
0000
1100
0000
2002
0000
3003
0100
,
1000
0010
1000
0010
0100
0001
0100
0001
,
1000
0001
1000
0001
1010
0000
0100
0001
,
0110
0000
1000
0001
1000
0001
0110
0000
,
1001
0010
1000
0100
1000
0001
1000
0010
,
0100
0001
0100
0001
1000
0010
1000
0010
,
0100
0001
1000
0001
0110
0000
1000
0001
,
1010
0000
0100
0010
0100
0010
1001
0000
,
1100
0000
0101
0000
1001
0000
0100
0010
,
1001
0000
0100
0001
0100
0010
1001
0000
,
1010
0000
0011
0000
1001
0000
0100
0010
,
1001
0000
1000
0001
1000
0010
1000
0000
,
1001
0110
1001
0110
,
2002
0000
0000
0000
,
0000
0000
0000
3003
0001
0100
0010
0100
,
1001
0000
1010
0000
0001
0100
0010
1000
,
0110
0000
1001
0000
1000
0010
0100
0001
,
1010
0110
0101
1001
,
1010
0000
0110
0000
1000
0010
0001
0100
,
1010
0000
0101
0000
1000
0010
0100
0010
,
1001
0000
1010
0000
1000
0001
0100
0010
,
1001
0000
0110
0000
1001
0010
0100
0010
,
1001
0000
1010
0100
2002
0000
0000
0000
,
3003
0000
0000
0000
;

//---------------dance-single - ----------------
#NOTEDATA:;
#CHARTNAME:;
#STEPSTYPE:dance-single;
#DESCRIPTION:;
#CHARTSTYLE:;
#DIFFICULTY:Challenge;
#METER:17;
#RADARVALUES:0.899985,1.000000,0.674989,0.188997,0.733488,604.000000,75.000000,21.000000,0.000000,0.000000,0.000000,0.000000,0.000000,0.899985,1.000000,0.674989,0.188997,0.733488,604.000000,75.000000,21.000000,0.000000,0.000000,0.000000,0.000000,0.000000;
#CREDIT:usaminseijin;
#NOTES:
// measure 0
0000
0000
0000
0000
,  // measure 1
0000
0000
0000
0000
1000
0010
0100
0001
,  // measure 2
0110
0000
1001
0000
1000
0100
0010
0001
,  // measure 3
1001
0000
0110
0000
1000
0100
0010
0001
,  // measure 4
1010
0000
0101
0000
0011
0010
1100
0100
,  // measure 5
1001
0000
1100
0000
0100
1000
0010
0001
,  // measure 6
0110
0000
1001
0000
0100
0001
0010
1000
,  // measure 7
1001
0000
0110
0000
1000
0010
0100
0001
,  // measure 8
1001
0000
1100
0000
0101
1000
0011
1000
,  // measure 9
0110
0000
1000
0001
0220
0000
0000
0330
,  // measure 10
1000
0001
0000
0001
1000
0000
0001
0000
1000
0010
0000
0010
1000
0000
0010
0000
,  // measure 11
0100
0001
0000
0001
0100
0000
0001
0000
0110
0000
0110
0000
1001
0000
0000
0000
,  // measure 12
1000
0100
0000
0100
1000
0000
0100
0000
1000
0001
0000
0001
0100
0000
0001
0000
,  // measure 13
0100
0010
0000
0010
0100
0000
0010
0000
1001
0000
1001
0000
0110
0000
0000
0000
,  // measure 14
0100
0010
0000
0010
0100
0000
0010
0000
0100
0001
0000
0001
0100
0000
0001
0000
,  // measure 15
1000
0001
0000
0001
1000
0000
0010
0000
0110
0000
0110
0000
1000
0000
0000
0000
,  // measure 16
1000
0010
0000
0010
1000
0000
0001
0000
0100
0001
0000
0001
1000
0000
0001
0000
,  // measure 17
0100
0010
0000
0010
0100
0000
0010
0000
2002
0000
0000
0000
0000
0000
3003
0000
,  // measure 18
0010
1000
0000
1000
0010
0000
1000
0000
0001
1000
0000
1000
0001
0000
1000
0000
,  // measure 19
0010
0100
0000
0100
0010
0000
0100
0000
1001
0000
1001
0000
0110
0000
0000
0000
,  // measure 20
0010
0100
0000
0100
0010
0000
0100
0000
0010
1000
0000
1000
0001
0000
1000
0000
,  // measure 21
0001
0100
0000
0100
0001
0000
0100
0000
0110
0000
0110
0000
1001
0000
0000
0000
,  // measure 22
0001
0100
0000
0100
0001
0000
0100
0000
0001
1000
0000
1000
0001
0000
1000
0000
,  // measure 23
0010
1000
0000
1000
0010
0000
1000
0000
1001
0000
1001
0000
0110
0000
0000
0000
,  // measure 24
1000
0001
0000
0001
1000
0000
0001
0000
0100
0010
0000
0010
1000
0000
0010
0000
,  // measure 25
1000
0001
0000
0001
0010
0000
0001
0000
2002
0000
0000
0000
3003
0000
0100
0000
,  // measure 26
0100
0000
1000
0100
1000
0000
0001
1000
0001
0000
0010
0001
0010
0000
0100
0010
,  // measure 27
0100
0000
0010
1000
0010
0000
1000
0001
1000
0000
0001
0010
0001
0000
0010
0100
,  // measure 28
0010
0000
0100
0001
0100
0000
0001
1000
0001
0000
1000
0010
1000
0000
0001
1000
,  // measure 29
0001
0000
0100
0001
0100
0000
0010
0100
0010
0000
1000
0010
1000
0000
0001
1000
,  // measure 30
0001
0000
0100
0001
0100
0000
0010
0100
0010
0000
0001
0010
0001
0000
1000
0001
,  // measure 31
1000
0000
0100
1000
0100
0000
0010
0100
0010
0000
0001
0010
0001
0000
1000
0001
,  // measure 32
1000
0001
1000
0001
1000
0001
1000
0001
0100
0010
0100
0010
0100
0010
0100
0010
,  // measure 33
1000
0001
1000
0001
0100
0010
0100
0010
0200
0000
0000
0000
0000
0000
0001
0000
,  // measure 34
0302
0203
0320
2030
,  // measure 35
3002
2003
3020
0230
,  // measure 36
1300
0100
0010
0001
1000
0100
0010
0001
1000
0100
0010
0001
1000
0100
0010
0001
1000
0010
0100
0001
1000
0010
0100
0001
1000
0010
0100
0001
1000
0010
0100
0001
,  // measure 37
1000
0010
1000
0010
0100
0001
0100
0001
1000
0100
1000
0100
0010
0001
0010
0001
1001
0000
0000
0000
0110
0000
0000
0000
2002
0000
0000
0000
3003
0000
0000
0000
,  // measure 38
1000
0000
0001
0000
1000
0001
1000
0000
0100
0000
0010
0000
0100
0010
0100
0000
,  // measure 39
1000
0000
0001
0000
1000
0001
1000
0000
0010
0000
0100
0000
0001
1000
0001
0000
,  // measure 40
0100
0000
1000
0000
0001
1000
0001
0000
0100
0000
0001
0000
1000
0010
1000
0000
,  // measure 41
0001
0000
1000
0000
0001
0100
0001
0000
0101
0000
0010
0000
0101
0000
1000
0000
,  // measure 42
0100
0000
0010
0000
0100
0010
0100
0000
1000
0000
0001
0000
1000
0001
1000
0000
,  // measure 43
0100
0000
0001
0000
0100
0001
0100
0000
0001
0000
0100
0000
0010
0100
0010
0000
,  // measure 44
1000
0000
0001
0000
1000
0001
0100
0000
0100
0000
0001
0000
1000
0010
1000
0000
,  // measure 45
1001
0000
0000
0000
1100
0000
0000
0000
1000
0010
0000
0010
0100
0000
0001
0000
,  // measure 46
1000
0000
0010
0000
1000
0010
1000
0000
0100
0000
0001
0000
0100
0001
0100
0000
,  // measure 47
1000
0000
0001
0000
1000
0001
1000
0000
1000
0000
0010
0000
0100
0001
0100
0000
,  // measure 48
0010
0000
0100
0000
1000
0001
1000
0000
1000
0000
0001
0000
0100
0010
0100
0000
,  // measure 49
1001
0000
0010
0000
1000
0100
1000
0000
1000
0000
0101
0000
1000
0000
0011
0000
,  // measure 50
0100
0000
0001
0000
0100
0001
0100
0000
1000
0000
0010
0000
1000
0010
1000
0000
,  // measure 51
0100
0000
0001
0000
1000
0001
1000
0000
0100
0000
0010
0000
0001
1000
0001
0000
,  // measure 52
1000
0000
0010
0000
0100
0010
0100
0000
0010
0000
0100
0000
0001
1000
0001
0000
,  // measure 53
1100
0000
0000
0000
0101
0000
0000
0000
1000
0001
0000
0001
0100
0000
0010
0000
,  // measure 54
1000
0000
0001
0000
0100
0001
0100
0000
0010
0000
0100
0000
0001
1000
0001
0000
,  // measure 55
1000
0000
0010
0100
0010
0000
0001
1000
0001
0100
0000
0100
0001
0000
0100
0000
,  // measure 56
1000
0000
0001
0000
1000
0001
1000
0000
1000
0000
0010
0000
0100
0010
0100
0000
,  // measure 57
1001
0110
1001
0110
,  // measure 58
2002
0000
0000
0000
,  // measure 59
0000
0000
0000
0000
0000
0000
3003
0000
0001
0000
0100
0010
0100
0000
0001
0000
,  // measure 60
1001
1000
1010
0010
0001
0100
0010
1000
,  // measure 61
0110
0010
1001
0001
1000
0010
0100
0001
,  // measure 62
1010
0010
0110
0100
0101
0001
1001
1000
,  // measure 63
1010
0010
0110
0100
1000
0010
0001
0100
,  // measure 64
1010
0010
0101
0001
1000
0010
0100
0010
,  // measure 65
1001
0001
1010
0010
1000
0001
0100
0010
,  // measure 66
1000
0001
0000
0001
0110
0000
0010
0000
1001
0010
0000
0010
0100
0000
0010
0000
,  // measure 67
1001
0100
1010
0100
2002
0000
0000
0000
,  // measure 68
3003
0000
0000
0000
;

//---------------dance-single - ----------------
#NOTEDATA:;
#CHARTNAME:;
#STEPSTYPE:dance-single;
#DESCRIPTION:;
#CHARTSTYLE:;
#DIFFICULTY:Medium;
#METER:10;
#RADARVALUES:0.601704,0.550791,0.602990,0.233996,0.004500,375.000000,67.000000,26.000000,0.000000,0.000000,0.000000,0.000000,0.000000,0.601704,0.550791,0.602990,0.233996,0.004500,375.000000,67.000000,26.000000,0.000000,0.000000,0.000000,0.000000,0.000000;
#CREDIT:usaminseijin;
#NOTES:
0000
0000
0000
0000
,
0000
0000
0000
0000
1000
0010
0100
0001
,
1000
0000
0001
0000
1000
0100
0010
0001
,
0100
0000
0010
0000
1000
0100
0010
0001
,
1000
0000
0001
0000
1000
0100
0010
0001
,
1000
0000
0100
0000
0100
1000
0010
0001
,
0100
0000
0001
0000
0100
0001
0010
1000
,
0010
0000
0001
0000
1000
0010
0100
0001
,
1000
0000
0100
0000
1000
0010
0100
0001
,
1000
1001
1001
0000
,
1010
0000
1000
0001
0100
0001
1000
0001
,
0100
0010
0100
0001
0100
0010
1001
0000
,
1010
0000
0001
0100
0010
0100
0001
0100
,
0010
1000
0010
0100
0010
1000
0101
0000
,
1001
0000
0010
0100
0001
0100
0010
0100
,
0001
1000
0010
1000
0001
1000
0101
0000
,
1010
0000
0100
0001
1010
0000
0101
0000
,
1010
0001
0100
0001
2020
0000
3030
0000
,
1001
0000
0001
0100
0010
0100
0001
0100
,
0010
1000
0010
0100
0010
1000
0101
0000
,
1001
0000
0010
0100
0010
1000
0010
0100
,
0001
0100
0010
0100
0001
0100
1010
0000
,
1001
0000
0001
0100
0010
0100
0001
0100
,
0010
1000
0010
0100
1000
0010
0101
0000
,
1001
0000
1000
0001
0110
0000
1001
0000
,
1010
0001
0010
0001
2002
0000
3003
0100
,
0020
0000
0000
0031
2000
0000
0000
3001
,
0000
0010
1000
0010
1000
0000
0001
0010
,
0001
0000
1000
0010
1000
0100
1000
0001
,
1001
0000
1001
0000
1001
0000
0000
0001
,
2000
0000
0000
3100
0020
0000
0000
0031
,
0000
0010
1000
0010
1000
0000
0001
1000
,
0001
0000
0100
0010
0100
0000
0010
0000
,
1001
0000
1001
0000
1001
0000
0000
0001
,
0002
0203
0320
2030
,
3002
2003
3020
0230
,
0302
2003
3020
0230
,
0302
0000
0000
0000
2003
0000
0000
0000
3001
0000
1001
0000
1001
0000
0000
0001
,
1000
0000
1010
0000
0101
0000
0100
0010
,
1000
0001
1000
0001
1010
0000
1000
0001
,
0100
0000
1000
0010
0100
0001
1010
0000
,
0101
0000
1001
0000
0001
0010
0001
0000
,
0100
0000
0110
0000
1001
0000
1000
0001
,
0100
0001
0100
0001
0110
0000
0100
0010
,
0100
0000
1000
0001
0100
0001
1000
0000
,
1001
0000
1001
0000
1001
0000
0000
0100
,
1000
0000
1001
0000
0101
0000
0100
0001
,
1000
0001
1000
0001
1010
0000
0100
0001
,
0010
0000
1000
0001
1000
0001
0110
0000
,
1001
0000
1010
0000
1000
0001
1000
0010
,
0100
0000
0101
0000
1010
0000
1000
0010
,
0100
0001
1000
0001
0110
0000
1000
0001
,
0010
0000
0100
0010
1000
0010
0100
0000
,
1001
0000
1001
0000
1001
0000
0100
0010
,
1000
0000
0100
0001
0100
0010
0100
0000
,
1001
0000
1001
0000
1001
0000
0100
0010
,
0100
0000
1000
0001
1000
0010
1000
0000
,
1001
0110
1001
0110
,
2002
0000
0000
0000
,
0000
0000
0000
3003
0001
0100
0010
0100
,
1000
0000
0001
0000
0001
0100
0010
1000
,
0100
0000
0001
0000
1000
0010
0100
0001
,
1000
0000
0010
0000
1000
0010
0100
0001
,
1000
0000
0010
0000
1000
0010
0001
0100
,
1000
0000
0001
0000
1000
0010
0100
0010
,
1000
0000
0010
0000
1000
0001
0100
0010
,
1000
0000
0001
0000
1000
0010
0100
0010
,
1001
0110
2002
0000
,
3003
0000
0000
0000
;

//---------------dance-single - ----------------
#NOTEDATA:;
#CHARTNAME:;
#STEPSTYPE:dance-single;
#DESCRIPTION:;
#CHARTSTYLE:;
#DIFFICULTY:Easy;
#METER:6;
#RADARVALUES:0.422993,0.397793,0.242996,0.071999,0.000000,294.000000,27.000000,8.000000,0.000000,0.000000,0.000000,0.000000,0.000000,0.422993,0.397793,0.242996,0.071999,0.000000,294.000000,27.000000,8.000000,0.000000,0.000000,0.000000,0.000000,0.000000;
#CREDIT:usaminseijin;
#NOTES:
0000
0000
0000
0000
,
0000
0000
0000
0000
1000
0001
1000
0000
,
1000
0000
0001
0000
1000
0100
1000
0000
,
0100
0000
0010
0000
1000
0001
1000
0000
,
1000
0000
0001
0000
1000
0100
1000
0000
,
1000
0000
0100
0000
0100
0010
0100
0000
,
0100
0000
0001
0000
0100
0001
0100
0000
,
0010
0000
0001
0000
0100
0010
0100
0000
,
1000
0000
0100
0000
0100
0001
0100
0000
,
1000
0001
1001
0000
,
1000
0000
0001
0000
0100
0001
0100
0000
,
0010
0000
1000
0000
0100
0001
0010
0000
,
1000
0000
0001
0000
0010
0100
0010
0000
,
0010
0000
1000
0000
0010
1000
0001
0000
,
1000
0000
0010
0000
0001
0100
0001
0000
,
0100
0000
1000
0000
0001
1000
0100
0000
,
1000
0100
0001
0010
,
1000
0100
1001
0000
,
1000
0000
0001
0000
0001
0010
0001
0000
,
0010
0000
0100
0000
0010
0100
0001
0000
,
1000
0000
0100
0000
1000
0010
1000
0000
,
0001
0000
0010
0000
0001
0100
0010
0000
,
1000
0000
0001
0000
0010
0100
0010
0000
,
0010
0000
1000
0000
1000
0010
0100
0000
,
1000
0001
0100
0001
,
1010
0010
1001
0000
,
0020
0000
2030
0000
,
3010
0000
1000
0000
0010
0000
0001
0010
,
0001
1010
1000
1100
,
1000
0001
1001
0000
,
2000
0000
3020
0000
,
0031
0000
1000
0000
0010
0000
0001
1000
,
0001
0000
0100
0010
0100
0000
0010
0000
,
0001
1000
1001
0000
,
0001
0100
0010
1000
,
0001
1000
0010
0100
,
0001
1000
0010
0100
,
0001
0000
1000
0000
1000
0001
1001
0000
,
1000
0000
0010
0000
0101
0000
0100
0010
,
0100
0000
0001
0000
1010
0000
1000
0001
,
1000
1010
0100
0101
,
1000
0000
0001
0000
0001
0010
0001
0000
,
0100
0000
0010
0000
1001
0000
0100
0001
,
0100
0000
0001
0000
0110
0000
0100
0010
,
0100
1000
0100
0001
,
1000
0001
1001
0000
,
1000
0000
0010
0000
1001
0000
0100
0001
,
0100
0000
1000
0000
0001
0000
1000
0010
,
1000
1010
0100
0101
,
1001
0000
1010
0000
1000
0001
1000
0000
,
0100
0000
0001
0000
1010
0000
1000
0010
,
1000
0000
0001
0000
0110
0000
1000
0001
,
1000
0000
0001
0000
0100
0010
0100
0000
,
1000
0001
1001
0100
,
1000
0000
0001
0000
0100
0010
0100
0000
,
0001
1000
1001
0100
,
0010
0000
1000
0000
0100
0010
0100
0000
,
1000
0001
1000
0001
,
2002
0000
0000
0000
,
0000
0000
0000
3003
0001
0000
0010
0000
,
1000
0000
0001
0000
0001
1000
0001
0000
,
0100
0000
0001
0000
1000
0010
1000
0000
,
1000
0000
0010
0000
0100
0001
0100
0000
,
1000
0000
0010
0000
1000
0010
1000
0000
,
0100
0000
0001
0000
0100
0010
0100
0000
,
1000
0000
0010
0000
0100
0001
0100
0000
,
1000
0000
0001
0000
1000
0010
1000
0000
,
0010
0001
2002
0000
,
3003
0000
0000
0000
;

//---------------dance-single - ----------------
#NOTEDATA:;
#CHARTNAME:;
#STEPSTYPE:dance-single;
#DESCRIPTION:;
#CHARTSTYLE:;
#DIFFICULTY:Beginner;
#METER:3;
#RADARVALUES:0.326566,0.273370,0.035999,0.000000,0.000000,250.000000,4.000000,0.000000,0.000000,0.000000,0.000000,0.000000,0.000000,0.326566,0.273370,0.035999,0.000000,0.000000,250.000000,4.000000,0.000000,0.000000,0.000000,0.000000,0.000000,0.000000;
#CREDIT:usaminseijin;
#NOTES:
0000
0000
0000
0000
,
0000
0000
1000
0001
,
1000
0001
1000
0010
,
0100
0010
1000
0001
,
1000
0001
1000
0010
,
1000
0010
0100
0010
,
0100
0001
0100
0001
,
0010
0001
0100
0010
,
1000
0100
0001
0100
,
1000
0001
1000
0000
,
1000
0001
0100
0001
,
0010
1000
0100
0001
,
1000
0001
0100
0001
,
0010
1000
0010
0001
,
1000
0010
0001
0100
,
0001
1000
0001
0100
,
1000
0100
0001
0010
,
1000
0100
0001
0000
,
1000
0001
0010
0001
,
0010
0100
0010
0001
,
1000
0100
0001
0010
,
0001
0010
1000
0010
,
1000
0001
0010
0100
,
0010
1000
0010
0100
,
1000
0001
0100
0001
,
1000
0010
1001
0000
,
0010
0000
1000
0000
,
0010
1000
0010
0001
,
0010
0100
1000
0100
,
1000
0001
1000
0000
,
1000
0000
0010
0000
,
0001
1000
0010
0001
,
1000
0100
0010
0100
,
0001
1000
0001
0000
,
0001
0100
0010
1000
,
0001
1000
0010
0100
,
0001
1000
0010
0100
,
0001
1000
1000
1001
,
1000
0010
0001
0100
,
0010
0001
0010
1000
,
0001
1000
0100
0001
,
1000
0001
0010
0001
,
0100
0010
1000
0001
,
0100
0001
0100
0010
,
0100
1000
0100
0001
,
1000
0001
1000
0000
,
1000
0010
0001
0100
,
0001
1000
0001
1000
,
0010
1000
0100
0001
,
1000
0010
0001
1000
,
0100
0001
0010
1000
,
0010
0001
0100
0001
,
1000
0001
0100
0010
,
1000
0001
1000
0100
,
1000
0001
0100
0010
,
0001
1000
0001
0100
,
0010
1000
0100
0010
,
1000
0001
1000
0001
,
1001
0000
0000
0000
,
0000
0000
0001
0010
,
1000
0001
1000
0001
,
0100
0001
1000
0010
,
1000
0010
0100
0001
,
1000
0010
1000
0010
,
0100
0001
0100
0010
,
1000
0010
0100
0001
,
1000
0001
1000
0010
,
1000
0001
1001
0000
;
