#VERSION:0.82;
#TITLE:귀가있는 로봇의 노래;
#SUBTITLE:(Korean version of 耳のあるロボットの唄);
#ARTIST:耳ロボP (Cover by Prince Syo feat. 歌音山将);
#TITLETRANSLIT:Gwiga-itneun Robot-eui Norae;
#SUBTITLETRANSLIT:(Korean version of Mimi no Aru Robot no Uta);
#ARTISTTRANSLIT:MimiroboP (Cover by Prince Syo feat. Shou Kaneyama);
#GENRE:Electro Pop;
#ORIGIN:;
#CREDIT:;
#BANNER:Gwiga-itneun Robot-eui Norae.png;
#BACKGROUND:Gwiga-itneun Robot-eui Norae-bg.png;
#PREVIEWVID:;
#JACKET:Gwiga-itneun Robot-eui Norae-jacket.png;
#CDIMAGE:;
#DISCIMAGE:;
#LYRICSPATH:Gwiga-itneun Robot-eui Norae.lrc;
#CDTITLE:cdtitle.png;
#MUSIC:Gwiga-itneun Robot-eui Norae.ogg;
#OFFSET:0.000000;
#SAMPLESTART:18.666668;
#SAMPLELENGTH:21.333332;
#SELECTABLE:YES;
#BPMS:0.000=180.000;
#STOPS:;
#DELAYS:;
#WARPS:;
#TIMESIGNATURES:0.000=4=4;
#TICKCOUNTS:0.000=4;
#COMBOS:0.000=1;
#SPEEDS:0.000=1.000=0.000=0;
#SCROLLS:0.000=1.000;
#FAKES:;
#LABELS:0.000=Song Start;
#BGCHANGES:;
#KEYSOUNDS:;
#ATTACKS:
;

//---------------dance-single - ----------------
#NOTEDATA:;
#CHARTNAME:;
#STEPSTYPE:dance-single;
#DESCRIPTION:;
#CHARTSTYLE:;
#DIFFICULTY:Hard;
#METER:10;
#RADARVALUES:0.558692,0.543511,0.949403,0.296144,0.004355,306.000000,109.000000,34.000000,0.000000,0.000000,0.000000,0.000000,0.000000,0.558692,0.543511,0.949403,0.296144,0.004355,306.000000,109.000000,34.000000,0.000000,0.000000,0.000000,0.000000,0.000000;
#CREDIT:usaminseijin;
#NOTES:
0000
0000
0000
0000
,
0000
0000
0000
0000
,
0000
0000
0000
0000
,
0000
0000
0000
0000
,
0000
0000
0000
0000
,
0000
0000
0000
0000
,
1000
0000
0001
1000
0000
1000
0010
0000
,
0100
0000
0010
0100
0000
0100
0001
0000
,
0100
0000
0001
0100
0000
0100
0010
0000
,
1000
0000
0010
1000
0000
1000
0001
0000
,
1000
0000
0010
0100
0000
0100
0001
0000
,
0010
0000
0001
1000
0000
1000
0100
0000
,
0010
0000
0100
1000
0000
1000
0001
0000
,
1000
0000
0001
0100
0000
0100
0010
0000
,
1001
0000
0010
1000
0000
1000
0010
0000
,
0100
0001
1001
0001
,
1000
0101
0011
0101
,
1001
0000
0100
0001
0200
0000
0000
0300
,
1010
0000
0100
0001
0000
0001
1000
0000
,
1010
0000
0001
1000
0001
0000
1000
0000
,
1010
0110
0101
0110
,
1010
0000
0110
0000
0202
0000
0000
0303
,
0110
0000
0010
0100
0000
0100
0001
0000
,
1010
0010
0110
0100
,
1010
1001
0101
0011
,
1001
0000
0001
1000
0002
0000
0000
0003
,
1010
0000
0001
1000
0000
1000
0001
0000
,
1010
0000
0001
0100
0001
0000
1001
0000
,
1100
0110
0011
1001
,
1010
0000
1001
0000
0202
0000
0000
0303
,
1001
0000
0010
1001
0000
0100
1001
0000
,
1010
1100
1100
1001
,
0101
0110
1001
1010
,
0101
0000
1000
0001
2200
0000
3300
0000
,
1010
0000
0001
1000
0000
0001
1010
0000
,
0101
1001
1010
0110
,
1010
0000
1001
0000
1001
0000
0100
0001
,
1010
0000
1001
0000
0202
0000
0000
0303
,
0110
0000
1001
0010
0000
0100
1001
0000
,
0110
1010
1001
0011
,
1001
1010
1010
0110
,
1001
0000
0100
0010
2002
0000
0000
3003
,
0110
0000
0010
0100
0000
0100
1001
0000
,
1010
0102
0013
1001
,
1010
1001
0110
0101
,
0110
0000
1001
0000
2002
0000
0000
3003
,
1020
0000
0000
1000
0000
0000
0130
0000
,
1002
0000
0000
0100
0000
0000
1003
0000
,
0120
0000
0000
0100
0000
0000
1030
0000
,
2002
0000
0000
3003
,
2010
0000
0000
0010
0000
0000
3001
0000
,
2001
0000
0000
0100
0000
0000
3100
0000
,
2001
0000
0000
0010
0000
0000
0100
3000
,
0220
0000
0000
0000
0000
0000
0000
0330
,
1010
0000
0001
1000
0001
1000
0010
0000
,
1002
0000
0100
0000
1000
0000
0100
0003
,
1010
0000
1000
0001
1000
0001
0100
0000
,
1002
0000
0100
0000
0010
0000
0100
0003
,
1010
0000
0001
0100
1000
0100
0001
0000
,
0100
0000
0001
0010
0001
0000
1001
0000
,
2010
0000
0001
0000
0010
0000
0100
3000
,
2002
0000
0000
0000
0000
0000
0000
3003
,
1010
0000
0100
0001
1000
0001
0100
0000
,
0020
0000
1000
0000
0000
0000
1000
0030
,
1100
0000
0001
1000
0001
1000
0010
0000
,
0200
0000
0001
0000
0000
0000
0001
0300
,
1010
0000
0001
1000
0001
1000
0010
0000
,
1010
0000
0001
0010
0001
0000
1000
0001
,
1010
0000
0001
0010
0100
0010
0100
0000
,
2002
0000
0000
0000
0000
3003
0100
0010
,
1001
0000
0010
1000
0010
0000
0000
0000
,
0001
0010
0000
1000
0000
0100
0000
0000
,
1001
0000
1000
0100
1000
0000
0000
0000
,
0001
0100
0000
1000
0000
0010
0000
0000
,
1001
0000
0001
1000
0001
0000
0000
0000
,
0010
1000
0000
0100
0000
0001
0000
0000
,
0001
1000
0001
0000
0000
0000
0000
0000
0000
0000
0010
0000
1000
0000
1000
0000
,
1000
0001
0100
0000
0010
0000
0100
0000
,
1001
0000
0000
0000
;

//---------------dance-single - ----------------
#NOTEDATA:;
#CHARTNAME:;
#STEPSTYPE:dance-single;
#DESCRIPTION:;
#CHARTSTYLE:;
#DIFFICULTY:Medium;
#METER:8;
#RADARVALUES:0.414353,0.407634,0.174202,0.121942,0.000000,299.000000,20.000000,14.000000,0.000000,0.000000,0.000000,0.000000,0.000000,0.414353,0.407634,0.174202,0.121942,0.000000,299.000000,20.000000,14.000000,0.000000,0.000000,0.000000,0.000000,0.000000;
#CREDIT:usaminseijin;
#NOTES:
0000
0000
0000
0000
,
0000
0000
0000
0000
,
0000
0000
0000
0000
,
0000
0000
0000
0000
,
0000
0000
0000
0000
,
0000
0000
0000
0000
,
1000
0000
0001
1000
0000
1000
0001
0000
,
0100
0010
0100
0001
,
1000
0000
0001
0100
0000
0100
0001
0000
,
1000
0010
1000
0001
,
1000
0000
0010
0100
0000
0100
0001
0000
,
0010
0001
1000
0001
,
0010
0000
0100
1000
0000
1000
0010
0000
,
1000
0001
1000
0010
,
1001
0000
0010
1000
0000
1000
0010
0000
,
0100
0001
1000
0001
,
1000
0100
0001
0100
,
1000
0000
0100
0001
0100
0000
0001
0000
,
1000
0000
0100
0001
0000
0001
1000
0000
,
0010
0000
0001
1000
0001
0000
1000
0000
,
1000
0100
0001
0100
,
1000
0010
0001
0100
,
0110
0000
0010
0100
0000
0100
0001
0000
,
1000
0010
0100
0001
,
0010
1000
0100
0001
,
1000
0000
0001
1000
0001
0000
0100
0000
,
1000
0000
0001
1000
0000
1000
0001
0000
,
1000
0000
0001
0100
0001
0000
1000
0000
,
0100
0010
0001
1000
,
0010
1000
0100
0010
,
1001
0000
0010
1000
0000
0100
0001
0000
,
0010
1000
0100
0001
,
0100
1000
0100
0001
,
0100
0000
1000
0001
1000
0000
0000
0000
,
1000
0000
0001
1000
0000
0001
1000
0000
,
0100
0001
0010
0100
,
1000
0000
0001
0000
1000
0000
0100
0001
,
0010
1000
0101
0000
,
0110
0000
1000
0010
0000
0100
0001
0000
,
0100
0010
1000
0001
,
1001
1000
0010
0100
,
0001
0000
0100
0010
1000
0000
0001
0000
,
0100
0000
0010
0100
0000
0100
0001
0000
,
1000
0100
0010
0001
,
1000
0001
0010
0001
,
0010
0001
1001
0000
,
1020
0000
0000
1030
0000
0000
0100
0000
,
1002
0000
0000
0103
0000
0000
1000
0000
,
0120
0000
0000
0130
0000
0000
1000
0000
,
2002
0000
3003
0000
,
2010
0000
0000
3010
0000
0000
0001
0000
,
2001
0000
0000
3100
0000
0000
0100
0000
,
2001
0000
0000
3010
0000
0000
0100
0000
,
0220
0000
0330
0000
,
0100
0000
0001
1000
0001
1000
0010
0000
,
1001
0100
1000
0100
,
0010
0000
1000
0001
1000
0001
0100
0000
,
1001
0100
0010
0100
,
1000
0000
0001
0100
1000
0100
0001
0000
,
0100
0000
0001
0010
0001
0000
1000
0000
,
0010
0001
0010
0100
,
2002
0000
3003
0000
,
0010
0000
0100
0001
1000
0001
0100
0000
,
0020
0000
0000
0030
,
0100
0000
0001
1000
0001
1000
0010
0000
,
0200
0000
0000
0300
,
0100
0000
0001
1000
0001
1000
0010
0000
,
1000
0000
0001
0010
0001
0000
1000
0001
,
1000
0001
0100
0010
,
1001
0000
0000
0000
0000
0000
1000
0001
,
1000
0000
0010
1000
0010
0000
0000
0000
,
0001
0010
0000
1000
0000
0100
0000
0000
,
0001
0000
1000
0100
1000
0000
0000
0000
,
0001
0100
0000
1000
0000
0010
0000
0000
,
1000
0000
0001
1000
0001
0000
0000
0000
,
0010
1000
0000
0100
0000
0001
0000
0000
,
0001
0001
0000
0000
0000
0010
1000
1000
,
0001
0100
0010
0100
,
1001
0000
0000
0000
;

//---------------dance-single - ----------------
#NOTEDATA:;
#CHARTNAME:;
#STEPSTYPE:dance-single;
#DESCRIPTION:;
#CHARTSTYLE:;
#DIFFICULTY:Easy;
#METER:4;
#RADARVALUES:0.294900,0.271756,0.078391,0.000000,0.000000,228.000000,9.000000,0.000000,0.000000,0.000000,0.000000,0.000000,0.000000,0.294900,0.271756,0.078391,0.000000,0.000000,228.000000,9.000000,0.000000,0.000000,0.000000,0.000000,0.000000,0.000000;
#CREDIT:usaminseijin;
#NOTES:
0000
0000
0000
0000
,
0000
0000
0000
0000
,
0000
0000
0000
0000
,
0000
0000
0000
0000
,
0000
0000
0000
0000
,
0000
0000
0000
0000
,
1000
0000
0000
0001
0000
0000
1000
0000
,
0100
0010
0100
0000
,
1000
0001
0100
0001
,
1000
0010
1000
0000
,
1000
0000
0000
0100
0000
0000
0001
0000
,
0100
0001
1000
0000
,
0010
0100
0001
0010
,
1000
0001
1000
0000
,
1000
0000
0000
0001
0000
0000
0010
0000
,
0100
0001
1000
0000
,
1000
0100
0001
0100
,
1000
0100
0001
0000
,
1000
0000
0000
0001
0000
0000
1000
0000
,
0010
1000
0001
0000
,
1000
0100
0001
0100
,
1000
0010
0001
0000
,
0010
0000
0000
0100
0000
0000
0001
0000
,
1000
0010
0100
0000
,
0010
1000
0100
0001
,
1000
0001
0100
0000
,
1000
0000
0000
0001
0000
0000
1000
0000
,
0010
0001
0100
0000
,
0100
0010
0001
1000
,
0010
1000
0100
0000
,
0001
0000
0000
1000
0000
0000
0001
0000
,
0010
1000
0100
0000
,
0100
1000
0100
0001
,
0100
1000
0100
0000
,
1000
0000
0000
0001
0000
0000
1000
0000
,
0100
0001
0010
0000
,
1000
0001
1000
0100
,
0010
1000
0001
0000
,
0100
0000
0000
0010
0000
0000
0001
0000
,
0100
0010
1000
0000
,
0001
1000
0010
0100
,
0001
0100
1000
0000
,
0010
0000
0000
0100
0000
0000
0001
0000
,
1000
0100
0010
0000
,
1000
0001
0010
0001
,
1000
0001
1000
0000
,
0010
0000
0000
1000
0000
0000
0100
0000
,
0001
0000
0000
0100
0000
0000
1000
0000
,
0010
0000
0000
0100
0000
0000
1000
0000
,
1001
0000
0000
0000
,
1000
0000
0000
0010
0000
0000
0001
0000
,
1000
0000
0000
0100
0000
0000
0010
0000
,
1000
0000
0000
0010
0000
0000
0100
0000
,
0110
0000
0000
0000
,
0100
1000
0001
0010
,
1001
0100
0000
0100
,
0010
1000
0001
0100
,
1001
0100
0000
0100
,
1000
0001
1000
0001
,
0100
0001
0010
1000
,
0010
0001
0010
0100
,
1001
0000
0000
0000
,
0010
0100
1000
0100
,
0110
0000
0000
0000
,
0100
0001
1000
0010
,
0110
0000
0000
0000
,
0100
0001
1000
0010
,
1000
0001
0100
0001
,
1000
0001
0100
0010
,
1001
0000
0000
0001
,
1000
0000
0010
1000
0010
0000
0000
0000
,
0001
0000
0000
1000
0000
0000
0000
0000
,
1000
0000
0001
0100
0001
0000
0000
0000
,
0001
0000
0000
1000
0000
0000
0000
0000
,
1000
0000
0010
0100
0010
0000
0000
0000
,
0100
0000
0000
0010
0000
0000
0000
0000
,
0001
0001
0000
0000
0000
0010
0000
1000
,
0001
0100
0010
0100
,
1001
0000
0000
0000
;

//---------------dance-single - ----------------
#NOTEDATA:;
#CHARTNAME:;
#STEPSTYPE:dance-single;
#DESCRIPTION:;
#CHARTSTYLE:;
#DIFFICULTY:Beginner;
#METER:1;
#RADARVALUES:0.190378,0.169847,0.060971,0.000000,0.000000,146.000000,7.000000,0.000000,0.000000,0.000000,0.000000,0.000000,0.000000,0.190378,0.169847,0.060971,0.000000,0.000000,146.000000,7.000000,0.000000,0.000000,0.000000,0.000000,0.000000,0.000000;
#CREDIT:usaminseijin;
#NOTES:
// measure 0
0000
0000
0000
0000
,  // measure 1
0000
0000
0000
0000
,  // measure 2
0000
0000
0000
0000
,  // measure 3
0000
0000
0000
0000
,  // measure 4
0000
0000
0000
0000
,  // measure 5
0000
0000
0000
0000
,  // measure 6
1000
0000
1000
0000
,  // measure 7
0100
0000
0100
0000
,  // measure 8
0001
0000
0001
0000
,  // measure 9
1000
0000
1000
0000
,  // measure 10
0010
0000
0010
0000
,  // measure 11
0100
0000
0100
0000
,  // measure 12
0001
0000
0001
0000
,  // measure 13
1000
0000
1000
0000
,  // measure 14
0010
0000
0010
0000
,  // measure 15
0100
0000
0100
0000
,  // measure 16
0001
0000
0001
0000
,  // measure 17
0010
0010
0010
0000
,  // measure 18
1000
0000
1000
0000
,  // measure 19
0010
0000
0010
0000
,  // measure 20
0001
0000
0001
0000
,  // measure 21
1000
1000
1000
0000
,  // measure 22
0010
0000
0010
0000
,  // measure 23
1000
0000
1000
0000
,  // measure 24
0100
0000
0100
0000
,  // measure 25
0001
0001
0001
0000
,  // measure 26
1000
0000
1000
0000
,  // measure 27
0010
0000
0010
0000
,  // measure 28
0001
0000
0001
0000
,  // measure 29
0100
0100
0100
0000
,  // measure 30
0001
0000
0001
0000
,  // measure 31
0100
0000
0100
0000
,  // measure 32
1000
0000
1000
0000
,  // measure 33
0001
0001
0001
0000
,  // measure 34
1000
0000
1000
0000
,  // measure 35
0100
0000
0100
0000
,  // measure 36
0001
0000
0001
0000
,  // measure 37
0010
0010
0010
0000
,  // measure 38
0100
0000
0100
0000
,  // measure 39
1000
0000
1000
0000
,  // measure 40
0001
0000
0001
0000
,  // measure 41
0010
0010
0010
0000
,  // measure 42
1000
0000
1000
0000
,  // measure 43
0100
0000
0100
0000
,  // measure 44
0001
0000
0001
0000
,  // measure 45
1000
1000
1000
0000
,  // measure 46
0010
0000
0000
0100
,  // measure 47
0001
0000
0000
1000
,  // measure 48
0010
0000
0000
1000
,  // measure 49
0001
0000
0000
0000
,  // measure 50
1000
0000
0000
0001
,  // measure 51
1000
0000
0000
0010
,  // measure 52
1000
0000
0000
0100
,  // measure 53
0010
0000
0000
0000
,  // measure 54
0100
0000
0100
0000
,  // measure 55
1001
0000
0000
0000
,  // measure 56
0010
0000
0010
0000
,  // measure 57
1001
0000
0000
0000
,  // measure 58
1000
0000
1000
0000
,  // measure 59
0100
0000
0100
0000
,  // measure 60
0010
0000
0010
0000
,  // measure 61
1001
0000
0000
0000
,  // measure 62
1000
0000
1000
0000
,  // measure 63
0110
0000
0000
0000
,  // measure 64
0001
0000
0001
0000
,  // measure 65
0110
0000
0000
0000
,  // measure 66
0100
0000
0100
0000
,  // measure 67
1000
0000
1000
0000
,  // measure 68
0001
0000
0001
0000
,  // measure 69
1001
0000
0000
0000
,  // measure 70
1000
0000
0001
0000
,  // measure 71
0001
0000
1000
0000
,  // measure 72
1000
0000
0100
0000
,  // measure 73
0001
0000
0010
0000
,  // measure 74
1000
0000
0001
0000
,  // measure 75
0100
0000
0010
0000
,  // measure 76
0001
0000
0010
0000
,  // measure 77
0001
0100
0000
0100
,  // measure 78
1001
0000
0000
0000
;
