#VERSION:0.82;
#TITLE:Drama;
#SUBTITLE:;
#ARTIST:Pros feat. Khylin;
#TITLETRANSLIT:Drama;
#SUBTITLETRANSLIT:;
#ARTISTTRANSLIT:Pros feat. Khylin;
#GENRE:Shoegazing;
#ORIGIN:;
#CREDIT:;
#BANNER:Drama.png;
#BACKGROUND:Drama-bg.png;
#PREVIEWVID:;
#JACKET:Drama-jacket.png;
#CDIMAGE:;
#DISCIMAGE:;
#LYRICSPATH:Drama.lrc;
#CDTITLE:cdtitle.png;
#MUSIC:Drama.ogg;
#OFFSET:0.000000;
#SAMPLESTART:13.241000;
#SAMPLELENGTH:13.242000;
#SELECTABLE:YES;
#BPMS:0.000=145.000;
#STOPS:;
#DELAYS:;
#WARPS:;
#TIMESIGNATURES:0.000=4=4;
#TICKCOUNTS:0.000=4;
#COMBOS:0.000=1;
#SPEEDS:0.000=1.000=0.000=0;
#SCROLLS:0.000=1.000;
#FAKES:;
#LABELS:0.000=Song Start;
#BGCHANGES:;
#KEYSOUNDS:;
#ATTACKS:
;

//---------------dance-single - ----------------
#NOTEDATA:;
#CHARTNAME:;
#STEPSTYPE:dance-single;
#DESCRIPTION:;
#CHARTSTYLE:;
#DIFFICULTY:Hard;
#METER:9;
#RADARVALUES:0.502643,0.454917,0.808544,0.000000,0.000000,305.000000,91.000000,0.000000,0.000000,0.000000,0.000000,0.000000,0.000000,0.502643,0.454917,0.808544,0.000000,0.000000,305.000000,91.000000,0.000000,0.000000,0.000000,0.000000,0.000000,0.000000;
#CREDIT:usamiseijin;
#NOTES:
0000
0000
0000
0000
,
0000
0000
0000
0000
,
0000
0000
0000
0000
,
0000
0000
0000
0000
,
0000
0000
0000
0000
,
0000
0000
0000
0000
,
0000
0000
0000
0000
,
0100
0100
0010
0010
,
1001
0000
1001
0000
0100
0010
0100
0000
,
0110
0000
0110
0000
1000
0001
1000
0000
,
1010
0000
1010
0000
0100
0001
0100
0000
,
1100
0000
1100
0000
0010
0001
0010
0000
,
0110
0000
0110
0000
0100
0001
0100
0000
,
1001
0000
1001
0000
1000
0010
1000
0000
,
0110
0000
0110
0000
1000
0100
1000
0000
,
1001
0000
1001
0000
0001
0010
0001
0000
,
0110
0000
1001
0000
0100
0010
0100
0000
,
1001
0000
0110
0000
1000
0001
1000
0000
,
1010
0000
0101
0000
1000
0010
1000
0000
,
0011
0000
1100
0000
0010
0001
0010
0000
,
0110
0000
1010
0000
0100
0010
0100
0000
,
1001
0000
0101
0000
1000
0001
1000
0000
,
0110
0000
0101
0000
0010
0100
0010
0000
,
1001
0000
1010
0000
0001
1000
0001
0000
,
1000
0000
1000
0000
0010
0100
0010
0100
,
0000
0001
1000
0001
1000
0001
0010
0000
,
0001
0000
0001
0000
0100
0010
0100
0010
,
0000
1000
0001
1000
0001
1000
0100
0000
,
1000
0000
1000
0000
0010
1000
0010
1000
,
0000
0001
0100
0001
0100
0001
0010
0000
,
0001
0000
0001
0000
0010
0001
0010
0001
,
0000
1000
0100
1000
0100
1000
0010
0000
,
1010
0000
1001
0000
1100
0000
1000
0010
,
0100
0001
0100
1000
0100
0001
0100
0000
,
1010
0010
0110
0010
,
0001
1000
0001
0100
0001
0000
0001
0000
,
1010
0000
1100
0000
1010
0000
1000
0001
,
0100
1000
0100
0001
0100
1000
0100
0000
,
0101
0001
0011
0001
,
0100
0001
0100
0010
0100
0000
0100
0000
,
1001
0000
1001
0000
0100
0010
1001
0000
,
1001
0000
1001
0000
0010
0100
1001
0000
,
0110
0000
0110
0000
1000
0001
0110
0000
,
0110
0000
0110
0000
0001
1000
0110
0000
,
1010
0000
1010
0000
0100
0001
1010
0000
,
1010
0000
1010
0000
0001
0100
1010
0000
,
0101
0000
0101
0000
1000
0010
0101
0000
,
0101
0000
0101
0000
0010
1000
0101
0000
,
1010
0000
0011
0000
1000
0100
0011
0000
,
1010
0000
0011
0000
0100
1000
0011
0000
,
0101
0000
1100
0000
0010
0001
1100
0000
,
0101
0000
1100
0000
0001
0010
1100
0000
,
0110
0000
1001
0000
0100
0010
1001
0000
,
0110
0000
1001
0000
0010
0100
1001
0000
,
1001
0000
0110
0000
1000
0001
0110
0000
,
1001
0000
0110
0000
0001
1000
0110
0000
,
0100
0000
0100
0000
1000
0001
1000
0001
,
0000
0010
0100
0010
0100
0010
1000
0000
,
0010
0000
0010
0000
1000
0001
1000
0001
,
0000
0100
0010
0100
0010
0100
0001
0000
,
0010
0000
0010
0000
1000
0010
1000
0010
,
0000
0100
0001
0100
0001
0100
1000
0000
,
0010
0000
0010
0000
0001
0010
0001
0010
,
0000
0100
1000
0100
1000
0100
0001
0000
,
1001
0000
0000
0000
;

//---------------dance-single - ----------------
#NOTEDATA:;
#CHARTNAME:;
#STEPSTYPE:dance-single;
#DESCRIPTION:;
#CHARTSTYLE:;
#DIFFICULTY:Medium;
#METER:7;
#RADARVALUES:0.382059,0.341188,0.151047,0.000000,0.000000,284.000000,17.000000,0.000000,0.000000,0.000000,0.000000,0.000000,0.000000,0.382059,0.341188,0.151047,0.000000,0.000000,284.000000,17.000000,0.000000,0.000000,0.000000,0.000000,0.000000,0.000000;
#CREDIT:usamiseijin;
#NOTES:
0000
0000
0000
0000
,
0000
0000
0000
0000
,
0000
0000
0000
0000
,
0000
0000
0000
0000
,
0000
0000
0000
0000
,
0000
0000
0000
0000
,
0000
0000
0000
0000
,
0100
0100
0010
0010
,
1000
0000
0001
0000
0100
0010
0100
0000
,
0010
0000
0100
0000
1000
0001
1000
0000
,
1000
0000
0010
0000
0100
0001
0100
0000
,
1000
0000
0100
0000
0010
0001
0010
0000
,
0100
0000
0010
0000
0100
0001
0100
0000
,
1000
0000
0001
0000
1000
0010
1000
0000
,
0100
0000
0010
0000
1000
0100
1000
0000
,
1000
0000
0001
0000
0001
0010
0001
0000
,
0010
0000
1000
0000
0100
0010
0100
0000
,
0001
0000
0100
0000
1000
0001
1000
0000
,
0010
0000
0001
0000
1000
0010
1000
0000
,
0001
0000
1000
0000
0010
0001
0010
0000
,
0100
0000
1000
0000
0100
0010
0100
0000
,
0001
0000
0100
0000
1000
0001
1000
0000
,
0100
0000
0001
0000
0010
0100
0010
0000
,
1000
0000
0010
0000
0001
1000
0001
0000
,
1000
0000
1000
0000
0010
0100
0010
0100
,
0000
0001
1000
0001
1000
0001
0010
0000
,
0001
0000
0001
0000
0100
0010
0100
0010
,
0000
1000
0001
1000
0001
1000
0100
0000
,
1000
0000
1000
0000
0010
1000
0010
1000
,
0000
0001
0100
0001
0100
0001
0010
0000
,
0001
0000
0001
0000
0010
0001
0010
0001
,
0000
1000
0100
1000
0100
1000
0010
0000
,
0010
0000
0001
0000
0100
0000
1000
0010
,
0000
0001
0000
1000
0000
0001
0000
0000
,
1000
0000
0100
0000
,
0000
0001
0000
0100
0000
0000
0000
0000
,
1000
0000
0100
0000
0010
0000
0000
0001
,
0000
1000
0000
0001
0000
1000
0000
0000
,
0001
0000
0010
0000
,
0000
0001
0000
0010
0000
0000
0000
0000
,
1000
0000
1001
0000
0100
0010
1000
0000
,
0001
0000
1001
0000
0010
0100
0001
0000
,
0100
0000
0110
0000
1000
0001
0010
0000
,
0100
0000
0110
0000
0001
1000
0010
0000
,
1000
0000
1010
0000
0100
0001
0010
0000
,
1000
0000
1010
0000
0001
0100
0010
0000
,
0100
0000
0101
0000
1000
0010
0001
0000
,
0100
0000
0101
0000
0010
1000
0001
0000
,
1000
0000
0011
0000
1000
0100
0010
0000
,
1000
0000
0011
0000
0100
1000
0010
0000
,
0001
0000
1100
0000
0010
0001
0100
0000
,
0001
0000
1100
0000
0001
0010
0100
0000
,
0100
0000
1001
0000
0100
0010
0001
0000
,
0100
0000
1001
0000
0010
0100
0001
0000
,
0001
0000
0110
0000
1000
0001
0010
0000
,
0001
0000
0110
0000
0001
1000
0010
0000
,
0100
0000
0100
0000
1000
0001
1000
0001
,
0000
0010
0100
0010
0100
0010
1000
0000
,
0010
0000
0010
0000
1000
0001
1000
0001
,
0000
0100
0010
0100
0010
0100
0001
0000
,
0010
0000
0010
0000
1000
0010
1000
0010
,
0000
0100
0001
0100
0001
0100
1000
0000
,
0010
0000
0010
0000
0001
0010
0001
0010
,
0000
0100
1000
0100
1000
0100
0001
0000
,
1001
0000
0000
0000
;

//---------------dance-single - ----------------
#NOTEDATA:;
#CHARTNAME:;
#STEPSTYPE:dance-single;
#DESCRIPTION:;
#CHARTSTYLE:;
#DIFFICULTY:Easy;
#METER:4;
#RADARVALUES:0.290670,0.255891,0.008885,0.000000,0.000000,228.000000,1.000000,0.000000,0.000000,0.000000,0.000000,0.000000,0.000000,0.290670,0.255891,0.008885,0.000000,0.000000,228.000000,1.000000,0.000000,0.000000,0.000000,0.000000,0.000000,0.000000;
#CREDIT:usamiseijin;
#NOTES:
0000
0000
0000
0000
,
0000
0000
0000
0000
,
0000
0000
0000
0000
,
0000
0000
0000
0000
,
0000
0000
0000
0000
,
0000
0000
0000
0000
,
0000
0000
0000
0000
,
0100
0100
0010
0010
,
1000
0001
0100
0010
,
0010
0100
1000
0001
,
1000
0010
0100
0001
,
1000
0100
0010
0001
,
0100
0010
0100
0001
,
1000
0001
1000
0010
,
0100
0010
1000
0010
,
1000
0001
0001
0010
,
0010
1000
0100
0010
,
0001
0100
1000
0001
,
0010
0001
1000
0010
,
0001
1000
0010
0001
,
0100
1000
0100
0010
,
0001
0100
1000
0001
,
0100
0001
0010
0100
,
1000
0010
0001
0001
,
1000
0000
1000
0000
0010
0000
0010
0100
,
0000
0001
0000
0001
0000
0001
0010
0000
,
0001
0000
0001
0000
0100
0000
0100
0010
,
0000
1000
0000
1000
0000
1000
0100
0000
,
1000
0000
1000
0000
0010
0000
0010
1000
,
0000
0001
0000
0001
0000
0001
0010
0000
,
0001
0000
0001
0000
0010
0000
0010
0001
,
0000
1000
0000
1000
0000
1000
0010
0000
,
0010
0000
0001
0000
0100
0000
1000
0010
,
0000
0001
0000
1000
0000
0001
0000
0000
,
1000
0000
0100
0000
,
0000
0001
0000
0100
0000
0000
0000
0000
,
1000
0000
0100
0000
0010
0000
0000
0001
,
0000
1000
0000
0001
0000
1000
0000
0000
,
0001
0000
0010
0000
,
0000
0001
0000
0010
0000
0000
0000
0000
,
1000
0001
0100
1000
,
0001
1000
0010
0001
,
0100
0010
1000
0010
,
0100
0010
0001
0010
,
1000
0010
0100
0010
,
1000
0010
0001
0010
,
0100
0001
1000
0001
,
0100
0001
0010
0001
,
1000
0001
1000
0010
,
1000
0001
0100
0010
,
0001
1000
0010
0100
,
0001
1000
0001
0100
,
0100
1000
0100
0001
,
0100
1000
0010
0001
,
0001
0100
1000
0010
,
0001
0100
0001
0010
,
0100
0000
0100
0000
1000
0000
1000
0001
,
0000
0010
0000
0010
0000
0010
1000
0000
,
0010
0000
0010
0000
1000
0000
1000
0001
,
0000
0100
0000
0100
0000
0100
0001
0000
,
0010
0000
0010
0000
1000
0000
1000
0010
,
0000
0100
0000
0100
0000
0100
1000
0000
,
0010
0000
0010
0000
0001
0000
0001
0010
,
0000
0100
0000
0100
0000
0100
0001
0000
,
1001
0000
0000
0000
;

//---------------dance-single - ----------------
#NOTEDATA:;
#CHARTNAME:;
#STEPSTYPE:dance-single;
#DESCRIPTION:;
#CHARTSTYLE:;
#DIFFICULTY:Beginner;
#METER:1;
#RADARVALUES:0.085043,0.099513,0.008885,0.000000,0.000000,66.000000,1.000000,0.000000,0.000000,0.000000,0.000000,0.000000,0.000000,0.085043,0.099513,0.008885,0.000000,0.000000,66.000000,1.000000,0.000000,0.000000,0.000000,0.000000,0.000000,0.000000;
#CREDIT:usaminseijin;
#NOTES:
// measure 0
0000
0000
0000
0000
,  // measure 1
0000
0000
0000
0000
,  // measure 2
0000
0000
0000
0000
,  // measure 3
0000
0000
0000
0000
,  // measure 4
0000
0000
0000
0000
,  // measure 5
0000
0000
0000
0000
,  // measure 6
0000
0000
0000
0000
,  // measure 7
0100
0000
0000
0000
,  // measure 8
1000
0000
0000
0000
,  // measure 9
0010
0000
0000
0000
,  // measure 10
0001
0000
0000
0000
,  // measure 11
1000
0000
0000
0000
,  // measure 12
0100
0000
0000
0000
,  // measure 13
0001
0000
0000
0000
,  // measure 14
0100
0000
0000
0000
,  // measure 15
1000
0000
0000
0000
,  // measure 16
0010
0000
0000
0000
,  // measure 17
0001
0000
0000
0000
,  // measure 18
0100
0000
0000
0000
,  // measure 19
1000
0000
0000
0000
,  // measure 20
0100
0000
0000
0000
,  // measure 21
0001
0000
0000
0000
,  // measure 22
0100
0000
0000
0000
,  // measure 23
1000
0000
0000
0000
,  // measure 24
0000
0000
0000
0000
,  // measure 25
0000
0000
0000
0000
,  // measure 26
0000
0000
0000
0000
,  // measure 27
0000
0000
0000
0000
,  // measure 28
0000
0000
0000
0000
,  // measure 29
0000
0000
0000
0000
,  // measure 30
0000
0000
0000
0000
,  // measure 31
0000
0000
0000
0000
,  // measure 32
0010
0000
0010
0000
,  // measure 33
0001
0000
0001
0000
,  // measure 34
1000
0000
1000
0000
,  // measure 35
0100
0000
0100
0000
,  // measure 36
1000
0000
1000
0000
,  // measure 37
0001
0000
0001
0000
,  // measure 38
0010
0000
0010
0000
,  // measure 39
0100
0000
0100
0000
,  // measure 40
1000
0000
0100
0000
,  // measure 41
0001
0000
0010
0000
,  // measure 42
0100
0000
1000
0000
,  // measure 43
0100
0000
0001
0000
,  // measure 44
1000
0000
0100
0000
,  // measure 45
1000
0000
0001
0000
,  // measure 46
0100
0000
1000
0000
,  // measure 47
0100
0000
0010
0000
,  // measure 48
1000
0000
0001
0000
,  // measure 49
1000
0000
0100
0000
,  // measure 50
0001
0000
0010
0000
,  // measure 51
0001
0000
1000
0000
,  // measure 52
0100
0000
1000
0000
,  // measure 53
0100
0000
0010
0000
,  // measure 54
0001
0000
1000
0000
,  // measure 55
0100
0000
0010
0000
,  // measure 56
1001
0000
0000
0000
;
