#VERSION:0.82;
#TITLE:誰でもいいから付き合いたい;
#SUBTITLE:;
#ARTIST:卓球少年 feat. 鏡音レン;
#TITLETRANSLIT:Dare demo ii kara tsuki aitai;
#SUBTITLETRANSLIT:;
#ARTISTTRANSLIT:Takkyuu Shonen feat. Len Kagamine;
#GENRE:J-Rock;
#ORIGIN:;
#CREDIT:;
#BANNER:Dare demo ii kara tsuki aitai.png;
#BACKGROUND:Dare demo ii kara tsuki aitai-bg.png;
#PREVIEWVID:;
#JACKET:Dare demo ii kara tsuki aitai-jacket.png;
#CDIMAGE:;
#DISCIMAGE:;
#LYRICSPATH:Dare demo ii kara tsuki aitai.lrc;
#CDTITLE:cdtitle.png;
#MUSIC:Dare demo ii kara tsuki aitai.ogg;
#OFFSET:0.000000;
#SAMPLESTART:1.165000;
#SAMPLELENGTH:9.320000;
#SELECTABLE:YES;
#BPMS:0.000=206.000;
#STOPS:;
#DELAYS:;
#WARPS:;
#TIMESIGNATURES:0.000=4=4;
#TICKCOUNTS:0.000=4;
#COMBOS:0.000=1;
#SPEEDS:0.000=1.000=0.000=0;
#SCROLLS:0.000=1.000;
#FAKES:;
#LABELS:0.000=Song Start;
#BGCHANGES:-1.000=Dare demo ii kara tsuki aitai.mp4=1.000=0=0=0=StretchNoLoop====,
99999=-nosongbg-=1.000=0=0=0 // don't automatically add -songbackground-
;
#KEYSOUNDS:;
#ATTACKS:
;

//---------------dance-single - ----------------
#NOTEDATA:;
#CHARTNAME:;
#STEPSTYPE:dance-single;
#DESCRIPTION:;
#CHARTSTYLE:;
#DIFFICULTY:Hard;
#METER:12;
#RADARVALUES:0.758844,0.627367,0.562263,0.281132,0.007398,302.000000,38.000000,19.000000,0.000000,0.000000,4.000000,0.000000,0.000000,0.758844,0.627367,0.562263,0.281132,0.007398,302.000000,38.000000,19.000000,0.000000,0.000000,4.000000,0.000000,0.000000;
#CREDIT:usaminseijin;
#NOTES:
// measure 0
0000
0000
0000
0000
,  // measure 1
1000
0001
1000
0001
0110
0000
0010
0100
,  // measure 2
0010
1000
0010
0100
0010
0000
1000
0001
,  // measure 3
0010
0001
0100
0001
0100
0000
1000
0001
,  // measure 4
0010
0001
0100
0001
0100
0000
0100
0010
,  // measure 5
1000
0001
1000
0001
0110
0000
0010
0100
,  // measure 6
0010
1000
0010
0100
0010
0000
1001
0000
,  // measure 7
0100
0010
0100
0010
1000
0001
1000
0002
,  // measure 8
0000
0000
0000
0003
,  // measure 9
1000
0010
1000
0010
0100
0010
0100
0001
,  // measure 10
1000
0001
1000
0001
0220
0000
0330
0000
,  // measure 11
0001
0000
0001
1000
0010
1000
0010
1000
,  // measure 12
0100
0010
0100
0010
2002
0000
3003
0000
,  // measure 13
0100
0010
0100
0010
1000
0010
1000
0010
,  // measure 14
0100
0001
0100
0001
0220
0000
0330
0000
,  // measure 15
0010
1000
0010
1000
0001
0100
0001
0100
,  // measure 16
0010
0100
0010
0100
2002
0000
3003
0000
,  // measure 17
1001
0000
1000
0010
1000
0010
0100
0010
,  // measure 18
0100
0001
0100
0001
0220
0000
0330
0000
,  // measure 19
1000
0010
1000
0010
0100
0010
0100
0010
,  // measure 20
1000
0010
0001
0010
2002
0000
3003
0000
,  // measure 21
0100
0010
0100
0010
1000
0010
1000
0010
,  // measure 22
0100
0001
0100
0001
0220
0000
0330
0000
,  // measure 23
1000
0001
1000
0001
0100
0001
0100
0001
,  // measure 24
1000
0010
0100
0010
2002
0000
3003
0000
,  // measure 25
1000
0001
1000
0001
0110
0000
0010
0100
,  // measure 26
0010
1000
0010
0100
0010
0000
1000
0001
,  // measure 27
0010
0001
0100
0001
0100
0000
1000
0001
,  // measure 28
0010
0001
0100
0001
0100
0000
0100
0010
,  // measure 29
1000
0001
1000
0001
0110
0000
0010
0100
,  // measure 30
0010
1000
0010
0100
0010
0000
1001
0000
,  // measure 31
0100
0010
0000
0000
1000
0001
0000
0000
,  // measure 32
1000
0001
0010
0000
1000
0000
0001
0000
,  // measure 33
1010
0000
1010
0000
1010
0000
0010
1000
,  // measure 34
1001
0000
1001
0000
1001
0000
1000
0001
,  // measure 35
0101
0000
0101
0000
0101
0000
0100
0001
,  // measure 36
0110
0000
0110
0000
0110
0000
0100
0010
,  // measure 37
1010
0000
1010
0000
1010
0000
0010
1000
,  // measure 38
1001
0000
1001
0000
1001
0000
1000
0001
,  // measure 39
1000
0010
0000
0000
0100
0001
0000
0000
,  // measure 40
1000
0010
0000
0010
4004
0000
0000
3003
,  // measure 41
1000
0010
1000
0010
0100
0001
0100
0001
,  // measure 42
1000
0001
1000
0001
1001
0000
0100
0010
,  // measure 43
1000
0001
1000
0001
0100
0010
0100
0010
,  // measure 44
1000
0010
0100
0001
0110
0000
0100
0010
,  // measure 45
1000
0001
1000
0001
0100
0010
0100
0010
,  // measure 46
1000
0010
0100
0001
1001
0000
0100
0010
,  // measure 47
1000
0001
0000
0000
1000
0010
0000
0000
,  // measure 48
0100
0001
0000
0100
4004
0000
0000
3003
,  // measure 49
1000
0001
0000
0000
1000
0010
0000
0000
,  // measure 50
0000
1000
0002
2000
0000
0000
0000
0000
,  // measure 51
0000
0000
0000
0000
,  // measure 52
0000
0000
0000
0000
0000
0000
0000
0000
0000
0000
0000
0000
3003
0000
0100
0010
,  // measure 53
0100
0000
0000
0000
;

//---------------dance-single - ----------------
#NOTEDATA:;
#CHARTNAME:;
#STEPSTYPE:dance-single;
#DESCRIPTION:;
#CHARTSTYLE:;
#DIFFICULTY:Medium;
#METER:10;
#RADARVALUES:0.621449,0.627367,0.606652,0.133168,0.000000,244.000000,41.000000,9.000000,0.000000,0.000000,0.000000,0.000000,0.000000,0.621449,0.627367,0.606652,0.133168,0.000000,244.000000,41.000000,9.000000,0.000000,0.000000,0.000000,0.000000,0.000000;
#CREDIT:usaminseijin;
#NOTES:
0000
0000
0000
0000
,
1000
0001
1000
0001
0100
0000
0010
0000
,
0010
1000
0010
0100
0010
0000
1000
0000
,
0010
0001
0100
0001
0100
0000
1000
0000
,
0010
0001
0100
0001
0100
0000
0010
0000
,
1000
0001
1000
0001
0100
0000
0010
0000
,
0010
1000
0010
0100
0010
0000
1000
0000
,
0100
0010
0100
0000
1000
0001
1000
0000
,
2002
0000
0000
3003
,
1000
0010
1000
0010
0100
0000
0010
0000
,
1000
0001
1000
0001
2000
0000
3000
0000
,
0001
0000
0001
1000
0001
0000
0010
0000
,
0100
0010
0100
0010
0200
0000
0300
0000
,
0100
0010
0100
0010
1000
0000
0001
0000
,
0100
0001
0100
0001
0200
0000
0300
0000
,
0010
1000
0010
1000
0001
0000
0100
0000
,
0010
0100
0010
0100
0020
0000
0030
0000
,
1001
0000
1000
0010
1000
0000
0010
0000
,
0100
0001
0100
0000
0110
0000
0000
0000
,
1000
0010
1000
0000
0100
0010
0100
0000
,
1000
0010
1000
0000
1001
0000
0000
0000
,
0100
0010
0100
0000
1000
0010
1000
0000
,
0100
0001
0100
0000
0110
0000
0000
0000
,
1000
0001
1000
0000
0100
0001
0100
0000
,
1000
0010
1000
0000
1001
0000
0000
0000
,
1000
0001
1000
0001
0100
0000
0010
0000
,
0010
1000
0010
0100
0010
0000
1000
0000
,
0010
0001
0100
0001
0100
0000
1000
0000
,
0010
0001
0100
0001
0100
0000
0010
0000
,
1000
0001
1000
0001
0100
0000
0010
0000
,
0010
1000
0010
0100
0010
0000
0001
0000
,
0110
0000
1001
0000
,
1010
0001
1000
0001
,
1010
1010
1010
1010
,
1001
1001
1001
1001
,
0101
0101
0101
0101
,
0110
0110
0110
0110
,
1010
1010
1010
1010
,
1001
1001
1001
1001
,
1010
0000
0101
0000
,
1000
0000
0000
0010
2000
0000
3000
0000
,
1000
0010
1000
0010
0100
0000
0010
0000
,
1000
0001
1000
0001
1000
0000
0100
0000
,
1000
0001
1000
0001
0100
0000
0010
0000
,
1000
0010
0100
0001
0100
0000
0010
0000
,
1000
0001
1000
0001
0100
0000
0010
0000
,
1000
0010
0100
0001
1000
0000
0110
0000
,
1001
0000
1010
0000
,
0101
0000
0000
0100
0002
0000
0003
0000
,
1001
0000
1010
0000
,
0000
1000
0001
2000
0000
0000
0000
0000
,
0000
0000
0000
0000
,
0000
0000
0000
0000
0000
0000
3000
0010
,
0100
0000
0000
0000
;

//---------------dance-single - ----------------
#NOTEDATA:;
#CHARTNAME:;
#STEPSTYPE:dance-single;
#DESCRIPTION:;
#CHARTSTYLE:;
#DIFFICULTY:Easy;
#METER:5;
#RADARVALUES:0.412185,0.312944,0.251539,0.059186,0.000000,174.000000,17.000000,4.000000,0.000000,0.000000,0.000000,0.000000,0.000000,0.412185,0.312944,0.251539,0.059186,0.000000,174.000000,17.000000,4.000000,0.000000,0.000000,0.000000,0.000000,0.000000;
#CREDIT:usaminseijin;
#NOTES:
0000
0000
0000
0000
,
1000
0001
0100
0010
,
0100
0010
1000
0010
,
0010
0001
0100
1000
,
0010
0001
0100
1000
,
1000
0001
0100
0010
,
0010
0100
0001
1000
,
0110
0000
1001
0000
,
2002
0000
0000
3003
0000
0000
0000
0000
,
1000
1000
0010
0100
,
0001
1000
0001
0000
,
0001
0001
1000
0001
,
0100
0010
0100
0000
,
0100
0010
1000
0001
,
0100
0001
0100
0000
,
0010
1000
0001
0100
,
0010
0100
0010
0000
,
1001
1000
1000
0010
,
0100
0010
0100
0000
,
1001
1000
0001
0100
,
0010
1000
0001
0000
,
0110
0100
0010
1000
,
0100
0001
0100
0000
,
1001
0100
0001
0100
,
1000
0100
0001
0000
,
1000
0001
0100
0010
,
1000
0010
0100
0010
,
0010
0100
0001
1000
,
0010
0100
0001
0010
,
1000
0001
0100
0010
,
0010
1000
0010
0001
,
0110
0000
1001
0000
,
1000
0001
1000
0001
,
1000
1000
1000
1000
,
0100
0100
0100
0100
,
0001
0001
0001
0001
,
0010
0010
0010
0010
,
1000
1000
1000
1000
,
0100
0100
0100
0100
,
0110
0000
1001
0000
,
1000
0000
0002
0003
,
1000
0010
0100
0010
,
1000
0001
1000
0100
,
1000
0001
0100
0010
,
1000
0100
0001
0010
,
1000
0001
0100
0010
,
0001
0010
1000
0100
,
1001
0000
0110
0000
,
1001
0000
0110
0000
,
1001
0000
0110
0000
,
0000
0000
1000
0002
0000
0000
0000
0000
,
0000
0000
0000
0000
,
0000
0000
0000
0000
0000
0000
0003
1000
;

//---------------dance-single - ----------------
#NOTEDATA:;
#CHARTNAME:;
#STEPSTYPE:dance-single;
#DESCRIPTION:;
#CHARTSTYLE:;
#DIFFICULTY:Beginner;
#METER:3;
#RADARVALUES:0.329748,0.312944,0.133168,0.029593,0.000000,145.000000,9.000000,2.000000,0.000000,0.000000,0.000000,0.000000,0.000000,0.329748,0.312944,0.133168,0.029593,0.000000,145.000000,9.000000,2.000000,0.000000,0.000000,0.000000,0.000000,0.000000;
#CREDIT:usaminseijin;
#NOTES:
0000
0000
0000
0000
,
1000
1000
1000
0000
,
0010
0010
0010
0000
,
0001
0001
0001
0000
,
0100
0100
0100
0000
,
1000
1000
1000
0000
,
0010
0010
0010
0000
,
1000
0000
0001
0000
,
2002
0000
0000
3003
0000
0000
0000
0000
,
1000
1000
0010
0000
,
0001
0001
0100
0000
,
0010
0010
1000
0000
,
0100
0100
0001
0000
,
1000
1000
0100
0000
,
0001
0001
0010
0000
,
1000
1000
0010
0000
,
0100
0100
0001
0000
,
1000
1000
0001
0000
,
0100
0100
0010
0000
,
0001
0001
1000
0000
,
0010
0010
0100
0000
,
0100
0100
0010
0000
,
1000
1000
0001
0000
,
0010
0010
0100
0000
,
0001
0001
1000
0000
,
1000
1000
1000
0000
,
0010
0010
0010
0000
,
0001
0001
0001
0000
,
0100
0100
0100
0000
,
1000
1000
1000
0000
,
0010
0010
0010
0000
,
0100
0000
1000
0000
,
1000
1000
0001
0001
,
1000
1000
1000
0000
,
0100
0100
0100
0000
,
0001
0001
0001
0000
,
0010
0010
0010
0000
,
1000
1000
1000
0000
,
0100
0100
0100
0000
,
0110
0000
1001
0000
,
1000
0000
0001
0000
,
1000
1000
0100
0100
,
0001
0001
0100
0000
,
0001
0001
0010
0010
,
1000
1000
0100
0000
,
1000
1000
0100
0100
,
0010
0010
0001
0000
,
1001
0000
0110
0000
,
1001
0000
0110
0000
,
1001
0000
0110
0000
,
0000
0000
1000
0001
0000
0000
0000
0000
,
0000
0000
0000
0000
,
0000
0000
0000
0000
0000
0000
0000
1000
;
