#VERSION:0.82;
#TITLE:숨, 두번째 이야기;
#SUBTITLE:;
#ARTIST:팝스 feat. SeeU;
#TITLETRANSLIT:Breath, 2nd Story;
#SUBTITLETRANSLIT:;
#ARTISTTRANSLIT:Pops feat. SeeU;
#GENRE:Rock;
#ORIGIN:;
#CREDIT:;
#BANNER:Breath 2nd Story.png;
#BACKGROUND:Breath 2nd Story-bg.png;
#PREVIEWVID:;
#JACKET:Breath 2nd Story-jacket.png;
#CDIMAGE:;
#DISCIMAGE:;
#LYRICSPATH:Breath 2nd Story.lrc;
#CDTITLE:cdtitle.png;
#MUSIC:Breath 2nd Story.ogg;
#OFFSET:0.000000;
#SAMPLESTART:27.429001;
#SAMPLELENGTH:18.295000;
#SELECTABLE:YES;
#BPMS:0.000=105.000;
#STOPS:;
#DELAYS:;
#WARPS:;
#TIMESIGNATURES:0.000=4=4;
#TICKCOUNTS:0.000=4;
#COMBOS:0.000=1;
#SPEEDS:0.000=1.000=0.000=0;
#SCROLLS:0.000=1.000;
#FAKES:;
#LABELS:0.000=Song Start;
#BGCHANGES:0.000=Breath 2nd Story.mp4=1.000=0=0=0=StretchNoLoop====,
99999=-nosongbg-=1.000=0=0=0 // don't automatically add -songbackground-
;
#KEYSOUNDS:;
#ATTACKS:
;

//---------------dance-single - ----------------
#NOTEDATA:;
#CHARTNAME:;
#STEPSTYPE:dance-single;
#DESCRIPTION:;
#CHARTSTYLE:;
#DIFFICULTY:Hard;
#METER:14;
#RADARVALUES:0.628430,0.608543,0.469334,0.182961,0.715934,471.000000,59.000000,23.000000,0.000000,0.000000,0.000000,0.000000,0.000000,0.628430,0.608543,0.469334,0.182961,0.715934,471.000000,59.000000,23.000000,0.000000,0.000000,0.000000,0.000000,0.000000;
#CREDIT:usaminseijin;
#NOTES:
0000
0000
0000
0000
,
0000
0000
0000
0000
,
0010
0000
0000
0000
0000
0000
0000
0000
0010
0000
0000
0000
0000
0000
0000
0000
0100
0000
0000
0000
0000
0000
0000
0000
0100
0000
0000
0000
1000
0001
1000
0000
,
0010
0000
0100
0000
0001
1000
0000
0010
0100
0010
1000
0001
0110
0000
0001
1000
,
0001
0000
1000
0001
1000
0000
1000
0010
0000
1000
0010
1000
0010
0000
1000
0010
,
1000
0000
0010
0100
0010
0000
0100
0010
0000
0100
0001
0100
0001
0000
0100
0001
,
0100
0000
0001
1000
0001
0000
0010
0001
0000
0010
0001
0010
0001
0000
0010
0001
,
0010
0000
0100
0010
0100
0000
0010
1000
0000
0010
1000
0010
1000
0000
0010
1000
,
0001
0100
0001
0100
0001
0000
1000
0001
1000
0001
1000
0001
1000
0000
1001
0000
,
1000
0100
1000
0100
1000
0000
0100
0010
0100
0010
0100
0010
1001
0000
0110
0000
,
0001
0010
0001
0010
0001
0000
0001
1000
0001
1000
0001
1000
0001
0000
0110
0000
,
1000
0100
1000
0100
1000
0000
0100
0010
0100
0010
0100
0010
1000
0000
1100
0000
,
1000
0001
1000
0001
1000
0100
1000
0100
1000
0001
1000
0001
0100
0001
0100
0000
,
1000
0010
1000
0010
1000
0000
0001
0100
0001
0100
0001
0100
0001
0000
0000
0000
,
1000
0000
0001
0000
1000
0000
0010
0000
0000
1000
0000
0000
0010
0000
0000
1000
0000
0000
0010
0000
0000
1000
0000
0000
0001
0000
0000
0000
0000
0000
1000
0000
0000
0001
0000
0000
1000
0000
0000
0001
0000
0000
1000
0000
0000
0001
0000
0000
,
0100
0010
0100
0010
1000
0001
1000
0001
0110
0000
1001
0000
0220
0000
0330
0000
,
1000
0100
1000
0100
0010
0001
0010
0000
0001
1000
0001
1000
0010
0100
0010
0100
,
1000
0010
1000
0010
1000
0001
1000
0001
0100
0001
0100
0001
0010
0001
0010
0000
,
1000
0001
1000
0001
1000
0010
1000
0010
1001
0000
1001
0000
1010
0000
0110
0000
,
0100
0010
0100
0010
1001
0000
1001
0000
0110
0000
2002
0000
0000
0000
3003
0000
,
2020
3030
1001
0202
0303
0101
0220
0330
,
1010
1010
1001
1001
0101
0101
1001
2002
,
0000
0000
0000
0000
0000
0000
3003
0110
,
1010
0110
0202
0000
0000
0000
0303
1001
,
0200
0000
0002
0300
2000
0000
0000
0000
,
3003
0000
1000
0010
1000
0000
1001
0000
0202
0000
0000
0000
0000
0000
0303
0000
,
2000
0000
0002
3003
1010
1010
1001
2002
,
0000
0000
0000
0000
0000
0000
0000
3003
,
0110
0000
0110
0000
1000
0001
0000
1000
0001
0100
0001
0100
0001
0000
1000
0001
,
1000
0000
1010
0000
1001
0000
0100
0010
0000
0100
0010
0100
0010
0000
0100
0001
,
1000
0000
0110
0000
1001
0000
1000
0100
0000
1000
0100
1000
0100
0000
1000
0001
,
0100
0000
0110
0000
1001
0000
0100
0010
0000
0100
0001
0100
0001
0000
1000
0001
,
1000
0000
1001
0000
0101
0000
1000
0001
0100
0010
0100
0010
1000
0001
1000
0001
,
1000
0000
1001
0000
0110
0000
0100
0001
0000
0100
0010
0100
0010
0000
1000
0010
,
0100
0000
0110
0000
1001
0000
1000
0010
0000
1000
0001
1000
0001
0000
0100
0001
,
1000
0000
0110
0000
1001
0000
1000
0001
0000
1000
0010
1000
0010
0000
1000
0001
,
0100
0000
0110
0000
0101
0000
0100
0010
0000
1000
0001
1000
0001
0100
0001
0100
,
0001
1000
0001
1000
0001
0000
0100
0010
0100
0010
0100
0010
0100
0000
0001
1000
,
0010
1000
0010
1000
0010
0000
0001
1000
0001
1000
0001
1000
0001
0000
1000
0001
,
0100
0001
0100
0001
0100
0000
0010
0100
0010
0100
0010
0100
0010
0000
1000
0001
,
1000
0100
1000
0100
1000
0000
0001
1000
0001
1000
0001
1000
0001
0000
0001
0100
,
0001
0100
0001
0100
0010
0100
0010
0000
1000
0001
1000
0001
0100
0001
0100
0000
,
0010
1000
0010
1000
0001
1000
0010
0000
0100
0010
0100
0010
0100
0001
0100
0000
,
0010
1000
0010
1000
0001
1000
0001
0000
0100
0010
0100
0010
0100
0001
0100
0000
,
0001
1000
0001
1000
0001
0100
0001
0000
0100
0010
0100
0010
0100
0001
0000
1000
,
0001
0000
0000
0000
;

//---------------dance-single - ----------------
#NOTEDATA:;
#CHARTNAME:;
#STEPSTYPE:dance-single;
#DESCRIPTION:;
#CHARTSTYLE:;
#DIFFICULTY:Medium;
#METER:11;
#RADARVALUES:0.410241,0.357470,0.039774,0.119322,0.290351,341.000000,5.000000,15.000000,0.000000,0.000000,0.000000,0.000000,0.000000,0.410241,0.357470,0.039774,0.119322,0.290351,341.000000,5.000000,15.000000,0.000000,0.000000,0.000000,0.000000,0.000000;
#CREDIT:usaminseijin;
#NOTES:
0000
0000
0000
0000
,
0000
0000
0000
0000
,
0010
0000
0010
0000
0100
0000
0100
1000
,
0010
0000
0100
0000
0001
1000
0000
0010
0100
0010
0000
0000
0110
0000
0001
1000
,
0001
0000
0001
0100
0000
0000
0100
0010
0000
0010
1000
0000
1000
0000
0010
0000
,
1000
0000
0010
0100
0000
0000
0100
1000
0000
1000
0001
0000
0001
0000
0100
0000
,
0100
0000
1000
0001
0000
0000
0001
0010
0000
0010
0100
0000
0100
0000
1000
0000
,
0010
0000
0100
0010
0000
0000
0010
1000
0000
1000
0001
0000
1000
0000
0010
0000
,
0001
0000
0100
0000
0001
0000
1000
0001
0000
1000
0010
0000
1000
0000
0001
0000
,
1000
0000
0100
0000
1000
0000
0100
0010
0000
0100
0001
0000
0100
0000
0010
0000
,
0001
0000
0010
0000
0100
0000
0001
1000
0000
0001
0100
0000
0001
0000
1000
0000
,
1000
0000
0100
0000
1000
0000
0100
0010
0000
0100
0001
0000
0100
0000
0010
0000
,
1000
0000
0001
0000
1000
0000
0100
1000
0000
0001
1000
0000
0100
0001
0100
0000
,
1000
0000
0010
0000
1000
0000
0001
0100
0000
0001
0100
0000
0001
0000
0000
0000
,
1000
0001
1000
0001
1000
0000
0010
1000
0000
1000
0001
0000
0001
0000
1000
0000
,
0100
0010
1000
0001
0010
1000
0020
0030
,
1000
0000
0100
0000
0010
0000
0001
0000
1000
0000
0001
0000
0010
0100
0010
0000
,
1000
0000
0010
0000
1000
0000
0001
0000
0100
0000
0001
0000
0010
0001
0010
0000
,
1000
0001
1000
0010
1000
0001
1000
0010
,
0100
0010
1000
0001
0110
2002
0000
3003
,
1010
0000
1000
0001
0000
0100
0010
0000
,
1000
0010
1000
0001
0100
0001
2000
0002
,
0000
0000
0000
0000
0000
0000
3003
0010
,
1000
0010
0200
0000
0000
0300
0000
0001
,
0200
0302
2003
0000
,
3000
1000
0010
2000
0002
0000
0000
3003
,
2000
0000
0002
3003
1000
0010
2000
0002
,
0000
0000
0000
0000
0000
0000
0000
3003
,
0100
0000
0010
0000
1000
0001
0000
1000
0001
1000
0000
0000
0110
0000
1000
0001
,
1000
0000
0010
0000
1000
0000
0100
0010
0000
0100
0010
0000
0100
0000
0001
0000
,
1000
0000
0010
0000
1000
0000
1000
0100
0000
1000
0100
0000
1000
0000
0001
0000
,
0100
0000
0010
0000
1000
0000
0100
0010
0000
0100
0001
0000
0100
0000
0010
0000
,
1000
0000
0001
0000
0100
0000
1000
0001
0000
1000
0010
0000
1000
0000
0001
0000
,
1000
0000
0001
0000
0010
0000
0100
0001
0000
0100
0010
0000
0100
0000
0001
0000
,
0100
0000
0010
0000
1000
0000
1000
0010
0000
1000
0001
0000
0100
0000
0001
0000
,
1000
0000
0010
0000
1000
0000
1000
0001
0000
1000
0010
0000
1000
0000
0001
0000
,
0100
0000
0010
0000
0100
0000
0100
0010
0000
0100
0001
0000
0100
0000
0010
0000
,
0001
0000
1000
0000
0001
0000
0100
0010
0000
0010
0100
0000
1000
0000
0100
0000
,
0010
0000
0100
0000
0010
0000
0001
1000
0000
1000
0001
0000
0001
0000
1000
0000
,
0100
0000
0010
0000
0100
0000
1000
0100
0000
0100
1000
0000
1000
0000
0001
0000
,
1000
0000
0100
0000
1000
0000
0001
1000
0000
1000
0001
0000
0001
0000
0100
0000
,
0001
0000
0100
0000
0010
0000
0100
1000
0000
0100
0001
0000
0100
0000
0001
0000
,
0010
0000
1000
0000
0010
0000
0100
0010
0000
0100
0001
0000
1000
0000
0001
0000
,
0010
0000
1000
0000
0001
0000
1000
0100
0000
1000
0010
0000
1000
0000
0001
0000
,
1000
0000
0010
0000
1000
0000
0100
0010
0000
0100
1000
0000
0001
1000
0000
0001
;

//---------------dance-single - ----------------
#NOTEDATA:;
#CHARTNAME:;
#STEPSTYPE:dance-single;
#DESCRIPTION:;
#CHARTSTYLE:;
#DIFFICULTY:Easy;
#METER:6;
#RADARVALUES:0.355694,0.285578,0.007955,0.063639,0.000000,304.000000,1.000000,8.000000,0.000000,0.000000,0.000000,0.000000,0.000000,0.355694,0.285578,0.007955,0.063639,0.000000,304.000000,1.000000,8.000000,0.000000,0.000000,0.000000,0.000000,0.000000;
#CREDIT:usaminseijin;
#NOTES:
0000
0000
0000
0000
,
0000
0000
0000
0000
,
0010
0000
0010
0000
0100
0000
0100
1000
,
0010
0100
0001
1000
0010
0100
0010
0001
,
1000
0001
0100
0010
1000
0100
1000
0010
,
1000
0001
0100
0010
1000
0001
0100
0010
,
0100
0001
1000
0001
0100
0010
0100
0001
,
0010
0100
0010
1000
0010
0001
0010
0100
,
0001
0100
0001
1000
0010
1000
0001
0100
,
0010
0100
1000
0100
0010
0100
0001
0010
,
0001
0010
0001
1000
0001
0100
0001
1000
,
0010
0100
1000
0100
0010
0001
0100
0010
,
1000
0001
1000
0100
1000
0001
0100
0001
,
1000
0010
1000
0001
0100
0001
0100
0000
,
1000
0001
1000
0010
1000
0001
1000
0010
,
0100
0010
1000
0001
0010
1000
0020
0030
,
1000
0100
0010
0001
1000
0001
0010
0100
,
1000
0010
1000
0001
0100
0001
0010
0001
,
1000
0001
1000
0010
1000
0001
1000
0010
,
0100
0010
1000
0001
0100
0002
0000
0003
,
1010
0000
1000
0001
0000
0100
0010
0000
,
1000
0010
1000
0001
0100
0001
1000
0002
,
0000
0000
0000
0000
0000
0000
0003
0010
,
1000
0010
0200
0000
0000
0300
0000
0001
,
0100
0001
2000
0000
,
3000
1000
0010
2000
0002
0000
0000
3003
,
1000
0000
0001
0000
1000
0010
1000
0002
,
0000
0000
0000
0000
0000
0000
0000
0003
,
0100
0010
1000
0010
0100
0010
1000
0001
,
1000
0010
1000
0100
0010
0100
0010
0001
,
1000
0010
1000
0100
1000
0100
1000
0001
,
0100
0010
1000
0100
0010
0100
1000
0001
,
1000
0100
1000
0001
1000
0010
1000
0001
,
1000
0001
0010
0100
1000
0100
0010
0001
,
0100
0010
1000
0010
1000
0001
0100
0001
,
1000
0010
1000
0001
1000
0010
1000
0001
,
0100
0010
0100
0010
0100
0001
0100
0010
,
0001
1000
0001
0100
0010
0100
1000
0100
,
0010
0100
0010
1000
0001
0100
0001
1000
,
0100
0010
0100
1000
0100
1000
0001
1000
,
0010
0100
1000
0001
1000
0010
0100
0001
,
1000
0100
0010
0100
1000
0001
0100
0001
,
0010
0001
0010
0100
1000
0001
1000
0001
,
0010
0001
1000
0010
1000
0001
1000
0010
,
0100
0010
1000
0100
0010
1000
0001
1000
;

//---------------dance-single - ----------------
#NOTEDATA:;
#CHARTNAME:;
#STEPSTYPE:dance-single;
#DESCRIPTION:;
#CHARTSTYLE:;
#DIFFICULTY:Beginner;
#METER:2;
#RADARVALUES:0.172733,0.142391,0.000000,0.039774,0.000000,147.000000,0.000000,5.000000,0.000000,0.000000,0.000000,0.000000,0.000000,0.172733,0.142391,0.000000,0.039774,0.000000,147.000000,0.000000,5.000000,0.000000,0.000000,0.000000,0.000000,0.000000;
#CREDIT:usaminseijin;
#NOTES:
// measure 0
0000
0000
0000
0000
,  // measure 1
0000
0000
0000
0000
,  // measure 2
0000
0000
0000
0000
,  // measure 3
0000
0000
0000
0000
,  // measure 4
1000
1000
0010
0010
,  // measure 5
0001
0001
0100
0100
,  // measure 6
1000
1000
0100
0100
,  // measure 7
0010
0010
0001
0001
,  // measure 8
0100
0100
0010
0010
,  // measure 9
1000
1000
0001
0001
,  // measure 10
0010
0010
1000
1000
,  // measure 11
0100
0100
0001
0001
,  // measure 12
1000
1000
0001
0001
,  // measure 13
1000
1000
0100
0100
,  // measure 14
0010
0010
0100
0100
,  // measure 15
0010
0010
0001
0001
,  // measure 16
1000
0010
1000
0010
,  // measure 17
0100
0001
0100
0001
,  // measure 18
1000
0001
1000
0010
,  // measure 19
0100
0010
0100
0001
,  // measure 20
1000
0001
0000
0001
,  // measure 21
1000
0100
1000
0002
,  // measure 22
0000
0000
0000
0003
,  // measure 23
1000
0000
0200
0000
0000
0300
0000
0000
,  // measure 24
0100
0001
2000
0000
,  // measure 25
3000
0000
1000
0000
0002
0000
0000
0003
,  // measure 26
1000
0001
1000
1000
,  // measure 27
0002
0000
0000
0003
,  // measure 28
0000
0000
0000
0000
,  // measure 29
1000
1000
0010
0010
,  // measure 30
0001
0001
0100
0100
,  // measure 31
0010
0010
0100
0100
,  // measure 32
1000
1000
0001
0001
,  // measure 33
1000
1000
0010
0010
,  // measure 34
0100
0100
0001
0001
,  // measure 35
1000
1000
0001
0001
,  // measure 36
0100
0100
0010
0010
,  // measure 37
0001
0100
0010
1000
,  // measure 38
0010
1000
0001
0100
,  // measure 39
0010
0100
0001
1000
,  // measure 40
0010
1000
0001
1000
,  // measure 41
0010
0100
0001
1000
,  // measure 42
0010
0100
0001
1000
,  // measure 43
0010
1000
0001
0100
,  // measure 44
0010
0001
1000
0001
;
