#VERSION:0.82;
#TITLE:BEATGIRL;
#SUBTITLE:;
#ARTIST:Nacky;
#TITLETRANSLIT:;
#SUBTITLETRANSLIT:;
#ARTISTTRANSLIT:;
#GENRE:Rave;
#ORIGIN:;
#CREDIT:;
#BANNER:BEATGIRL.png;
#BACKGROUND:BEATGIRL-bg.png;
#PREVIEWVID:;
#JACKET:BEATGIRL-jacket.png;
#CDIMAGE:;
#DISCIMAGE:;
#LYRICSPATH:;
#CDTITLE:cdtitle.png;
#MUSIC:beatgirl.ogg;
#OFFSET:0.000000;
#SAMPLESTART:21.517000;
#SAMPLELENGTH:26.483000;
#SELECTABLE:YES;
#BPMS:0.000=145.000;
#STOPS:;
#DELAYS:;
#WARPS:;
#TIMESIGNATURES:0.000=4=4;
#TICKCOUNTS:0.000=4;
#COMBOS:0.000=1;
#SPEEDS:0.000=1.000=0.000=0;
#SCROLLS:0.000=1.000;
#FAKES:;
#LABELS:0.000=Song Start;
#BGCHANGES:;
#KEYSOUNDS:;
#ATTACKS:
;

//---------------dance-single - ----------------
#NOTEDATA:;
#CHARTNAME:;
#STEPSTYPE:dance-single;
#DESCRIPTION:;
#CHARTSTYLE:;
#DIFFICULTY:Hard;
#METER:11;
#RADARVALUES:0.519731,0.596728,0.173244,0.000000,0.322425,360.000000,18.000000,0.000000,0.000000,0.000000,0.000000,0.000000,0.000000,0.519731,0.596728,0.173244,0.000000,0.322425,360.000000,18.000000,0.000000,0.000000,0.000000,0.000000,0.000000,0.000000;
#CREDIT:usaminseijin;
#NOTES:
0000
0000
0000
0000
,
0000
0000
0000
0000
,
0000
0000
0000
0000
,
0000
0000
0000
0000
,
0000
0001
0000
0001
0000
0100
0000
0100
,
0000
1000
0000
1000
0000
0010
0000
0010
,
0000
0100
0000
0100
0000
1000
0000
1000
,
0000
0001
0000
0001
0000
0010
0010
0001
,
0000
0100
0000
0100
0000
0010
0000
0010
,
0000
1000
0000
1000
0000
0001
0000
0001
,
0000
0100
0000
0100
0000
0001
0000
0001
,
0000
0010
0000
0010
0000
1000
1000
0100
,
1001
0000
0000
0000
1000
0001
1000
0001
,
0100
0000
0000
0100
0000
0000
0100
0000
0000
0000
0010
0000
0010
0000
0100
0000
,
1000
0000
0000
1000
0000
0000
1000
0000
0000
0000
0001
0000
1000
0000
0001
0000
,
0010
0000
0000
0010
0000
0000
0010
0000
0000
0000
0100
0000
0010
0000
0100
0000
,
0001
0000
0000
0001
0000
0000
0001
0000
0000
0000
1000
0000
0001
0000
1000
0000
,
0100
0000
0000
0100
0000
0000
0100
0000
0000
0000
0010
0000
0010
0000
0100
0000
,
1000
0000
0000
1000
0000
0000
1000
0000
0000
0000
0001
0000
1000
0000
0001
0000
,
0010
0000
0000
0010
0000
0000
0010
0000
0000
0000
0100
0000
0010
0000
0100
0000
,
1001
0000
0000
0000
1001
0000
0000
0000
0001
0000
0000
0001
0000
0000
1000
0000
,
0010
0000
0000
0100
0000
0000
0010
0000
0000
0000
1000
0000
0001
0000
1000
0000
,
0001
0100
0000
0100
0010
0100
0010
0000
,
1000
0000
0000
0001
0000
0000
1000
0000
0000
0000
0010
0000
0100
0000
0010
0000
,
1000
0100
1000
0000
0000
1000
0001
1000
,
0010
0000
0000
1000
0000
0000
0100
0000
0000
0000
0001
0000
0000
0000
0001
0000
,
1000
0000
0010
0000
1000
0000
0000
0000
0101
0000
0000
0101
0000
0000
0000
0000
,
1000
0000
0000
0010
0000
0000
1000
0000
0000
0000
0001
0000
0100
0000
0001
0000
,
1100
0101
1001
0000
,
1000
0000
0000
1000
0000
0000
1000
0000
0000
0000
1000
0000
0001
0000
1000
0000
,
0010
0000
0000
0010
0000
0000
0010
0000
0000
0000
0100
0000
0010
0000
0100
0000
,
0001
0000
0000
0001
0000
0000
0001
0000
0000
0000
1000
0000
0001
0000
1000
0000
,
0100
0000
0100
0000
0010
0000
1000
0001
,
0001
0000
0000
0001
0000
0000
0001
0000
0000
0000
0001
0000
1000
0000
0001
0000
,
0100
0000
0000
0100
0000
0000
0100
0000
0000
0000
0010
0000
0100
0000
0010
0000
,
1000
0000
0000
1000
0000
0000
1000
0000
0000
0000
0001
0000
1000
0000
0001
0000
,
0010
0000
0010
0000
0100
0000
0001
1000
,
1000
0000
0001
0000
1000
0001
0000
1000
0001
0000
1000
0001
0000
1000
0001
0000
,
1000
0000
0010
0000
1000
0010
0000
1000
0010
0000
1000
0010
0000
1000
0010
0000
,
0100
0000
0010
0000
0100
0010
0000
0100
0010
0000
0100
0010
0000
0100
0010
0000
,
0100
0000
0001
0000
0100
0001
0000
0100
0001
0000
0100
0001
0000
0100
0001
0000
,
1000
0000
0001
0000
1000
0010
0000
1000
0001
0000
1000
0010
0000
1000
0001
0000
,
1000
0000
0100
0000
1000
0001
0000
1000
0100
0000
1000
0001
0000
1000
0100
0000
,
1000
0000
0001
0000
0100
0001
0000
1000
0001
0000
0100
0001
0000
1000
0001
0000
,
0100
0000
0001
0000
0100
0010
0000
0100
0001
0000
0100
0010
0000
0100
0001
0000
,
1001
0000
0000
0000
0100
0010
0100
0010
,
1000
0000
0000
1000
0000
0000
1000
0000
0000
0000
0001
0000
0001
0000
0100
0000
,
0010
0000
0000
0010
0000
0000
0010
0000
0000
0000
1000
0000
0001
0000
1000
0000
,
0100
0000
0000
0100
0000
0000
0100
0000
0000
0000
0010
0000
1000
0000
0010
0000
,
0001
0000
0000
0001
0000
0000
0001
0000
0000
0000
0100
0000
1000
0000
0100
0000
,
1000
0000
0000
1000
0000
0000
1000
0000
0000
0000
0100
0000
0100
0000
0010
0000
,
0100
0000
0000
0100
0000
0000
0100
0000
0000
0000
1000
0000
0001
0000
1000
0000
,
0001
0000
0000
0001
0000
0000
0001
0000
0000
0000
0010
0000
0100
0000
0010
0000
,
1001
0000
0000
0000
1001
0000
0000
0000
1000
0000
0000
0001
0000
0000
1000
0000
,
0010
0000
0000
0100
0000
0000
0010
0000
0000
0000
1000
0000
0001
0000
1000
0000
,
0001
0000
0100
0001
0000
0000
0101
0000
0010
0000
0100
0000
0010
0000
1000
0000
,
1000
0000
0000
0001
0000
0000
1000
0000
0000
0000
0010
0000
0100
0000
0010
0000
,
1001
0000
0100
0001
1000
0000
0001
0000
0000
0000
1000
0000
0001
0000
1000
0000
,
0010
0000
0000
1000
0000
0000
0100
0000
0000
0000
0001
0000
0000
0000
0001
0000
,
1100
0000
1000
0001
1000
0000
0100
0000
0100
0000
0010
0100
0010
0000
0100
0000
,
1000
0000
0000
0010
0000
0000
1000
0000
0000
0000
0001
0000
0100
0000
0001
0000
,
1100
0101
0110
0000
,
1001
0000
0000
0000
;

//---------------dance-single - ----------------
#NOTEDATA:;
#CHARTNAME:;
#STEPSTYPE:dance-single;
#DESCRIPTION:;
#CHARTSTYLE:;
#DIFFICULTY:Medium;
#METER:8;
#RADARVALUES:0.420734,0.358037,0.048123,0.000000,0.144370,301.000000,5.000000,0.000000,0.000000,0.000000,0.000000,0.000000,0.000000,0.420734,0.358037,0.048123,0.000000,0.144370,301.000000,5.000000,0.000000,0.000000,0.000000,0.000000,0.000000,0.000000;
#CREDIT:usaminseijin;
#NOTES:
0000
0000
0000
0000
,
0000
0000
0000
0000
,
0000
0000
0000
0000
,
0000
0000
0000
0000
,
0000
0001
0000
0001
0000
0100
0000
0100
,
0000
1000
0000
1000
0000
0010
0000
0010
,
0000
0100
0000
0100
0000
1000
0000
1000
,
0000
0001
0000
0001
0000
0010
0001
0010
,
0000
0100
0000
0100
0000
0010
0000
0010
,
0000
1000
0000
1000
0000
0001
0000
0001
,
0000
0100
0000
0100
0000
0001
0000
0001
,
0000
0010
0000
0010
0000
1000
0100
1000
,
0001
0000
0000
0000
1000
0001
1000
0001
,
0100
0000
0000
0010
0000
0000
0100
0000
0000
0000
0010
0000
0100
0000
0010
0000
,
1000
0000
0000
0001
0000
0000
1000
0000
0000
0000
0001
0000
1000
0000
0001
0000
,
0010
0000
0000
0100
0000
0000
0010
0000
0000
0000
0100
0000
0010
0000
0100
0000
,
0001
0000
0000
1000
0000
0000
0001
0000
0000
0000
1000
0000
0001
0000
1000
0000
,
0100
0000
0000
0001
0000
0000
0100
0000
0000
0000
0010
0000
0100
0000
0010
0000
,
1000
0000
0000
0001
0000
0000
1000
0000
0000
0000
0001
0000
1000
0000
0001
0000
,
0010
0000
0000
0100
0000
0000
0010
0000
0000
0000
0100
0000
0010
0000
0100
0000
,
1000
0000
0000
0000
0001
0000
0000
0000
1000
0000
0000
0001
0000
0000
1000
0000
,
0010
0000
0000
0100
0000
0000
0010
0000
0000
0000
1000
0000
0001
0000
1000
0000
,
0001
0100
0000
0000
0010
0100
0010
0000
,
1000
0000
0000
0001
0000
0000
1000
0000
0000
0000
0010
0000
0100
0000
0010
0000
,
1000
0000
1000
0000
0000
1000
0001
1000
,
0010
0000
0000
1000
0000
0000
0100
0000
0000
0000
0001
0000
1000
0000
0001
0000
,
0010
1000
0101
0000
,
1000
0000
0000
0010
0000
0000
1000
0000
0000
0000
0001
0000
0100
0000
0001
0000
,
1000
0001
1001
0000
,
1000
0000
0000
1000
0000
0000
1000
0000
0000
0000
1000
0000
0001
0000
1000
0000
,
0010
0000
0000
0010
0000
0000
0010
0000
0000
0000
0100
0000
0010
0000
0100
0000
,
0001
0000
0000
0001
0000
0000
0001
0000
0000
0000
1000
0000
0001
0000
1000
0000
,
0100
0000
0100
0000
0010
0000
1000
0001
,
0001
0000
0000
0001
0000
0000
0001
0000
0000
0000
0001
0000
1000
0000
0001
0000
,
0100
0000
0000
0100
0000
0000
0100
0000
0000
0000
0010
0000
0100
0000
0010
0000
,
1000
0000
0000
1000
0000
0000
1000
0000
0000
0000
0001
0000
1000
0000
0001
0000
,
0010
0000
0010
0000
0100
0000
0001
1000
,
0100
0100
0010
0010
,
1000
0000
1000
0000
0001
1000
0001
0000
,
0100
0100
0001
0001
,
1000
0000
1000
0000
0001
0010
0001
0000
,
1000
1000
0001
0001
,
0100
0000
0100
0000
0010
0100
0010
0000
,
0100
0100
0010
0010
,
1000
0000
1000
0000
0001
1000
0001
0000
,
1001
0000
0000
0000
0100
0010
0100
0010
,
1000
0000
0000
0001
0000
0000
1000
0000
0000
0000
0001
0000
0100
0000
0001
0000
,
0010
0000
0000
0100
0000
0000
0010
0000
0000
0000
1000
0000
0001
0000
1000
0000
,
0100
0000
0000
0010
0000
0000
0100
0000
0000
0000
0010
0000
1000
0000
0010
0000
,
0001
0000
0000
0010
0000
0000
0001
0000
0000
0000
0100
0000
1000
0000
0100
0000
,
1000
0000
0000
0001
0000
0000
1000
0000
0000
0000
0010
0000
0100
0000
0010
0000
,
0100
0000
0000
0001
0000
0000
0100
0000
0000
0000
1000
0000
0001
0000
1000
0000
,
0001
0000
0000
1000
0000
0000
0001
0000
0000
0000
0010
0000
0100
0000
0010
0000
,
1000
0000
0000
0000
0001
0000
0000
0000
1000
0000
0000
0001
0000
0000
1000
0000
,
0010
0000
0000
0100
0000
0000
0010
0000
0000
0000
1000
0000
0001
0000
1000
0000
,
0001
0100
0000
0000
0010
0100
0010
0000
,
1000
0000
0000
0001
0000
0000
1000
0000
0000
0000
0010
0000
0100
0000
0010
0000
,
1000
0001
1000
0000
0000
1000
0001
1000
,
0010
0000
0000
1000
0000
0000
0100
0000
0000
0000
0001
0000
0000
0000
0001
0000
,
1000
1000
0110
0000
,
1000
0000
0000
0010
0000
0000
1000
0000
0000
0000
0001
0000
0100
0000
0001
0000
,
1000
0001
0100
0000
,
1001
0000
0000
0000
;

//---------------dance-single - ----------------
#NOTEDATA:;
#CHARTNAME:;
#STEPSTYPE:dance-single;
#DESCRIPTION:;
#CHARTSTYLE:;
#DIFFICULTY:Easy;
#METER:5;
#RADARVALUES:0.361611,0.298364,0.067372,0.000000,0.000000,256.000000,7.000000,0.000000,0.000000,0.000000,0.000000,0.000000,0.000000,0.361611,0.298364,0.067372,0.000000,0.000000,256.000000,7.000000,0.000000,0.000000,0.000000,0.000000,0.000000,0.000000;
#CREDIT:usaminseijin;
#NOTES:
0000
0000
0000
0000
,
0000
0000
0000
0000
,
0000
0000
0000
0000
,
0000
0000
0000
0000
,
0000
0001
0000
0001
0000
0100
0000
0100
,
0000
1000
0000
1000
0000
0010
0000
0010
,
0000
0100
0000
0100
0000
1000
0000
1000
,
0000
0001
0000
0001
0000
0010
0000
0010
,
0000
0100
0000
0100
0000
0010
0000
0010
,
0000
1000
0000
1000
0000
0001
0000
0001
,
0000
0100
0000
0100
0000
0001
0000
0001
,
0000
0010
0000
0010
0000
1000
0000
1000
,
0001
0000
1001
1001
,
0100
0000
0010
0000
0100
0010
0100
0000
,
1000
0000
0001
0000
1000
0001
1000
0000
,
0010
0000
0100
0000
0010
0100
0010
0000
,
0001
0000
1000
0000
0001
1000
0001
0000
,
0100
0000
0001
0000
0100
0010
0100
0000
,
1000
0000
0001
0000
1000
0001
1000
0000
,
0010
0000
0100
0000
0010
0100
0010
0000
,
1000
0001
1000
0001
,
0010
0000
0100
0000
0001
1000
0001
0000
,
0001
0100
0000
0000
0010
0100
0010
0000
,
1000
0000
0001
0000
0100
0010
0100
0000
,
1000
0000
1000
0000
0001
1000
0001
0000
,
0010
0000
0100
0000
1000
0001
1000
0000
,
0010
1000
0101
0000
,
1000
0000
0010
0000
0100
0001
0100
0000
,
1000
0001
1001
0000
,
1000
0000
1000
0000
0001
1000
0001
0000
,
0010
0000
0010
0000
0100
0010
0100
0000
,
0001
0000
0001
0000
1000
0001
1000
0000
,
0100
0100
0010
1000
,
0001
0000
0001
0000
1000
0001
1000
0000
,
0100
0000
0100
0000
0010
0100
0010
0000
,
1000
0000
1000
0000
0001
1000
0001
0000
,
0010
0010
0100
0001
,
0100
0100
0010
0010
,
1000
1000
0001
0001
,
0100
0100
0001
0001
,
1000
1000
0001
0001
,
1000
1000
0001
0001
,
0100
0100
0010
0010
,
0100
0100
0010
0010
,
1000
1000
0001
0001
,
1001
0000
0100
0100
,
1000
0000
0001
0000
0100
0001
0100
0000
,
0010
0000
0100
0000
0001
1000
0001
0000
,
0100
0000
0010
0000
1000
0010
1000
0000
,
0001
0000
0010
0000
0100
1000
0100
0000
,
1000
0000
0001
0000
0010
0100
0010
0000
,
0100
0000
0001
0000
1000
0001
1000
0000
,
0001
0000
1000
0000
0010
0100
0010
0000
,
1000
0001
1000
0001
,
0010
0000
0100
0000
0001
1000
0001
0000
,
0001
0100
0010
0010
,
1000
0000
0001
0000
0100
0010
0100
0000
,
1000
1000
0001
0001
,
0010
1000
0001
0001
,
1000
1000
0110
0000
,
1000
0000
0010
0000
0100
0001
0100
0000
,
1000
0001
1000
0000
,
1001
0000
0000
0000
;

//---------------dance-single - ----------------
#NOTEDATA:;
#CHARTNAME:;
#STEPSTYPE:dance-single;
#DESCRIPTION:;
#CHARTSTYLE:;
#DIFFICULTY:Beginner;
#METER:2;
#RADARVALUES:0.203492,0.179018,0.019249,0.000000,0.000000,146.000000,2.000000,0.000000,0.000000,0.000000,0.000000,0.000000,0.000000,0.203492,0.179018,0.019249,0.000000,0.000000,146.000000,2.000000,0.000000,0.000000,0.000000,0.000000,0.000000,0.000000;
#CREDIT:usaminseijin;
#NOTES:
// measure 0
0000
0000
0000
0000
,  // measure 1
0000
0000
0000
0000
,  // measure 2
0000
0000
0000
0000
,  // measure 3
0000
0000
0000
0000
,  // measure 4
0001
0000
0100
0000
,  // measure 5
1000
0000
0010
0000
,  // measure 6
0100
0000
1000
0000
,  // measure 7
0001
0000
0010
0000
,  // measure 8
0100
0000
0010
0000
,  // measure 9
1000
0000
0001
0000
,  // measure 10
0100
0000
0001
0000
,  // measure 11
0010
0000
1000
0000
,  // measure 12
0001
0000
1000
0001
,  // measure 13
0100
0000
0100
0100
,  // measure 14
1000
0000
1000
1000
,  // measure 15
0010
0000
0010
0010
,  // measure 16
0001
0000
0001
0001
,  // measure 17
0100
0000
0100
0100
,  // measure 18
1000
0000
1000
1000
,  // measure 19
0010
0000
0010
0010
,  // measure 20
1000
0000
0001
0000
,  // measure 21
0010
0000
0001
0001
,  // measure 22
0001
0000
0010
0010
,  // measure 23
1000
0000
0100
0100
,  // measure 24
1000
1000
0001
0000
,  // measure 25
0010
0000
1000
1000
,  // measure 26
0010
0000
0100
0000
,  // measure 27
1000
0000
0100
0100
,  // measure 28
1000
0001
1000
0000
,  // measure 29
1000
0000
0001
0000
,  // measure 30
0010
0000
0100
0000
,  // measure 31
0001
0000
1000
0000
,  // measure 32
0100
0000
0010
0000
,  // measure 33
0001
0000
1000
0000
,  // measure 34
0100
0000
0010
0000
,  // measure 35
1000
0000
0001
0000
,  // measure 36
0010
0000
0100
0000
,  // measure 37
0100
0000
0010
0000
,  // measure 38
1000
0000
0001
0000
,  // measure 39
0100
0000
0001
0000
,  // measure 40
1000
0000
0001
0000
,  // measure 41
1000
0000
0001
0000
,  // measure 42
0100
0000
0010
0000
,  // measure 43
0100
0000
0010
0000
,  // measure 44
1000
0000
0001
0000
,  // measure 45
1001
0000
0100
0000
,  // measure 46
1000
0000
0100
0100
,  // measure 47
0010
0000
0001
0001
,  // measure 48
0100
0000
1000
1000
,  // measure 49
0001
0000
0100
0100
,  // measure 50
1000
0000
0010
0010
,  // measure 51
0100
0000
1000
1000
,  // measure 52
0001
0000
0010
0010
,  // measure 53
1000
0000
0001
0000
,  // measure 54
0010
0000
0001
0001
,  // measure 55
0001
0000
0010
0010
,  // measure 56
1000
0000
0100
0100
,  // measure 57
1000
0000
0001
0000
,  // measure 58
0010
0000
0001
0001
,  // measure 59
1000
1000
0100
0000
,  // measure 60
1000
0000
0100
0100
,  // measure 61
1000
0001
1000
0000
,  // measure 62
1001
0000
0000
0000
;
