#TITLE:Savior Song;
#ARTIST:Rachel Lampa;
#BANNER:Savior-bn.png;
#BACKGROUND:Savior-bg.png;
#CDTITLE:.\CDTITLES\RL-blur.png;
#MUSIC:SaviorSong.mp3;
#OFFSET:0.504;
#SAMPLESTART:42.4;
#SAMPLELENGTH:12;
#BPMS:0=92.77;
#STOPS:110=1.294;
#BGCHANGES:1.25=Savior Song.AVI=1=0=0=1,999=-=1=0=0=0;

//---------------dance-single - ----------------
#NOTES:
     dance-single:
     :
     Medium:
     5:
     0.269,0.339,0.140,0.089,0.004:
0000
0000
0000
0000
,
0000
0000
0000
0000
,
0000
0000
0000
0000
,
0000
0000
0000
0000
,
0000
0000
1000
0010
,
1000
0000
0001
0000
1000
0001
1000
0000
,
0001
1000
1001
0000
0010
0000
1000
0000
,
0001
0100
0002
0000
,
0203
0000
0310
1000
,
0100
0010
0001
1000
,
0100
0001
0100
0000
0010
0000
1000
0000
,
0010
0000
0001
0000
0100
0000
0010
0010
,
1000
0001
0010
0100
,
1000
0001
0010
1000
,
0010
0100
1100
0000
0011
0000
1000
0000
,
0100
0010
0001
0010
,
0100
0000
1000
0000
1001
0100
0100
0010
,
0000
1001
0010
0010
0000
1000
0010
0100
,
0001
1000
0100
0010
0000
0100
0010
0001
,
0000
0100
0010
1000
0000
0001
1000
0001
,
1000
0001
1001
0220
0000
0330
0110
0010
,
0100
0000
1000
0100
0001
0000
0100
0001
,
0010
0001
1000
0100
0000
0010
0100
1000
,
0000
0100
0010
0001
0010
0100
0001
2002
,
0000
0000
0000
3000
0010
0000
0100
0000
,
1003
0110
1000
0001
,
0100
0010
1000
0000
,
0000
0000
0000
0000
,
0010
1000
0100
0010
,
0001
0000
1000
0000
0100
0001
0100
0000
,
0010
1000
0010
0001
,
0100
0000
0010
0010
1000
0000
0001
0000
,
0010
0100
1000
0001
,
0010
0000
1000
0000
0010
0100
1100
0000
,
0011
0011
1000
0000
0100
0010
0010
0000
,
0001
0010
0100
1000
0100
0010
1000
0000
,
1001
0100
0100
0010
0000
1001
0010
0010
,
0000
1000
0010
0100
0001
1000
0100
0010
,
0000
0100
0010
0001
0000
0100
0010
1000
,
0000
0001
1000
0001
1000
0001
1001
0220
,
0000
0330
0110
0010
0100
0000
1000
0100
,
0001
0000
0100
0001
0010
0001
1000
0100
,
0000
0010
0100
1000
0000
0100
0010
0001
,
0000
0100
1000
0001
0010
0100
0001
0000
,
0002
0000
2000
0000
,
3003
0000
0000
0000
0000
0000
0000
0000
0100
0000
0100
0100
0000
0000
0000
0000
,
1000
0010
0100
0001
,
1000
0000
1000
0010
0100
0001
1000
0000
,
0001
1000
0001
0100
,
0010
1000
0001
2002
,
0000
0000
0000
3003
,
0100
0000
0000
0000
;

//---------------dance-single - ----------------
#NOTES:
     dance-single:
     :
     Easy:
     4:
     0.170,0.207,0.081,0.052,0:
0000
0000
0000
0000
,
0000
0000
0000
0000
,
0000
0000
0000
0000
,
0000
0000
0000
0000
,
0000
0000
1000
0010
,
1000
0001
1000
1000
,
0001
1001
0010
1000
,
0001
0100
0002
0000
,
0203
0000
0310
0000
,
0100
0010
0001
1000
,
0000
0100
0010
1000
,
0010
0001
0010
0000
,
1000
0001
0010
0100
,
1000
0001
0010
1000
,
0010
0000
1100
0000
,
0100
0010
0001
0010
,
0100
0000
1001
0000
,
0000
0010
0000
0010
,
0001
0100
0000
0010
,
0000
0010
0000
1000
,
0001
1001
0000
0110
,
0000
1000
0001
0100
,
0010
1000
0000
0100
,
0000
0010
0010
0002
,
0000
0000
0010
0000
,
1003
0001
1000
0001
,
0100
0010
1000
0000
,
0000
0000
0000
0000
,
0010
1000
0100
0010
,
0001
1000
0100
0100
,
0010
1000
0010
0001
,
0100
0010
1000
0001
,
0010
0100
1000
0001
,
0010
1000
0010
0110
,
0110
1000
0100
0010
,
0001
0100
0100
1000
,
0100
1001
0000
0000
,
0010
0000
0010
0001
,
0100
0000
0010
0000
,
0010
0000
1000
0001
,
1001
0000
0110
0000
,
1000
0001
0100
0010
,
1000
0000
0100
0000
,
0010
0010
0001
0001
,
0002
0000
2000
0000
,
3003
0000
0000
0000
0100
0100
0000
0000
,
1000
0010
0100
0001
,
1000
1000
0100
1000
,
0001
1000
0001
0100
,
0010
1000
0001
2002
,
0000
0000
0000
3003
,
0100
0000
0000
0000
;

//---------------dance-single - ----------------
#NOTES:
     dance-single:
     :
     Beginner:
     2:
     0.107,0.131,0.074,0.044,0:
0000
0000
0000
0000
,
0000
0000
0000
0000
,
0000
0000
0000
0000
,
0000
0000
0000
0000
,
0000
0000
1000
0000
,
0001
0000
1000
0000
,
0000
1001
0000
1000
,
0001
0000
0002
0000
,
0203
0000
0300
0000
,
0100
0000
0001
1000
,
0000
0100
0000
1000
,
0000
0001
0000
0000
,
1000
0000
0010
0000
,
1000
0000
0010
0000
,
0010
0000
0110
0000
,
0100
0000
0001
0000
,
0100
0000
1001
0000
,
0000
0010
0000
0010
,
0000
0100
0000
0010
,
0000
0010
0000
1000
,
0000
1001
0000
0110
,
0000
1000
0000
0100
,
0000
1000
0000
0100
,
0000
0010
0000
0002
,
0000
0000
0000
0000
,
0003
0000
1000
0001
,
0000
0010
0000
0000
,
0000
0000
0000
0000
,
0010
0000
0100
0000
,
0001
1000
0000
0100
,
0000
1000
0000
0001
,
0000
0010
0000
0001
,
0000
0100
0000
0001
,
0000
1000
0010
0000
,
0110
0000
0100
0000
,
0001
0000
0100
0000
,
0100
0000
1001
0000
,
0010
0000
0010
0000
,
0100
0000
0010
0000
,
0010
0000
1000
0000
,
1001
0000
0110
0000
,
1000
0000
0100
0000
,
1000
0000
0100
0000
,
0010
0000
0001
0000
,
0002
0000
0000
0000
,
0003
0000
0100
0000
,
1000
0000
0100
0000
,
1000
0000
0100
0000
,
0001
0000
0001
0000
,
0010
1000
0000
2002
,
0000
0000
0000
3003
;

//---------------dance-single - ----------------
#NOTES:
     dance-single:
     :
     Hard:
     7:
     0.361,0.407,0.126,0.081,0.137:
0000
0000
0000
0000
,
0000
0000
0000
0000
,
0000
0000
0000
0000
,
0000
0000
1000
0010
,
1000
0100
1000
0000
1000
0001
1000
1000
,
0001
1000
1001
0000
1000
0100
1000
0001
,
1000
0000
0100
0010
0002
0000
0010
0000
,
0203
0000
0010
0010
0310
0000
1000
0000
,
0100
0010
0001
0010
0001
0000
1000
0000
,
1000
0001
0010
0001
1000
0000
1000
0000
,
0100
0010
0001
0010
0100
0000
0010
0010
,
0001
0000
0001
0000
0010
0100
1000
0100
,
0001
0100
1000
0000
0010
0100
0001
0000
,
0010
0100
1100
0000
0011
0000
1000
0100
,
0010
0001
0100
0001
0010
0000
0010
0000
,
0100
1000
0100
1000
0100
1000
0100
1000
0100
0000
0000
0000
0100
0000
0010
0000
,
0000
0000
0001
0010
0001
0010
0000
0000
0000
0000
0010
0000
0010
0000
0100
0000
,
1000
0000
1000
0000
0100
0010
0001
0000
0000
0000
0100
0000
0010
0000
1000
0000
,
0000
0000
0100
0000
0010
0100
1000
0000
0000
0000
0001
0000
1000
0000
0001
0000
,
1000
0001
1001
0220
0000
0330
0110
0010
,
0100
0000
0001
0100
0001
0100
0000
0000
0001
0000
0000
0000
0100
0000
0001
0000
,
0010
0000
0001
0000
1000
0000
0100
0010
0001
0000
0010
0000
0100
0000
1000
0000
,
0000
0100
0010
0001
0010
0100
1000
1002
,
0100
0010
0010
0103
,
1000
0100
0010
0000
0001
0010
0001
0100
0000
0000
0000
0000
0001
0000
0000
0000
,
0100
0000
0000
0001
0010
0000
0000
0000
0010
0000
0000
0000
0010
0000
0000
0000
,
0100
0000
0010
0001
0010
0001
0000
0000
0100
0000
0000
0000
0000
0000
0000
0000
,
0010
0000
1000
0000
0100
0010
0001
0000
,
0001
0000
1000
0000
0100
0001
0100
0000
,
0010
0000
0001
0000
0010
0001
0010
0100
,
1000
0000
0000
0000
0010
0000
0010
0000
1000
0100
0010
0001
0010
0100
1000
0000
,
0010
0000
0100
0000
0010
0010
1000
0000
,
0010
0100
0001
0000
0010
0100
1100
0000
,
0011
0011
1000
0100
0010
0100
0010
0001
,
0001
0000
0010
0000
0100
0000
1000
0000
0100
0000
0010
0001
0010
0100
1000
0100
,
1000
0100
0100
0010
0000
1001
0010
0010
,
0000
0000
1000
0000
0010
0000
0100
0000
0001
0000
1000
0000
0100
0010
0001
0000
,
0000
0100
0010
1010
0000
0100
0010
1001
,
0000
0001
1000
0001
1000
0001
1001
0220
,
0000
0000
0330
0000
0110
0000
0010
0000
1000
0100
1000
0100
1000
0000
0001
0000
,
1000
0000
1000
0001
1000
0001
1000
0100
,
0000
0000
0010
0000
0100
0000
1000
0000
0000
0000
0100
0010
0001
0010
0100
1000
,
0100
1000
0100
1000
0010
0100
0001
0010
,
0002
0000
1000
0100
2000
0000
0000
0000
,
3003
0000
0000
0000
0000
0000
0000
0000
0100
0000
0100
0100
0000
0000
0000
0000
,
0100
0000
0100
0000
0010
0000
0100
0000
0010
0000
1000
1000
0000
0000
0001
0000
,
0001
0000
0000
0000
1000
0000
0010
0000
0100
0000
0001
0000
1000
0100
0010
0001
,
0010
0000
0100
0000
1000
0000
0001
0000
0001
0010
0100
1000
0100
1000
0100
0010
,
0001
0000
1000
0100
0001
0100
2002
0000
,
0000
0000
0000
3003
,
0100
0000
0000
0000
;
