#TITLE:Love Me Good;
#ARTIST:Michael W. Smith;
#CREDIT:PenguinMan26;
#BANNER:Love Me Good-bn.png;
#BACKGROUND:Love Me Good-bg.png;
#LYRICSPATH:Love Me Good.lrc;
#CDTITLE:.\CDTITLES\cdtitle pms.png;
#MUSIC:Michael W. Smith - Love Me Good.mp3;
#OFFSET:-0.954;
#SAMPLESTART:35.3;
#SAMPLELENGTH:12;
#BPMS:0=110.3;
#STOPS:224=8.2,225=5.965;
#BGCHANGES:-0.25=lovemegood.avi=1=0=0=0,396=bg.png=1=0=0=1;

//---------------dance-single - Light----------------
#NOTES:
     dance-single:
     Light:
     Easy:
     3:
     0.160,0.195,0.026,0.135,0.002:
0000
0000
0000
0000
,
0000
0000
0000
0000
,
0000
0000
0000
0000
,
0000
0000
0000
0000
,
1000
0000
0000
0000
,
1000
0000
0000
0000
,
0001
0000
0000
0000
,
0001
0000
0000
0000
,
1000
0000
0001
0000
,
1000
0001
0001
0001
,
0100
0000
0010
0000
,
1000
0100
0001
0000
,
0100
0000
0100
0000
,
0010
0010
0010
0000
,
1000
0000
1000
0000
,
0001
0001
0001
0000
,
1000
0000
0100
0000
,
0020
0000
0000
0030
,
0001
0000
0010
0000
,
0200
0000
0000
0300
,
0001
0000
0010
0000
,
2000
0000
0000
3000
,
0001
0000
0001
0000
,
2000
0000
0000
3000
,
0100
0000
0100
0000
,
0100
0010
0010
0000
,
1000
0000
0001
0000
,
1000
1000
0002
0003
,
1000
1000
1000
1000
,
0001
0001
0001
0001
,
0100
0000
0100
0000
,
0100
0010
0100
0010
0200
0000
0300
0000
,
1000
0000
0100
0000
,
0001
0100
0010
1000
,
1000
0000
0010
0000
,
0001
1000
0001
1000
0002
0000
0003
0000
,
1000
0000
0010
0000
,
0002
0000
0000
0003
,
1000
0000
0100
0000
,
2000
0000
0000
3000
,
0001
0000
0100
0000
,
0002
0000
0000
0003
,
1000
0000
0010
0000
,
2002
0000
0000
3003
,
0010
0100
0010
0100
,
0020
0000
0000
0030
,
1000
0001
1000
0001
,
0002
0000
0000
0003
,
0100
0010
0100
0010
,
0020
0000
0000
0030
,
1000
0100
0010
0001
,
0002
0000
0000
0003
,
1000
0000
0010
0000
,
1000
0001
1000
0001
,
0010
0000
0001
0000
,
0100
0000
1000
0000
,
0010
0100
0100
0000
,
0010
0000
0010
0001
,
0100
0000
0100
0000
,
0100
0000
0100
0001
,
1000
0010
0010
0000
,
1000
0000
0010
0010
,
1000
0001
0010
0000
0100
0000
0000
0000
,
0100
0000
0001
0001
,
2000
3000
0001
1000
,
0001
1000
2000
0000
,
0000
3000
0001
1000
,
0001
1000
0002
0000
,
0000
0003
1000
0000
,
0001
0000
2000
0000
,
0000
3000
0001
0000
,
1000
0000
0220
0000
,
0000
0330
0000
2002
,
0000
3003
1000
0001
,
1000
0000
0000
0220
,
0000
0330
1000
0001
,
1000
0000
0000
0220
,
0000
0330
1000
0001
,
1000
0000
0000
2002
,
0000
3003
0010
0100
,
0001
0000
1000
0001
,
1000
0001
1000
0001
,
1000
0000
0000
1000
,
0001
1000
0001
1000
,
0001
0000
0000
1000
,
0001
1000
0001
1000
,
0001
0000
0000
1000
,
0001
1000
0001
1000
,
0001
0000
1000
0000
,
1000
0000
1000
1000
,
1000
0000
0001
0000
,
1000
0000
0001
1000
,
0001
1000
0001
0000
,
0001
0000
0001
0001
,
0001
0000
1000
0000
,
1000
0000
0000
0000
0000
0000
0000
0000
1000
0000
0000
1000
0000
0000
2000
0000
,
0000
0000
0000
0000
,
0000
0000
0000
0000
,
0000
0000
0000
0000
,
3000
0000
0000
0000
;

//---------------dance-single - Standard----------------
#NOTES:
     dance-single:
     Standard:
     Medium:
     6:
     0.290,0.342,0.148,0.135,0.002:
0000
0000
0000
0000
,
0000
0000
0000
0000
,
0000
0000
0000
0000
,
0000
0000
0000
0000
,
1000
0100
0000
0000
,
0010
0001
0000
0000
,
0100
0101
0000
0000
,
0010
1010
0000
0000
,
1000
0000
0000
1000
0001
0000
0000
0100
,
1000
0000
0001
0001
0000
1000
0000
0001
,
1000
0000
0000
0100
0010
0000
0000
0000
,
0001
0010
0100
0002
0000
0000
0003
0000
,
0001
0000
0000
0001
0100
0000
0000
0010
,
1000
0000
0100
1000
0000
0100
0000
0001
,
0100
0000
0000
0100
1000
0000
0000
0000
,
0100
0010
0100
0002
0000
0000
0003
0000
,
0001
1000
0001
0000
0001
1000
0001
0000
,
0100
0000
1000
0002
0000
0000
0000
0003
,
0010
0100
0010
0000
0100
0010
0100
0000
,
0001
0000
0010
0200
0000
0000
0000
0300
,
0001
1000
0010
0000
1000
0001
0010
0000
,
1000
0000
0001
0020
0000
0000
0000
0030
,
0100
0100
1000
0000
0010
0010
0001
0000
,
0001
0000
0010
2000
0000
0000
0000
3000
,
0001
0000
0000
0100
0001
0000
0000
0100
,
0010
0000
0001
0010
0000
0010
0000
0001
,
1000
0000
0000
0100
1000
0000
0000
0001
,
1000
0100
0000
0002
0000
0000
0003
0000
,
1010
0000
0000
0010
0100
0000
0000
0000
,
0100
0010
1000
0000
0001
0100
0010
0000
,
0101
0000
0000
1000
0100
0000
0000
0000
,
0100
0010
1000
0002
0000
0000
0003
0000
,
0100
0000
1000
0100
1000
0000
0000
0000
,
1000
0000
1000
0001
0000
0001
0000
0010
,
0001
0000
0010
1000
0100
0000
0000
0000
,
0100
0010
1000
0020
0000
0000
0030
0000
,
0010
1001
0010
1001
,
0010
0000
0001
2000
0000
0000
0000
3000
,
0100
0011
0010
1100
,
0010
0000
0100
0002
0000
0000
0000
0003
,
0100
0100
0100
0000
0010
0010
0010
0000
,
1100
0000
0001
0002
0000
0000
0000
0003
,
1000
1000
1000
0000
0001
0001
0001
0000
,
0011
0000
1000
2000
0000
0000
0000
3000
,
0100
0001
0010
0000
0100
1000
0010
0000
,
0001
0000
0001
1000
0010
1000
0100
0001
,
1000
0110
0001
0110
,
0010
0000
1000
0001
0010
0100
1000
0000
,
1100
1001
0011
1001
,
0110
0000
0010
0020
1000
0000
0030
0000
,
0101
0101
1010
1010
,
1000
0000
0100
2000
0010
0000
0010
3000
,
1000
0000
0000
0100
1000
0000
0000
0001
,
1000
0000
0001
0001
0000
0010
0000
1000
,
1000
0000
0000
0010
0010
0000
0000
0000
,
1000
0100
0010
0002
0000
0000
0003
0000
,
1001
0000
0010
0000
0100
0000
0000
1000
,
1000
0000
0000
0010
1000
0010
0000
0010
,
0000
0100
0000
0001
1000
0000
0000
0010
,
0010
0000
0000
0001
1000
0010
0100
0002
,
0000
0000
0003
0000
1000
0010
1000
0100
,
0001
1000
1000
0001
0100
0000
0010
0001
,
0000
0001
0000
0000
0010
0000
0001
1000
,
0100
0010
0100
0000
0100
1000
0100
0002
,
0000
0000
0003
0000
0100
0010
0001
0000
,
1000
0010
0100
0000
0100
0000
0100
2000
,
0000
0000
3000
0000
1000
1000
0001
0000
,
0010
0010
0100
0000
0001
0000
1000
0020
,
0000
1030
0110
1010
,
0110
0000
0101
0000
0100
0000
1000
0010
,
0000
0100
0000
1000
1010
0000
0011
0000
,
0101
0000
1100
0000
1000
0000
0010
0020
,
0000
0000
0031
0001
1000
0000
0202
0000
,
0000
0000
0000
0303
1000
0000
0100
1000
,
0010
0000
0001
0100
0001
0000
2020
0000
,
0000
0000
0000
3030
0100
0000
1000
0001
,
0000
0200
0000
0300
0010
1000
0200
0000
,
0000
0000
0000
0300
0100
0000
0001
0100
,
0000
0000
0000
0002
,
0000
0000
0000
0003
0010
0000
0100
1000
,
0000
0011
0000
0100
0000
0100
1000
0100
,
0010
0001
1000
0000
0010
1000
0001
0001
,
0200
0000
0000
0300
0000
1000
0100
0010
,
0100
1000
1000
0000
0100
0010
0001
0001
,
1000
0000
1010
0000
0000
1000
0001
0010
,
0100
0010
0001
0000
0010
1000
0010
0001
,
0200
0000
0000
0300
0000
0100
0010
1000
,
0100
0001
0100
0000
0010
1000
0001
0010
,
1000
0000
0010
0001
,
0001
0000
1000
0000
1000
0010
0100
0001
,
0100
0010
0100
0000
0001
0000
0001
0000
,
0100
0000
0010
0000
0001
1000
0010
0001
,
0100
0001
0010
0100
0010
0000
0000
1000
,
0100
0000
0000
0100
1000
0000
0000
0001
,
1000
0000
0000
0100
0010
0000
0000
0100
,
0001
0000
0000
0000
0000
0000
1000
0000
1000
0000
0000
0100
0000
0000
0200
0000
,
0000
0000
0000
0000
,
0000
0000
0000
0300
;

//---------------dance-single - Heavy----------------
#NOTES:
     dance-single:
     Heavy:
     Hard:
     8:
     0.392,0.555,0.135,0.284,0.142:
0000
0000
0000
0000
,
0000
0000
0000
0000
,
0000
0000
0000
0000
,
0000
0000
0000
0000
,
2000
3002
1003
0000
0000
0000
0000
0000
,
0002
2003
3001
0000
0000
0000
0000
0000
,
0020
2030
3001
0000
0000
0000
0000
0000
,
0002
2003
3100
0000
0000
0000
0000
0000
,
1000
0000
0001
1000
0100
0000
0010
0000
0001
0000
0001
0100
0010
0000
1000
0000
,
2000
0001
0000
3001
0000
1000
0000
0001
,
1000
0000
0001
0010
0001
0000
1000
0000
0001
0000
1000
0100
1000
0000
0001
0000
,
1000
0001
0100
0020
0000
0000
0000
0030
,
0010
0000
1000
0010
1000
0000
1000
0000
0001
0000
0001
0100
0001
0000
1000
0000
,
0002
1000
0000
1000
0003
0100
0000
1000
,
0001
0000
1000
0100
1000
0000
0000
0000
0001
0000
0010
0000
0200
0000
0300
0000
,
1000
1000
0100
0020
0000
0000
0000
0030
,
0001
1000
0010
0000
0100
0010
0100
0000
,
0020
0000
1030
0002
0000
0000
0000
0003
,
0001
0100
0001
0000
1000
0010
1000
0000
,
0020
0000
0130
0002
0000
0000
0000
0003
,
0010
0001
0100
0000
0010
1000
0010
0000
,
0200
0000
0310
2000
0000
0000
0000
3000
,
0010
0100
0001
0000
0100
0010
1000
0000
,
0002
0000
0013
0002
0000
0000
0000
0003
,
0010
0000
0010
0100
1000
0000
1000
0000
0001
0000
0100
0010
1000
0000
0100
0000
,
1000
0001
1000
0001
0000
1000
0000
0000
,
0001
0000
1000
0001
1000
0000
0100
0000
0010
0000
0001
1000
0001
0000
0010
0000
,
0001
1000
0100
2002
0000
0000
3003
0000
,
1000
0100
0010
0100
0010
0100
1000
0000
,
0001
0010
0100
1000
0001
1000
0100
0010
,
0001
0000
0000
0001
0001
0000
0000
0000
,
0100
0001
1000
0020
0000
0000
0000
0030
,
1000
0000
0100
0010
0001
0000
1000
0001
,
0010
0100
1000
0001
0000
1000
0010
1000
,
0001
0000
0000
0001
0010
0001
1000
0000
,
0001
1000
0001
0200
0000
0000
0000
0300
,
0001
0000
0000
0010
0001
0000
0000
1000
0100
0000
0000
0010
0001
0000
0000
1000
,
0010
0000
0000
0100
0001
0000
0000
1000
0010
0000
0000
0100
0001
0000
0000
1000
,
0010
0000
0000
0010
0100
0000
0000
0100
0001
0000
0000
0001
1000
0000
0000
1000
,
0010
0000
0000
0010
0100
0000
0000
0100
0001
0000
0010
0000
0001
0000
0100
0000
,
1001
0000
0010
1000
0100
0000
0010
0001
0100
0000
0010
1000
0100
0000
0010
0001
,
0100
0000
0010
1000
0100
0000
1000
0010
0100
0000
0001
0010
0100
0000
1000
0010
,
0100
0000
0001
0010
0100
0000
1000
0010
0100
0000
0001
1000
0010
0000
1000
0001
,
0100
0000
0010
1000
0010
0000
1000
0100
1000
0000
1000
0000
0001
0000
0010
0000
,
1100
0010
0001
0000
2000
0010
3001
0000
,
1000
0100
0020
0002
0000
0000
0000
0033
,
0100
1000
0110
0000
0001
0010
1100
0000
,
0001
0010
0200
2000
0000
0000
0000
3300
,
0020
0130
2000
3001
,
0002
0000
0203
0002
0000
0000
0000
0303
,
1000
0001
0100
0000
0010
0000
0000
0000
1000
0001
0100
0000
0010
0000
0000
0000
,
0020
0000
0230
0002
0000
0000
0000
0303
,
1000
0000
0000
0100
0010
0000
0001
0000
0100
0000
0000
0010
1000
0000
0001
0000
,
0100
0010
1000
0001
0000
2000
0000
3000
,
0010
0000
0000
1000
0100
0000
0010
0000
0001
0000
0000
1000
0100
0000
0010
0000
,
0001
0010
0100
2000
0000
0000
0000
3000
,
0200
0300
0000
0000
0000
0000
0000
0000
2000
3000
0000
0000
0000
0000
0000
0000
2010
0000
0000
0000
0000
0000
0000
0000
3010
0000
0000
0000
0000
0000
0000
0000
,
0102
0103
1020
1030
,
0201
0301
2100
3010
,
0201
0000
0301
0000
0001
0100
0010
1000
,
0001
1000
0010
0000
1000
0000
1000
0010
1000
0000
0000
0000
0100
0000
0010
0000
,
0110
0000
0000
0000
1000
0000
0001
0000
1001
0000
0000
0110
0000
0000
1001
0000
,
0000
0110
0000
1000
0001
0000
1000
0001
,
0010
0001
2000
3000
0001
1000
0100
0020
,
0000
0000
0000
0000
0000
0000
0030
0000
0001
0000
0001
0100
0001
0000
0000
0000
,
1000
0000
0010
1000
0010
0000
0000
0000
1000
0000
0001
0000
0010
0000
0100
0000
,
1000
0000
0100
0000
0010
0000
0000
0000
0001
0000
1000
0010
1000
0000
0000
0000
,
1000
0000
0001
0100
0001
0000
0000
0000
0001
0000
1000
0000
0010
0000
0100
0000
,
0001
0000
1000
0000
1001
0000
0000
0000
0110
0000
0010
0100
0010
0000
0000
0000
,
0010
0000
0100
0010
0100
0000
0000
0000
0010
0000
0010
0000
0100
0000
0001
0000
,
1000
0000
0100
0000
0010
0000
0001
0000
1000
0000
0001
0010
0001
0000
0000
0000
,
1000
0000
0010
1000
0010
0000
0000
0000
0010
0000
0000
0000
1100
0000
0001
0000
,
0000
0020
0030
0100
1000
0000
0002
0000
,
0000
0000
0000
0003
1000
0000
0001
1000
,
0000
1000
0000
0001
0010
0100
2000
0000
,
0000
0000
0000
3000
1000
0000
0001
0100
,
0000
0010
0000
1000
0100
0000
0022
0000
,
0000
0000
0000
0033
1000
0000
0001
1000
,
0000
0010
0100
0010
1001
0000
0220
0000
,
0000
0000
0000
0330
1000
0000
0001
1000
,
0000
0101
0000
1010
0000
1000
0001
1000
,
0001
0000
1000
0010
0000
0000
1000
0000
0001
0000
1000
0000
0001
0000
1000
0200
,
0000
0000
0300
0000
0000
1000
1000
0010
,
1000
0000
0010
0100
0000
0000
0010
0000
1000
0000
0010
0000
1000
0000
0010
2000
,
0000
0000
3000
0000
0000
1000
0100
0010
,
0001
0000
0001
1000
0000
0000
0001
0000
0010
0000
0100
0000
1000
0000
1000
0002
,
0000
0000
0003
0000
0000
1000
0001
1000
,
0010
0000
0100
0001
0000
0000
0001
0000
1000
0000
0010
0000
1000
0000
0010
2000
,
0000
0000
3000
0000
1000
0000
0001
1000
,
0010
0000
1001
0000
1000
0010
1010
0000
,
1000
0000
1001
0000
0001
1000
0110
0000
,
1000
0000
1001
0000
0010
0100
1001
0000
,
1000
0010
0100
0001
0000
1000
0000
0010
,
0000
0100
0000
0010
0000
1000
0000
0002
,
0000
0000
0200
0000
,
0303
0000
0000
0000
0000
0000
0010
0000
1000
0000
0000
0001
0000
0000
0202
0000
,
0000
0000
0000
0000
,
0000
0000
0000
0303
;
