#TITLE:Livin' On A Prayer;
#ARTIST:Stellar Kart;
#BANNER:Livin' On A Prayer-bn.png;
#BACKGROUND:Livin' On A Prayer-bg.png;
#CDTITLE:.\CDTITLES\SK-allgasnobrake.png;
#MUSIC:Living On A Prayer.mp3;
#OFFSET:0.062;
#SAMPLESTART:30.0;
#SAMPLELENGTH:19.2;
#BPMS:0=156;
#BGCHANGES:0=Livin On A Prayer.AVI=1=1=1=0,20=Livin On A Prayer.AVI=.89=0=0=1,999=-=1=0=0=0;

//---------------dance-single - ----------------
#NOTES:
     dance-single:
     :
     Hard:
     8:
     0.484,0.924,0.430,0.362,0.004:
0000
0000
0000
0000
,
1000
0100
0010
0000
0001
0010
0100
0000
,
1000
0100
0010
0000
0001
0010
0100
0000
,
1000
0100
0010
0000
0001
0010
0100
1000
,
2000
3000
0000
0000
,
1000
0010
0001
0010
,
1000
0001
1000
0100
,
1000
0100
0010
0001
,
0010
0001
1000
0001
,
1000
0001
0100
0001
,
0100
0010
1000
0010
,
1000
0010
0100
0010
,
1001
0010
0100
0001
,
1000
0100
0010
0000
,
1001
0100
0010
1000
,
0001
0010
0001
0000
,
0011
0100
1000
1000
,
0001
0100
0010
0000
,
0110
0010
1000
0001
,
0100
0010
0100
0000
,
1100
0011
1100
0011
,
0110
1100
0011
0110
,
1100
0010
0001
0010
,
0100
0010
0001
0010
,
0110
1000
0100
0010
,
0100
1000
0100
0010
,
0022
0000
0000
0000
0000
0033
0000
0000
,
1000
0000
0000
1000
0100
0000
0000
0000
,
2000
0010
0001
3010
,
0100
0001
1000
1000
,
0002
0000
0003
0200
0000
0300
0000
2000
,
3000
0100
0001
0010
0001
0000
0020
0030
,
0001
0020
0030
0100
0000
0000
0000
1000
,
0100
0010
0001
0000
2000
3000
0000
0000
,
2000
0000
3000
0002
0000
0003
0000
0020
,
0030
0100
1000
0100
2000
3000
0200
0300
,
0220
0000
0030
0000
,
0310
0000
0000
0000
,
0100
0000
0000
0000
,
1000
0000
0000
0000
,
1000
0100
0010
0001
0000
0010
0100
1000
,
0000
0100
0010
0001
0000
0001
0010
0100
,
1000
0100
0010
0001
0000
0010
0100
1000
,
0000
0100
0010
0001
0000
0001
0010
0100
,
1000
0100
0010
0001
0000
0001
0010
0100
,
1000
0100
0010
0001
0000
0010
0100
1000
,
0000
0100
0010
0001
0000
0001
0010
0100
,
1000
0100
0010
0001
0000
0010
0100
1000
,
2000
0000
0010
0000
0000
3000
0000
0000
,
1000
0010
0100
0010
,
0100
0001
0001
0100
,
0001
0010
0001
0000
,
0011
0110
1100
0010
,
1100
0110
0101
0110
,
2002
0000
0000
0000
3003
0000
0000
1000
,
0100
0000
0000
0010
0000
0000
0001
0000
0020
0000
0000
0000
0030
0000
0000
0000
,
2100
0010
0100
3010
,
0110
0110
0011
0110
,
0002
0000
0003
0200
0000
0300
0000
2000
,
3000
0100
0001
0010
0001
0000
0020
0030
,
0001
0020
0030
0100
0000
0000
0000
1000
,
0100
0010
0001
0000
2000
3000
0000
0000
,
2000
0000
3000
0002
0000
0003
0000
0020
,
0030
0100
1000
0100
2000
3000
0200
0300
,
0012
0100
0010
0103
,
0110
0110
1100
0110
,
2000
0000
3000
0020
0000
0030
0000
2000
,
3000
0010
1000
0100
1000
0000
0200
0300
,
1000
0200
0300
0010
0000
0000
0000
0001
,
0010
0100
1000
0000
0002
0003
0000
0000
,
0002
0000
0003
2000
0000
3000
0000
0200
,
0300
0010
0001
0010
0002
0003
0020
0030
,
0100
1000
0100
0010
0001
0010
0100
1000
,
0100
1000
0100
0010
0100
1000
0001
0010
,
0001
0100
0001
0010
0001
1000
0010
1000
,
0100
1000
0010
1000
0001
0010
0002
0003
,
0011
0110
1100
0110
,
0101
0110
1100
0110
,
0011
0011
1001
1001
1010
1010
1001
1001
,
0011
0011
0110
0110
0010
0001
0010
0100
,
0110
0000
0100
0110
0000
0010
0000
0022
,
0000
0000
0000
0033
;

//---------------dance-single - ----------------
#NOTES:
     dance-single:
     :
     Medium:
     6:
     0.373,0.555,0.324,0.354,0:
0000
0000
0000
0000
,
1000
0000
0010
0000
0001
0010
0100
0000
,
1000
0000
0010
0000
0001
0010
0100
0000
,
1000
0000
0010
0000
0001
0010
0100
0000
,
2000
3000
0000
0000
,
1000
0010
0001
0010
,
1000
0010
0001
0100
,
1000
0010
0001
0010
,
1000
0010
0001
0100
,
1000
0100
0001
0100
,
1000
0100
0001
0100
,
1000
0010
0100
1000
,
1001
0010
0100
0000
,
0001
0010
0100
0000
,
1001
0100
0010
0000
,
0001
0010
1000
0000
,
0011
0100
1000
0000
,
0001
0100
0010
0000
,
0110
0010
0001
0000
,
0100
0010
0100
0000
,
1100
0011
1100
0011
,
0110
1100
0011
0000
,
1100
0010
0001
0010
,
0100
0010
0001
0000
,
0110
1000
0100
0010
,
0100
1000
0100
0010
,
0022
0000
0000
0000
0000
0033
0000
0000
,
1000
0000
0100
0000
,
2000
0010
0000
3001
,
0100
1000
0010
1000
,
0002
0000
0003
0200
0000
0300
0000
2000
,
3000
0000
0001
0000
0001
0000
0020
0030
,
0001
0020
0030
1000
0000
0000
0000
1000
,
0100
0010
0001
0000
0020
0030
0000
0000
,
2000
0000
3000
0002
0000
0003
0000
0020
,
0030
0000
1000
0000
2000
3000
0200
0300
,
0200
0000
0000
0000
,
0300
0000
0000
0000
,
0000
0000
0000
0000
,
0000
0000
0000
0000
,
1000
0100
0010
0000
0000
0000
0100
0000
,
1000
0100
0010
0000
0000
0000
0010
0000
,
1000
0100
0010
0000
0000
0000
0100
0000
,
0001
0010
0100
0000
0000
0000
1000
0000
,
1000
0100
0010
0000
0000
0000
0010
0000
,
1000
0100
0010
0000
0000
0000
0100
0000
,
0010
0100
0010
0000
0000
0000
0010
0000
,
1000
0100
0010
0000
0000
0000
0100
1000
,
2000
0000
0000
0000
0000
3000
0000
0000
,
1000
0000
0100
0000
,
0100
0000
0001
0000
,
1000
0000
0001
0000
,
0011
0110
1100
0000
,
1100
0110
0101
0000
,
2002
0000
3003
0000
,
0100
0000
0020
0030
,
2100
0000
0100
3000
,
0110
0000
0011
0000
,
0002
0000
0003
0200
0000
0300
0000
2000
,
3000
0000
0001
0000
0001
0000
0020
0030
,
0001
0020
0030
1000
0000
0000
0000
1000
,
0100
0010
0001
0000
0020
0030
0000
0000
,
2000
0000
3000
0002
0000
0003
0000
0020
,
0030
0000
1000
0000
2000
3000
0200
0300
,
0012
0000
0100
0003
,
0110
0000
1100
0000
,
2000
0000
3000
0020
0000
0030
0000
0002
,
0003
0000
1000
0000
1000
0000
0200
0300
,
1000
0200
0300
0001
0000
0000
0000
0001
,
0010
0100
1000
0000
0200
0300
0000
0000
,
0002
0000
0003
2000
0000
3000
0000
0200
,
0300
0010
0001
0010
0002
0003
0020
0030
,
0100
0100
0001
0100
,
0010
0001
0100
0001
,
0010
1000
0001
0010
,
0100
0000
0010
0000
0001
0000
0002
0003
,
0011
0110
1100
0110
,
0101
0110
1100
0110
,
0011
1001
1010
1001
,
0011
0110
0010
0010
,
0110
0000
0000
0010
0000
0010
0000
0022
,
0000
0000
0000
0033
;

//---------------dance-single - ----------------
#NOTES:
     dance-single:
     :
     Easy:
     4:
     0.260,0.370,0.256,0.294,0:
0000
0000
0000
0000
,
0000
0010
0000
0100
,
0000
0010
0000
0100
,
0000
0010
0000
0100
,
2000
3000
0000
0000
,
1000
0000
0001
0000
,
1000
0000
0001
0000
,
0010
0000
0100
0000
,
0010
0000
1000
0000
,
0010
0000
0001
0000
,
0100
0000
0001
0000
,
0010
0000
0100
0000
,
1001
0000
0100
0000
,
0001
0010
0001
0000
,
1001
0000
0010
0000
,
1000
0010
1000
0000
,
0110
0000
1000
0000
,
0010
0100
0010
0000
,
1001
0000
0001
0000
,
0100
0010
0100
0010
,
1001
0000
0110
0000
,
1001
0000
0110
0000
,
0110
0000
0100
0010
,
0100
0000
1001
0000
,
0110
0100
0000
0010
,
0000
1000
0000
0001
,
2002
0000
0000
0000
0000
3003
0000
0000
,
1000
0000
0100
0000
,
2000
0000
0000
3001
,
0000
1000
0000
0000
,
0002
0000
0003
0200
0000
0300
0000
2000
,
3000
0000
0000
0000
0001
0000
0020
0030
,
0000
1000
0000
1000
,
0100
0000
0010
0000
0020
0030
0000
0000
,
2000
0000
3000
0000
0000
0000
0000
0020
,
0030
0000
0000
0000
2000
3000
0200
0000
,
0000
0000
0000
0000
,
0300
0000
0000
0000
,
0000
0000
0000
0000
,
0000
0000
0000
0000
,
1000
0010
0000
0100
,
1000
0010
0000
0010
,
1000
0010
0000
0100
,
0001
0100
0000
1000
,
1000
0010
0000
0010
,
1000
0010
0000
0100
,
0010
0010
0000
0010
,
1000
0010
0000
0100
,
2000
0000
0000
0000
0000
3000
0000
0000
,
0000
0000
0100
0000
,
0000
0000
0001
0000
,
0000
0000
0010
0000
,
0110
0000
1001
0000
,
1001
0000
0110
0000
,
2002
0000
3003
0000
,
0100
0000
0020
0030
,
0120
0000
0000
0000
,
0130
0000
0011
0000
,
0002
0000
0003
0200
0000
0300
0000
2000
,
3000
0000
0001
0000
,
0001
0000
1000
0000
,
0100
0000
0001
0000
0020
0030
0000
0000
,
2000
0000
3000
0002
0000
0003
0000
0020
,
0030
0000
0000
0000
2000
3000
0200
0300
,
0020
0000
0000
0030
,
0000
0110
0110
0000
,
2000
0000
3000
0020
0000
0030
0000
0002
,
0003
0000
1000
0000
,
1000
0000
0000
0001
0000
0000
0000
0000
,
0010
0000
0000
0000
0200
0300
0000
0000
,
0002
0000
0003
2000
0000
3000
0000
0200
,
0300
0000
0000
0000
0002
0003
0020
0030
,
0100
0100
0000
0001
,
0010
0000
0100
1000
,
0000
1000
0001
0000
,
0100
0010
0001
0000
,
1001
1001
0000
0110
,
0110
0000
1001
1001
,
0000
0110
0110
0000
,
1001
1001
1001
0000
,
0110
0000
0000
0000
0000
0000
0000
2002
,
0000
0000
0000
3003
;

//---------------dance-single - ----------------
#NOTES:
     dance-single:
     :
     Beginner:
     2:
     0.182,0.308,0.166,0.234,0:
0000
0000
0000
0000
,
0000
0010
0000
0000
,
0000
0010
0000
0000
,
0000
0010
0200
0300
,
2000
3000
0000
0000
,
1000
0000
0000
0000
,
0001
0000
0000
0000
,
0010
0000
0000
0000
,
0010
0000
0000
0000
,
1000
0000
0000
0000
,
0100
0000
0000
0000
,
0010
0000
0000
0000
,
1001
0000
0000
0000
,
0001
0000
0001
0000
,
0001
0000
0000
0000
,
1000
0000
1000
0000
,
1000
0000
0000
0000
,
0010
0000
0010
0000
,
0001
0000
0000
0000
,
0100
0000
0100
0000
,
0110
0000
0000
0000
,
1001
0000
0000
0000
,
0110
0000
0010
0000
,
0000
0000
1001
0000
,
0110
0000
0010
0000
,
1001
0000
0010
0000
,
2002
0000
0000
0000
0000
3003
0000
0000
,
1000
0000
0000
0000
,
2000
0000
0000
3000
,
0000
0010
0000
0000
,
0002
0000
0003
0200
0000
0300
0000
0000
,
0000
0000
0000
0000
0001
0000
0020
0030
,
0000
0000
0001
0000
,
0001
0000
0000
0000
0020
0030
0000
0000
,
0020
0030
0000
0000
,
0000
0000
2000
0000
,
0000
0000
0000
0000
,
3000
0000
0000
0000
,
0000
0000
0000
0000
,
0000
0000
0000
0000
,
1000
0010
0000
0000
,
1000
0010
0000
0000
,
1000
0010
0000
0000
,
0001
0100
0000
0000
,
1000
0010
0000
0000
,
1000
0010
0000
0000
,
0010
0001
0000
0000
,
1000
0010
0000
0000
,
2000
0000
0000
0000
0000
3000
0000
0000
,
0000
0000
0100
0000
,
0000
0000
0001
0000
,
0000
0000
0010
0000
,
0000
0000
1001
0000
,
0000
0000
0110
0000
,
2002
0000
3003
0000
,
0100
0000
0020
0030
,
0200
0000
0000
0000
,
0300
0000
0010
0000
,
0002
0000
0003
0200
0000
0300
0000
0000
,
0000
0000
0001
0000
,
0001
0000
1000
0000
,
0100
0000
0000
0000
0020
0030
0000
0000
,
2000
0000
3000
0002
0000
0003
0000
0000
,
0000
0000
0000
0000
2000
3000
0000
0000
,
0020
0000
0000
0030
,
0000
0110
0000
0000
,
2000
0000
3000
0020
0000
0030
0000
0000
,
0000
0000
1000
0000
,
1000
0000
0001
0000
,
0010
0000
0000
0000
0200
0300
0000
0000
,
0002
0000
0003
2000
0000
3000
0000
0000
,
0000
0000
0000
0000
0002
0003
0000
0000
,
0100
0100
0000
0001
,
0010
0000
0100
1000
,
0000
1000
0001
0000
,
0001
0010
0001
0000
,
1001
0000
1001
0000
,
0110
0000
0110
0000
,
1001
0000
1001
0000
,
1001
0000
0110
0000
,
1001
0000
0000
0000
0000
0000
0000
0220
,
0000
0000
0000
0330
;
