#TITLE:Jesus Freak;
#ARTIST:DC Talk;
#BANNER:Jesus Freak-bn.png;
#BACKGROUND:Jesus Freak-bg.PNG;
#LYRICSPATH:Jesus Freak.lrc;
#CDTITLE:.\CDTITLES\PW35.png;
#DISPLAYBPM:105;
#MUSIC:DC Talk - Jesus Freak.mp3;
#OFFSET:-0.135;
#SAMPLESTART:67.0;
#SAMPLELENGTH:16.5;
#BPMS:0=88.66,16=104.476;
#BGCHANGES:0=Jesus Freak-1.avi=1=0=0=1,266=X\Jesus Freak1-bg.png=1=1=0=1,280=X\Jesus Freak2-bg.png=1=1=0=1,294=X\Jesus Freak3-bg.png=1=1=0=1,308=X\Jesus Freak4-bg.png=1=1=0=1,321=Jesus Freak-bg.PNG=0.9=1=0=1,322.333=Jesus Freak-2.avi=1=1=0=1,499=Jesus Freak-bg.PNG=0.9=1=0=1;

//---------------dance-single - ----------------
#NOTES:
     dance-single:
     :
     Hard:
     8:
     0.494,0.734,0.494,0.090,0.143:
0000
0000
0000
0000
,
0000
0000
0000
0000
,
0000
0000
0000
0000
,
0000
0000
0000
0000
,
1010
0000
1100
0000
1000
1000
0010
0010
,
0100
0100
0001
0001
1000
1000
0010
0010
,
0110
0000
0110
0000
0001
0001
1000
1000
,
0010
0010
0100
0100
0001
0001
1000
1000
,
1001
0000
1001
0000
0001
0001
0010
0010
,
0100
0100
1000
1000
0010
0010
0100
0100
,
0101
0000
0101
0000
0001
0001
0010
0010
,
0100
0100
1000
1000
0010
0010
0100
0100
,
1001
0000
0101
0000
0100
0000
0010
0010
,
1000
1000
0010
0000
0010
0001
0100
0001
,
0000
0000
0001
1000
1000
0000
0010
0100
,
0001
0000
0001
0001
0100
0001
1000
0001
,
0000
1000
1000
0010
1000
0000
1000
1000
,
0100
0100
1000
0100
0010
0100
0001
1000
,
0000
0000
1000
0001
0001
0000
0001
1000
,
1000
0000
0010
0010
0100
0001
1000
0001
,
1000
0000
0001
0000
1000
0000
0001
0100
0001
0000
1000
0100
1000
0000
0001
0010
,
0001
0000
1000
0000
1000
0010
1000
0000
1000
0001
1000
0001
0000
0000
0001
0000
,
1000
0001
1000
0000
0001
1000
0000
0100
0010
0000
0100
0010
0100
0000
0001
0100
,
0000
0001
0100
0000
0010
0000
1000
0010
1000
0001
1000
0010
1000
0001
1000
0010
,
1000
0001
1000
0010
1000
0000
0000
0000
0001
0010
0000
0000
1000
0000
1000
0000
,
0010
1000
0000
0000
1000
0000
0001
1000
0001
0010
0001
1000
0000
0000
0001
0000
,
0100
0000
0000
0000
0000
0000
0100
0000
1000
0000
0010
0001
0010
0000
0001
0100
,
0001
1000
0001
0100
0001
0000
0100
1000
0100
0000
0100
1000
0000
0200
1000
0000
,
0300
0000
0000
0000
1100
1100
1010
1010
,
0010
0000
0000
0000
1010
0000
0000
0000
1000
0000
0010
0000
1000
0000
0100
1000
,
0000
0100
1000
0000
1001
1001
1100
1100
,
0010
0000
0110
0000
0100
0100
0010
1000
,
1010
0000
1010
0000
1000
1000
0010
0010
,
0100
0000
0000
0000
0001
0000
0000
0000
0001
0000
1000
0000
0010
0000
1000
0010
,
0000
1000
0010
0000
0010
1000
1000
1000
,
0100
0100
1000
0010
1000
0010
1000
1000
,
0100
0100
0010
0010
0001
0000
0001
0100
,
0010
0100
0001
0010
0100
1000
0100
1000
,
0010
0100
0010
1000
0100
0010
0001
0100
,
0010
0100
0001
0010
0100
1000
0010
0100
,
0001
0000
0100
1000
0000
0000
0010
0010
,
0010
0100
0000
1000
1000
2000
3000
0100
,
0000
0000
0010
0100
0010
0000
0100
1000
,
0100
1000
0010
1000
0010
0100
0001
0010
,
0100
0100
1000
1000
0000
0000
0010
0100
,
0001
0100
0000
0010
0001
0001
0100
0010
,
0000
0000
0001
0010
0010
0000
1000
1000
,
0100
0000
0020
0030
0010
1000
0010
0000
,
1010
0000
0000
0000
1100
0000
1000
0010
1000
0000
0010
1000
0010
0000
1000
0010
,
0000
1000
0010
0000
1000
0000
0010
1000
0000
0010
1000
0000
0100
0000
1000
0100
,
0000
1000
0100
0000
1000
0000
0010
1000
0000
0010
0100
0000
0001
0000
0100
0001
,
0100
0001
0010
0100
0000
0000
1000
0010
0100
0010
0000
0100
0000
0000
0001
0100
,
0001
1000
0000
0000
0000
0000
1000
0000
0010
0000
1000
0010
1000
0000
0010
0100
,
0000
0100
0010
0000
0010
0000
0000
0000
0001
1000
0001
1000
0000
0000
1000
0010
,
1000
0010
1000
0000
0010
0000
0100
0001
0100
0000
0100
0000
0110
0000
0001
1000
,
0100
0010
0100
0010
0000
0100
0010
0100
0001
0000
0001
0010
0001
0010
0100
0000
,
0100
1000
0000
0000
0110
0000
0000
0000
0001
0000
0001
0000
0010
0000
0010
0000
,
0100
0000
0000
0000
1000
0000
0010
0000
1000
0000
0010
1000
0000
0000
1010
0000
,
0000
0010
1010
0000
0010
0010
0100
0100
,
0001
0000
0001
1000
0010
0100
0010
0100
,
0110
0000
0110
0000
0001
0001
0010
0010
,
0100
0000
0000
0000
1000
0000
0010
0000
0100
0000
0010
0000
0010
0000
0010
0100
,
0000
0010
0100
0000
0001
0001
1000
1000
,
0010
0010
0100
0100
0110
0000
0110
0000
,
2002
3003
1001
0000
0001
0001
1000
1000
,
0110
0000
0000
0000
0100
0000
0010
0000
0100
0000
0010
0100
0000
0000
0110
0000
,
0000
0010
0110
0000
0001
0001
0010
0010
,
0100
0000
1010
0010
0100
0001
0010
0010
,
0100
0010
0000
0000
0100
0010
0000
0000
0010
0000
0010
0000
1000
0000
1000
0000
,
0100
0000
0000
0000
0010
0000
1000
0000
0010
0000
0010
0000
0010
0000
0010
1000
,
0000
1000
0010
0000
0100
0100
0010
0100
,
0001
1000
0010
0100
0001
0001
0010
0010
,
0100
0100
1000
0000
1000
0100
0100
1000
,
0200
0000
0000
0000
0000
0300
1000
0000
0100
0000
0100
0000
0100
0000
0100
0000
,
0200
0300
1000
0000
,
0000
0000
1000
0000
,
0000
0000
0001
0000
,
0000
0000
0001
0000
,
0000
0000
1000
1000
,
1000
1000
1000
1000
,
1000
1000
0001
0001
,
0001
0001
0001
0001
,
0001
0000
0001
0000
1000
1000
1000
1000
,
1000
1000
1000
1000
0001
0001
0001
0001
,
0001
0001
0001
0001
1000
1000
1000
1000
,
1000
1000
1000
1000
0001
0001
0001
0001
,
0001
0001
0001
0000
1000
0010
1000
0100
,
1000
0010
1000
0100
1000
0010
1000
0100
,
1000
0010
1000
0100
0010
0001
0100
0001
,
0010
0001
0100
0001
0010
0001
0100
0001
,
0010
0001
0100
0010
2000
0000
0000
0000
,
0000
0000
0000
3000
1010
1010
1100
1100
,
1010
1010
1100
1100
1010
1010
1100
1100
,
1010
1010
1100
0000
0011
0011
0101
0101
,
0011
0011
0101
0101
0011
0011
0101
0101
,
0011
0011
0101
0000
0110
0110
0101
0101
,
0110
0110
0101
0101
0110
0110
0101
0101
,
0110
0110
0101
0000
0110
0110
1100
1100
,
0110
0110
1100
1100
0110
0110
1100
1100
,
0110
0110
1100
0000
0010
0010
1000
1000
,
0010
0000
0000
0000
0010
0000
0100
0000
0010
0000
1000
0010
0000
0000
1000
0010
,
0000
1000
0010
0000
0100
0100
0001
0001
,
1000
0000
0010
0100
0001
1000
0010
0100
,
0110
0000
0101
0000
1000
1000
1000
0010
,
0010
0000
0000
0000
0100
0000
0001
0000
1000
0000
0010
0000
0100
0000
0001
0100
,
0000
0001
0100
0000
0010
0001
1000
0010
,
0100
0001
1000
0010
0100
0001
1000
0010
,
0100
0001
1000
0000
0010
0010
0100
0100
,
0001
0000
0000
0000
1000
0000
0010
0000
0100
0000
0001
0000
0100
0000
0001
0100
,
0000
0010
1000
0000
0010
0010
0100
0100
,
0110
0000
0110
0100
1000
0010
1000
0010
,
0100
0010
0000
0000
0100
0010
0000
0000
1000
0000
1000
0000
0010
0000
0010
0000
,
0001
0000
0000
0000
0001
0000
1000
0000
0001
0000
1000
0000
0010
0000
0100
0010
,
0000
0100
0110
0000
1001
1001
0110
0110
,
0001
0000
1000
0000
0010
0000
0100
0000
0010
0000
0000
0000
0010
0100
0000
0000
,
0010
0100
0000
0000
0010
0100
0000
0000
1000
0000
1000
0000
0010
0000
0010
0000
,
1010
1010
0010
0020
,
2000
0030
0000
0000
0020
0000
3030
0000
1010
0000
1010
0000
0110
0000
0110
0000
,
0202
0303
0202
0303
0022
0033
0022
0033
,
0220
0330
0220
0330
1100
1010
1010
0110
,
0101
0011
0110
0011
,
0011
0011
0000
1100
1010
0110
0110
0110
,
0101
0101
1010
1010
1010
0000
1010
2200
,
3300
0000
1100
2010
0010
0010
0100
0100
,
0000
0000
0000
0000
0000
0000
0000
3000
;

//---------------dance-single - Copied from----------------
#NOTES:
     dance-single:
     Copied from:
     Medium:
     5:
     0.359,0.642,0.380,0.066,0: // measure 1
0000
0000
0000
0000
,  // measure 2
0000
0000
0000
0000
,  // measure 3
0000
0000
0000
0000
,  // measure 4
0000
0000
0000
0000
,  // measure 5
1010
0000
1100
0000
1000
1000
0010
0000
,  // measure 6
0100
0100
0001
0000
1000
1000
0010
0000
,  // measure 7
0110
0000
0110
0000
0001
0001
1000
0000
,  // measure 8
0010
0010
0100
0000
0001
0001
1000
0000
,  // measure 9
1001
0000
1001
0000
0001
0001
0010
0000
,  // measure 10
0100
0100
1000
0000
0010
0010
0100
0000
,  // measure 11
0101
0000
0101
0000
0001
0001
0010
0000
,  // measure 12
0100
0100
1000
0000
0010
0010
0100
0000
,  // measure 13
1001
0000
0101
0000
0100
0000
0010
0010
,  // measure 14
1000
0000
0010
0000
0010
0001
0100
0001
,  // measure 15
0000
0000
0001
1000
1000
0000
0010
0100
,  // measure 16
0001
0000
0001
0001
0100
0001
1000
0001
,  // measure 17
0000
0000
0000
0010
1000
0000
1000
1000
,  // measure 18
0100
0000
1000
0100
0010
0000
0001
1000
,  // measure 19
0000
0000
1000
0001
0001
0000
0001
1000
,  // measure 20
1000
0000
0010
0010
0100
0000
0000
0000
,  // measure 21
1001
0000
1001
0000
0001
0100
0001
0000
,  // measure 22
0001
0010
0001
0000
0010
0100
0010
0000
,  // measure 23
0100
1000
0100
0000
1000
0010
1000
0000
,  // measure 24
0010
0100
0010
0000
0001
0100
0001
0000
,  // measure 25
0100
0010
0100
0000
0001
1000
0001
0000
,  // measure 26
1000
0001
1000
0000
0010
0001
0010
0000
,  // measure 27
0100
1000
0100
0000
0010
1000
0010
0000
,  // measure 28
0100
0001
0100
0000
0001
1000
0001
1000
,  // measure 29
1001
0000
0010
0010
,  // measure 30
1010
0000
1010
0000
1000
0000
1000
0100
,  // measure 31
0000
0100
1000
0000
1000
0000
1000
0000
,  // measure 32
0110
0000
0110
0000
0100
0100
0010
1000
,  // measure 33
0000
1010
1000
1000
,  // measure 34
0100
0000
0001
0000
0001
0000
0010
1000
,  // measure 35
0000
1000
0010
0000
0010
0000
1000
0000
,  // measure 36
0100
0000
1000
0010
0000
0000
1100
0000
,  // measure 37
0101
0000
0011
0000
0001
0000
0001
0100
,  // measure 38
0010
0000
0001
0010
0100
0000
0100
1000
,  // measure 39
0010
0000
0010
1000
0100
0000
0001
0100
,  // measure 40
0010
0000
0001
0010
0100
0000
0010
0100
,  // measure 41
0001
0000
0100
1000
0000
0000
0010
0100
,  // measure 42
0010
0100
0000
1000
0001
2000
3000
0100
,  // measure 43
0000
0000
0010
0100
0010
0000
0100
1000
,  // measure 44
0100
1000
0010
1000
0010
0100
0001
0010
,  // measure 45
0100
0100
1000
1000
0000
0000
0010
0100
,  // measure 46
0001
0100
0000
0010
0001
0001
0100
0010
,  // measure 47
0000
0000
0001
0010
0010
0000
1000
1000
,  // measure 48
0100
0000
0000
0000
0010
1000
0010
0000
,  // measure 49
1010
0000
1100
0000
1000
0010
0001
0000
,  // measure 50
0001
0010
0100
0000
0100
1000
0001
0000
,  // measure 51
0001
0100
1000
0000
1000
0010
0100
0000
,  // measure 52
0100
0001
1000
0000
1000
0001
0010
0000
,  // measure 53
0010
0001
1000
0000
1000
0001
0100
0000
,  // measure 54
0100
0001
1000
0000
1000
0100
0010
0000
,  // measure 55
0010
0001
0100
0000
0100
0001
0010
0000
,  // measure 56
0010
0100
1000
0000
1000
0100
0010
0001
,  // measure 57
0100
0010
0110
0000
0001
0001
0010
0000
,  // measure 58
0100
0100
1000
0000
1000
1000
0000
1010
,  // measure 59
0000
0010
1010
0000
0010
0010
0100
0000
,  // measure 60
0001
0001
1000
0000
1000
1000
0100
0000
,  // measure 61
0110
0000
0110
0000
0001
0001
0010
0000
,  // measure 62
0100
0100
1000
0000
0010
0010
0000
0110
,  // measure 63
0000
0010
0110
0000
0001
0001
1000
0000
,  // measure 64
0010
0010
0100
0000
0110
0000
0110
0000
,  // measure 65
1001
0000
1001
0000
0001
0001
1000
0000
,  // measure 66
0110
0000
0100
0010
0100
0000
0000
0110
,  // measure 67
0000
0010
0110
0000
0001
0001
0010
0000
,  // measure 68
0100
0100
0010
0000
0001
0001
0010
0000
,  // measure 69
1100
0000
0101
0000
0010
0010
1000
0000
,  // measure 70
0100
0100
0010
0000
1000
1000
0000
1010
,  // measure 71
0000
1000
1010
0000
0100
0100
0010
0000
,  // measure 72
0001
0001
0010
0000
0010
0010
0100
0000
,  // measure 73
0100
0100
1000
0000
0100
1000
0100
1000
,  // measure 74
0200
0000
0000
0000
0000
0300
0000
0000
0100
0000
0001
0000
0100
0000
0001
0000
,  // measure 75
0200
0300
1000
0000
,  // measure 76
0000
0000
1000
0000
,  // measure 77
0000
0000
0001
0000
,  // measure 78
0000
0000
0001
0000
,  // measure 79
0000
0000
1000
0000
,  // measure 80
1000
0000
1000
0000
,  // measure 81
1000
0000
0001
0000
,  // measure 82
0001
0000
0001
0000
,  // measure 83
0001
0000
1000
1000
,  // measure 84
1000
1000
0001
0001
,  // measure 85
0001
0001
1000
1000
,  // measure 86
1000
1000
0001
0001
,  // measure 87
0001
0000
0001
0000
1000
0010
1000
0000
,  // measure 88
1000
0100
1000
0000
1000
0010
1000
0000
,  // measure 89
1000
0100
1000
0000
0001
0010
0001
0000
,  // measure 90
0001
0100
0001
0000
0001
0010
0001
0000
,  // measure 91
0001
0100
0001
0000
2000
0000
0000
0000
,  // measure 92
0000
0000
0000
3000
1010
0000
1010
0000
,  // measure 93
1100
1100
1010
1010
,  // measure 94
1100
1100
0011
0011
,  // measure 95
0101
0101
0011
0011
,  // measure 96
0101
0101
0110
0110
,  // measure 97
0101
0101
0110
0110
,  // measure 98
0101
0101
0110
0110
,  // measure 99
1100
1100
0110
0110
,  // measure 100
1100
0000
1100
0000
0010
0010
1000
0000
,  // measure 101
0010
0010
0100
0000
0010
0010
0000
1010
,  // measure 102
0000
1000
1010
0000
0100
0100
0001
0000
,  // measure 103
1000
1000
0010
0000
0001
0001
0010
0000
,  // measure 104
0110
0000
0101
0000
1000
1000
0010
0000
,  // measure 105
0010
0010
0100
0000
0001
0001
0000
0101
,  // measure 106
0000
0001
0101
0000
0100
0001
1000
0000
,  // measure 107
0100
1000
0001
0000
0100
0001
1000
0000
,  // measure 108
0100
1000
0001
0000
0010
1000
0100
0000
,  // measure 109
0010
0001
0100
0000
0010
1000
0100
0100
,  // measure 110
0000
0010
1010
0000
0100
0001
0010
0000
,  // measure 111
0100
1000
0010
0000
0100
0001
0010
0000
,  // measure 112
1100
0000
1010
0000
1000
1000
1000
0000
,  // measure 113
0001
0001
0001
0000
0010
0010
0000
0110
,  // measure 114
0000
0100
0110
0000
0001
1000
0001
0000
,  // measure 115
1000
0001
1000
0000
0010
0100
0010
0000
,  // measure 116
0100
0010
0100
0000
1000
1000
0010
0010
,  // measure 117
1010
1010
0010
0020
,  // measure 118
2000
0030
0000
0000
0020
0000
3030
0000
1010
0000
0000
0000
0110
0000
0000
0000
,  // measure 119
0202
0303
0202
0303
0022
0033
0022
0033
,  // measure 120
0220
0330
0220
0330
1100
0000
1010
0000
,  // measure 121
0101
0011
0110
0011
,  // measure 122
0011
0000
1010
0110
,  // measure 123
0101
1010
1010
1010
,  // measure 124
1100
0000
1100
0000
1010
0010
1000
0010
;

//---------------dance-single - Copied from Copied from----------------
#NOTES:
     dance-single:
     Copied from Copied from:
     Easy:
     3:
     0.245,0.278,0.238,0.017,0: // measure 1
0000
0000
0000
0000
,  // measure 2
0000
0000
0000
0000
,  // measure 3
0000
0000
0000
0000
,  // measure 4
0000
0000
0000
0000
,  // measure 5
1010
1100
1000
0010
,  // measure 6
0100
0001
1000
0010
,  // measure 7
0110
0110
0001
1000
,  // measure 8
0010
0100
0001
1000
,  // measure 9
1001
1001
0001
0010
,  // measure 10
0100
1000
0010
0100
,  // measure 11
0101
0101
0001
0010
,  // measure 12
0100
1000
0010
0100
,  // measure 13
1001
0101
0100
0010
,  // measure 14
1000
0010
0010
0100
,  // measure 15
0000
0001
1000
0010
,  // measure 16
0001
0001
0100
1000
,  // measure 17
0000
0000
1000
1000
,  // measure 18
0100
1000
0010
0001
,  // measure 19
0000
1000
0001
0001
,  // measure 20
1000
0010
0100
0000
,  // measure 21
1001
1001
0001
0010
,  // measure 22
0001
0000
0100
0010
,  // measure 23
0100
0000
0100
0010
,  // measure 24
0100
0000
0001
0100
,  // measure 25
0001
0000
1000
0001
,  // measure 26
1000
0000
1000
0010
,  // measure 27
1000
0000
0010
1000
,  // measure 28
0010
0000
1000
0001
,  // measure 29
1001
0000
0010
1000
,  // measure 30
1010
0000
1000
0100
,  // measure 31
1000
1100
0100
0010
,  // measure 32
0110
0000
0100
0010
,  // measure 33
0110
0110
1000
0001
,  // measure 34
1001
0000
0001
1000
,  // measure 35
1001
0000
0010
0001
,  // measure 36
0011
0000
0010
1000
,  // measure 37
1010
0011
0000
0001
,  // measure 38
0100
0010
1000
0100
,  // measure 39
1000
0010
0100
0001
,  // measure 40
0100
0010
1000
0010
,  // measure 41
0100
0000
0001
0001
0000
0000
0010
0000
,  // measure 42
0100
1000
0000
0010
,  // measure 43
0100
0001
0000
0001
,  // measure 44
1000
0100
0000
1000
,  // measure 45
0001
0100
0000
0100
,  // measure 46
0001
1000
0000
0100
,  // measure 47
1000
0001
1000
0001
,  // measure 48
1000
0000
1000
0010
,  // measure 49
1010
1100
1000
0001
,  // measure 50
0001
0100
0100
0001
,  // measure 51
0001
1000
1000
0100
,  // measure 52
0100
1000
1000
0010
,  // measure 53
0010
1000
1000
0100
,  // measure 54
0100
1000
1000
0010
,  // measure 55
0010
0100
0100
0010
,  // measure 56
0010
1000
1000
0010
,  // measure 57
0100
0110
0001
0010
,  // measure 58
0100
0000
1000
0000
1000
0000
0000
1010
,  // measure 59
0000
1010
0010
0100
,  // measure 60
0001
1000
1000
0100
,  // measure 61
0110
0110
0001
0010
,  // measure 62
0100
0000
1000
0000
0010
0000
0000
0110
,  // measure 63
0000
0110
0001
1000
,  // measure 64
0010
0100
0110
0100
,  // measure 65
1001
0001
0001
1000
,  // measure 66
0010
0000
0100
0000
0010
0000
0000
0110
,  // measure 67
0000
0110
0001
0010
,  // measure 68
0100
0010
0001
0010
,  // measure 69
0011
0011
0010
1000
,  // measure 70
0100
0000
0010
0000
1000
0000
0000
1010
,  // measure 71
0000
1010
0100
0010
,  // measure 72
0001
0010
0010
0100
,  // measure 73
0100
1000
0100
1000
,  // measure 74
0200
0000
0000
0000
0000
0300
0000
0000
0001
0000
0000
0000
0100
0000
0000
0000
,  // measure 75
0002
0003
1000
0000
,  // measure 76
0000
0000
1000
0000
,  // measure 77
0000
0000
0001
0000
,  // measure 78
0000
0000
0001
0000
,  // measure 79
0000
0000
1000
0000
,  // measure 80
0001
0000
1000
0000
,  // measure 81
0001
0000
1000
0000
,  // measure 82
0001
0000
1000
0000
,  // measure 83
0001
0000
1000
0001
,  // measure 84
1000
0001
1000
0001
,  // measure 85
1000
0001
1000
0001
,  // measure 86
1000
0001
1000
0001
,  // measure 87
1000
0001
1000
0010
,  // measure 88
1000
0100
1000
0010
,  // measure 89
1000
0100
0001
0010
,  // measure 90
0001
0100
0001
0010
,  // measure 91
0001
0100
2000
0000
,  // measure 92
0000
0000
0000
3000
1000
0000
1010
0000
,  // measure 93
1000
1100
1000
1010
,  // measure 94
1000
1100
0001
0011
,  // measure 95
0001
0101
0001
0011
,  // measure 96
0001
0101
0100
0110
,  // measure 97
0100
0101
0100
0110
,  // measure 98
0100
0101
0010
0110
,  // measure 99
0100
1100
0010
0110
,  // measure 100
0100
1100
0010
1000
,  // measure 101
0010
0000
0100
0000
0010
0000
0000
1010
,  // measure 102
0000
1010
0100
0001
,  // measure 103
1000
0010
0001
0010
,  // measure 104
0011
0011
1000
0010
,  // measure 105
0010
0000
0100
0000
0001
0000
0000
0101
,  // measure 106
0000
0101
0100
1000
,  // measure 107
0100
0001
0100
1000
,  // measure 108
0100
0001
0010
0100
,  // measure 109
0010
0000
0100
0000
0010
0000
0000
1010
,  // measure 110
0000
1010
0100
0010
,  // measure 111
0100
0010
0100
0010
,  // measure 112
0110
0110
1000
1000
,  // measure 113
0001
0000
0001
0000
0010
0000
0000
0110
,  // measure 114
0000
0110
0001
0001
,  // measure 115
1000
1000
0010
0010
,  // measure 116
0100
0100
1000
0010
,  // measure 117
1010
0000
0010
0010
,  // measure 118
1000
0010
1000
0010
,  // measure 119
0002
0003
0001
0000
0010
0000
0010
0000
,  // measure 120
0010
0100
1000
0010
,  // measure 121
0200
0300
0010
0000
0100
0000
0010
0000
,  // measure 122
0001
0000
1000
0010
,  // measure 123
0100
0000
0010
0000
1000
0000
0010
1000
,  // measure 124
0000
0000
1000
0000
0100
1000
0100
1000
;
