#TITLE:Consume Me;
#ARTIST:dc Talk;
#BANNER:Consume Me.png;
#BACKGROUND:Consume Me-bg.png;
#CDTITLE:.\CDTITLES\Supernatural.png;
#MUSIC:Consume Me.mp3;
#OFFSET:1.646;
#SAMPLESTART:48.9;
#SAMPLELENGTH:12;
#BPMS:0=90.13;
#BGCHANGES:0=Consume Me1.AVI=1=1=1=0,18.917=Consume Me2.AVI=1=0=0=1,999=-=1=0=0=0;

//---------------dance-single - ----------------
#NOTES:
     dance-single:
     :
     Hard:
     5:
     0.318,0.322,0.008,0.353,0.078:
0000
0000
0000
0000
,
2000
0000
0000
0002
0000
0000
3003
0000
,
0002
0000
0000
0000
0000
0000
0020
0000
0033
0000
0010
0000
0000
0001
0000
0000
,
2000
0000
0000
0200
0000
0000
3300
1000
,
0010
0000
0010
0100
0000
0000
0010
0000
,
2000
0000
0000
0002
0000
3003
0001
0000
,
0020
0000
0000
0000
0000
0000
0002
0000
0033
0000
0001
0000
0000
1000
0000
0000
,
0100
0000
0000
0100
0000
0000
1000
0000
0000
0000
0010
0000
0000
0100
0000
0000
,
0010
0000
0000
0010
0000
0000
1000
0000
0000
0000
0000
0000
0002
0000
0000
0000
,
2000
0000
0003
0020
0000
0000
3030
1000
,
0020
0000
0000
0000
0000
0000
0200
0000
0330
0000
0100
0000
0000
0100
0000
0000
,
0020
0000
0000
2000
0000
0000
3030
0000
,
2000
0000
0000
0020
3000
0000
0200
0000
0000
0000
0330
0000
0000
0000
0000
0000
,
0200
0000
0000
0002
0000
0000
0303
0000
,
0002
0000
0000
0000
0000
0000
2000
0000
3003
0000
1000
0000
0000
0010
0000
0000
,
0100
0000
0010
0000
1000
0000
0001
0000
0010
0000
0001
1000
0000
0000
0100
0000
,
0100
1000
1000
0001
0010
0001
1000
0000
,
0100
0000
0100
0000
1000
0000
0001
0000
0010
0000
0001
1000
0000
0000
0001
0000
,
0100
0100
0001
0001
1000
0010
0100
0000
,
0010
0000
0010
0000
1000
0000
0001
0000
0100
0000
0010
0100
0000
0000
0100
0000
,
0002
0000
2000
0000
3003
1000
0010
1000
,
0000
1000
0001
0000
0010
0001
1000
0100
,
0000
0100
1000
0000
0001
0010
0001
1000
,
0000
1000
0100
1000
0000
0010
0100
0010
,
0000
0100
0001
1000
0000
0001
0100
0010
,
0000
0010
0100
0000
0001
1000
0100
1000
,
0000
1000
0010
0000
0100
0010
1000
0001
,
0000
1000
0100
1000
0000
0001
0100
0001
,
0000
0000
0010
0000
0001
0000
1000
0000
0000
0000
0100
0000
0000
1000
0000
0000
,
0020
0000
0000
0200
0000
0000
0000
0330
,
0220
0000
0000
0000
0000
0000
0000
0000
0330
0000
0001
0000
0000
0002
0000
0000
,
2000
0003
0000
0200
0000
0000
0000
3300
,
1000
0000
0001
0000
1000
0000
0020
2000
0000
0000
0000
0000
0000
0000
3030
0000
,
0010
0000
0010
1000
0000
1000
0001
0000
,
0010
0000
0000
0000
0010
0000
0001
0000
0000
0000
0001
0000
0000
1000
0000
0000
,
0001
0000
0001
0010
0000
0010
0001
0000
,
1000
0000
0000
1000
0000
0000
0100
0000
0000
0000
0100
0000
1000
0000
0010
0000
,
0100
0000
0100
0010
0000
0010
0100
0000
,
0001
0000
1000
0000
1000
0000
0001
0000
0000
0000
0001
0000
0000
0010
0000
0000
,
0001
0000
1000
0000
0001
0000
1000
0000
0100
0000
0100
1000
0000
0000
1000
0000
,
0002
0023
0032
2003
,
3100
0000
1000
0000
0001
0000
0010
0000
0001
0000
1000
0100
0000
0000
1000
0000
,
0020
0230
0302
2003
,
3001
0000
0100
0000
0010
0000
0100
0000
0001
0000
1000
0001
0000
0000
0001
0000
,
0020
0000
0002
0000
0033
0001
1000
0100
,
0000
0100
0010
0000
0100
1000
0001
0010
,
0000
0010
0001
0000
1000
0100
1000
0010
,
0000
0100
0010
0100
0000
0001
1000
0001
,
0000
0010
0000
0001
0000
0000
0000
0000
;

//---------------dance-single - ----------------
#NOTES:
     dance-single:
     :
     Medium:
     3:
     0.227,0.227,0.063,0.016,0.051:
0000
0000
0000
0000
,
0011
0000
0000
1000
0000
0000
0000
0000
,
1001
0000
0000
0000
0000
0000
0001
0000
0000
0000
0001
0000
0000
1000
0000
0000
,
0100
0000
0000
1000
0000
0000
0000
0000
,
0010
0000
0000
0100
0000
0000
0001
0000
,
1000
0000
0000
0001
0000
0000
0100
0000
,
0001
0000
0000
0000
0000
0000
1000
0000
0000
0000
0100
0000
0000
1000
0000
0000
,
0010
0000
0000
0010
0000
0000
1000
0000
0000
0000
0001
0000
0000
0010
0000
0000
,
0001
0000
0000
1000
0000
0000
0100
0000
0000
0000
0000
0000
1000
0000
0000
0000
,
0001
0000
0000
0010
0000
0000
0000
0000
,
1100
0000
0000
0000
0000
0000
1000
0000
0000
0000
1000
0000
0000
0010
0000
0000
,
0110
0000
0000
0100
0000
0000
0000
0000
,
1001
0000
0000
0001
0000
0000
0010
0000
0000
0000
0000
0000
0000
0000
0000
0000
,
0011
0000
0000
0001
0000
0000
0000
0000
,
1010
0000
0000
0000
0000
0000
1000
0000
0000
0000
0010
0000
0000
0100
0000
0000
,
0010
0000
0010
0000
1000
0001
1000
0000
,
0001
0000
0001
0000
1000
0010
1000
0000
,
0010
0000
0010
0000
0100
0010
0100
0000
,
0001
0000
0001
0000
1000
0100
1000
0000
,
0100
0000
0100
0000
1000
0010
0100
0000
,
0010
0000
0100
0000
0000
0001
1000
0001
,
0000
1000
0001
0000
0000
0001
0010
0001
,
0000
0001
1000
0000
0000
1000
0100
1000
,
0000
0010
0000
0100
0000
0010
1000
0001
,
0000
0010
0000
0001
0000
1000
0100
1000
,
0000
0001
0000
0000
0000
0010
0100
0010
,
0000
0001
0000
0000
0000
0001
0100
0001
,
0000
1000
0100
1000
0000
0010
0100
0010
,
0000
0000
1000
0000
0000
0000
0001
0000
0000
0000
0010
0000
0000
0001
0000
0000
,
1000
0000
0000
0100
0000
0000
0100
0000
,
1000
0000
0000
0000
0000
0000
0000
0000
0000
0000
0010
0000
0000
0100
0000
0000
,
0010
0000
0000
1000
0000
0000
0001
0000
,
0010
0000
0000
0000
0000
0000
0000
0022
0000
0000
0000
0000
0000
0000
0033
0000
,
0001
0000
0000
1000
0000
0000
0100
0000
,
1000
0000
0000
0000
0000
0000
0010
0000
0000
0000
0010
0000
0000
0100
0000
0000
,
0010
0000
0000
1000
0000
0000
0000
0000
,
0001
0000
0000
1000
0000
0000
0100
0000
0000
0000
0000
0000
0100
0000
0000
0000
,
1000
0000
0000
0010
0000
0000
0000
1000
,
0001
0000
0000
0010
0000
0000
0001
0000
,
1000
0100
1000
0001
0010
0100
0010
0000
,
0001
1000
0100
1000
,
0001
0100
0001
1000
0001
0010
0001
0000
,
1000
1000
0100
0100
,
1000
0001
0010
0001
1000
0100
1000
0000
,
0100
0000
0010
0000
0000
0100
0010
0100
,
0000
1000
0001
0000
0000
0001
0010
0001
,
0000
1000
0100
0000
0000
1000
0001
1000
,
0000
0100
0000
1000
0000
0010
0100
0010
,
0000
1000
0000
0001
0000
0000
0000
0000
;

//---------------dance-single - ----------------
#NOTES:
     dance-single:
     :
     Easy:
     1:
     0.157,0.170,0.016,0,0.004:
0000
0000
0000
0000
,
1000
0000
0001
0000
,
0010
0000
0001
0000
,
1000
0000
0100
0000
,
1000
0010
0100
0000
,
0001
0000
0010
0000
,
0001
0000
1000
0000
,
0100
1000
0001
0000
,
1000
0001
0100
0000
,
0010
0000
0100
0000
,
0010
0000
1000
0000
,
0001
0000
0010
0000
,
0001
1000
0001
0000
,
0100
0000
0010
0000
,
0100
0000
0001
0000
,
1000
0100
1000
0100
,
1000
1000
1000
1000
,
0001
0010
0001
0010
,
0001
0001
0001
0001
,
1000
0001
1000
0001
,
1000
1000
0000
0100
,
1000
0010
0000
1000
,
0001
0100
0000
0010
,
0100
0010
0100
0001
,
1000
0001
1000
0100
,
0100
0010
0000
0100
,
0100
1000
0000
0001
,
0100
0001
0100
0010
,
1000
0010
1000
0010
,
1000
0000
0001
0000
,
1001
0000
0000
1000
,
0001
0000
0010
0000
,
0100
0000
0000
0000
0000
0000
0000
0110
0000
0000
0000
0000
0000
0000
0000
0000
,
0001
0000
1000
0000
,
0001
0000
0010
0000
,
0001
0000
1000
0000
,
0001
0010
0001
0000
,
1000
0000
0100
0000
,
1000
0000
0010
0000
,
0100
0010
0100
0001
,
1000
1000
1000
1000
,
0001
0010
0001
1000
,
0001
0001
0001
0001
,
0010
0100
0010
0001
,
1000
0001
0000
0010
,
0001
1000
0000
1000
,
0010
0100
0000
0010
,
1000
0001
0000
0001
,
1000
0001
0000
0000
;
