#TITLE:Attitude;
#ARTIST:Fireflight;
#BANNER:Attitude-bn.png;
#BACKGROUND:Attitude-bg.png;
#CDTITLE:.\CDTITLES\DP2Fire1.png;
#MUSIC:Attitude.mp3;
#OFFSET:0.002;
#SAMPLESTART:53.5;
#SAMPLELENGTH:12;
#BPMS:0=164.4;
#BGCHANGES:-1=Attitude.AVI=1.096=1=1=0,999=-=1=0=0=0;

//---------------dance-single - ----------------
#NOTES:
     dance-single:
     :
     Easy:
     4:
     0.248,0.296,0.173,0.139,0.000:
0000
0000
0000
0000
,
0000
0000
0000
0000
,
0000
0000
0000
0000
,
0000
0000
0000
0000
,
0000
0000
0000
0000
,
0000
1000
0000
0001
,
0000
1000
0000
0010
,
0000
0100
0000
0010
,
0000
0100
0000
1000
,
0000
0100
0000
0001
,
0000
0010
0000
0001
,
0000
0010
0000
1000
,
0000
0100
0000
0001
,
0001
0011
0000
0010
,
0000
0001
0000
0010
,
0000
1000
0000
0100
,
0000
0010
0000
0001
,
0000
0010
0000
0100
,
0000
1000
0000
0010
,
0000
0100
1000
0000
,
0000
0001
0001
0011
,
0000
0100
0000
1000
,
0000
0100
0000
0010
,
0000
0001
0000
0010
,
0000
1000
0000
0010
,
0000
0001
0000
0100
,
0000
0010
0000
1000
,
0000
0100
0000
0001
,
0001
0010
0100
1000
,
1100
0000
0020
0000
,
0030
0000
2000
0000
,
3000
0000
0200
0000
,
0300
0001
0001
0010
,
0010
0000
2000
0000
,
3000
0000
0002
0000
,
0003
0000
0000
0000
,
1100
1100
1100
0000
,
0000
1001
0000
0010
,
0000
0220
0330
0100
,
0000
0011
0000
1000
,
0000
0010
0000
1100
,
0000
0010
0000
1100
,
0000
0010
0000
1001
,
0000
0100
0000
2000
,
3000
0002
0003
0200
,
0300
0001
0000
0100
,
0000
0011
0000
0100
,
0000
0001
0000
0010
,
0000
0220
0330
0100
,
0000
0001
0000
1100
,
0000
0010
0000
1100
,
0000
0022
0000
0033
,
0000
0000
0000
0000
,
0010
0010
0010
0010
,
1000
1000
1000
1000
,
0010
0010
0010
0010
,
1000
1000
1000
1000
,
0000
0000
0001
0000
,
0100
0000
0011
0000
,
0100
0000
1000
0000
,
0001
0000
1000
0000
,
0011
0000
0100
0010
,
0100
0000
0000
0010
,
0100
0010
0000
0010
,
0100
0010
0000
1000
,
0100
0010
0000
0001
,
0001
0010
0100
1000
,
2000
3000
0000
0000
,
0000
0011
0011
0011
,
0000
1100
0000
0010
,
0000
1100
0000
0001
,
0000
0010
0000
0100
,
0000
1000
0000
0100
,
0000
0010
0000
0100
,
0000
1000
0000
0100
,
0000
0001
0000
0100
,
0000
1000
0000
0100
,
0000
0010
0000
1000
,
1000
1000
0000
0100
,
0000
0010
0000
0001
,
0000
0010
0000
0001
,
0000
1000
0000
0010
,
0000
0100
0000
0001
,
0000
0100
0000
0002
,
0010
0010
0010
0013
,
0000
0001
0010
0001
,
0000
0001
1000
0001
,
0000
0001
0100
0001
,
0100
0001
0100
0000
,
1000
0010
1000
0010
,
0000
0010
0100
0010
,
0100
0000
0100
0010
,
0100
0001
0100
0001
,
0100
0002
0200
0303
,
0000
0000
0010
0220
,
0330
0000
0000
0000
;

//---------------dance-single - ----------------
#NOTES:
     dance-single:
     :
     Medium:
     6:
     0.354,0.461,0.243,0.159,0.000:
0000
0000
0000
0000
,
0000
0000
0000
0000
,
0000
0000
0000
0000
,
0000
0000
0000
0000
,
0000
0000
0000
0000
,
0000
1000
0000
0001
,
0000
1000
0000
0010
,
0000
0100
0000
0010
,
0000
0100
0000
1000
,
0000
0100
0000
0001
,
0000
0010
0000
0001
,
0000
0010
0000
1000
,
0110
1001
0110
0011
,
1100
0100
0010
0010
,
0001
0001
0010
0010
,
0100
0100
1000
1000
,
0010
0010
0001
0001
,
0010
0010
1000
1000
,
0100
0100
0010
0010
,
0001
0000
0001
0000
1000
0000
0000
0100
,
0000
0010
0000
0001
,
0022
0033
0000
1000
,
0000
0100
0000
0010
,
0000
0001
0000
0010
,
0000
1000
0000
0010
,
0000
0001
0000
0100
,
0000
0010
0000
1000
,
0000
0100
0000
0001
,
0001
0010
0100
1000
,
1100
0000
0020
0000
,
0130
1000
0200
0000
,
0301
1000
0200
0001
,
0310
0001
0001
0010
,
0010
0000
0000
1000
2000
0000
0000
0000
,
3000
0000
0000
0001
0002
0000
0000
0000
,
0003
0000
0000
0000
,
1100
0000
1100
0000
1100
0000
0100
0010
,
0100
0000
0000
0010
,
0000
0220
0330
0100
,
0001
0011
0100
1000
,
0100
0010
0001
1100
,
0100
0010
0001
1100
,
1000
0010
1000
1001
,
0010
0100
0010
2000
,
3000
0002
0003
0200
,
0300
0001
0000
0100
,
0010
0011
1000
0100
,
0010
0001
0100
0010
,
1000
0220
0330
0100
,
0000
0001
0010
1100
,
0001
0010
0001
1100
,
0010
0022
0000
0033
,
0000
0000
0000
0000
,
0010
0010
0010
0010
,
1000
1000
1100
1000
,
0010
0010
0010
0010
,
1000
1000
1100
1000
,
0100
0010
0001
0010
,
0100
1000
0110
0010
,
0100
1000
0100
0001
,
0100
1000
0100
0010
,
1000
0010
1100
0100
,
0010
0001
0011
0010
,
0100
0010
0110
0010
,
0100
0010
1100
1000
,
0100
0010
0011
0001
,
0001
0010
0100
1000
,
2000
3000
0000
0000
,
0011
0011
0011
0011
,
0100
1100
0000
0010
,
0100
1100
0010
0001
,
0010
0100
1000
0100
,
0001
0010
0001
1000
,
0100
1000
0100
1000
,
0010
1000
0010
1000
,
0001
0100
0001
0010
,
0001
0000
1000
0000
0001
0010
0001
0000
,
1000
0001
0100
0010
,
1000
0010
0100
0001
,
0010
0001
0100
0001
,
0010
0100
1000
0001
,
0010
0100
1000
0010
,
0100
0001
0100
0010
,
1000
0001
0010
0002
,
0010
0010
0010
0013
,
0010
0001
0010
0001
,
0010
0001
1000
0001
,
0100
0001
0100
0001
,
0100
0001
0200
0300
,
1000
0010
1000
0010
,
0001
0010
0100
0010
,
0100
0001
0100
0010
,
0100
0001
0100
0001
,
1000
0000
0002
0000
0200
0000
0303
0010
,
0000
0000
0010
0220
,
0330
0000
0000
0000
;

//---------------dance-single - ----------------
#NOTES:
     dance-single:
     :
     Hard:
     8:
     0.478,0.560,0.215,0.132,0.000:
0000
0000
0000
0000
,
0000
0000
0000
0000
,
0000
0000
0000
0000
,
0010
0001
0010
0000
0100
1000
0100
0000
,
0010
0001
0010
0000
0100
1000
0100
0000
,
1000
0100
1000
0000
0000
0000
0001
0000
,
0010
0100
0010
0001
,
0010
0100
0010
0001
,
1000
0001
1000
0010
,
0100
0001
1000
0001
,
0010
0001
0100
0010
,
1000
0010
0100
0001
,
0110
1001
0110
0011
,
1100
0000
0100
0000
0010
0001
0010
0000
,
0001
0010
0001
0000
0010
0001
0010
0000
,
0100
1000
0100
0000
1000
0100
1000
0000
,
0001
1000
0001
0000
1000
0001
1000
0000
,
0010
0100
0010
0000
1000
0100
1000
0000
,
0100
0010
0100
0000
0010
0100
0010
0000
,
0001
0010
0001
0000
1000
0000
0000
0100
,
0000
0000
0010
0001
0010
0001
0001
0000
,
0022
0033
0000
1000
,
0100
0010
0001
0010
,
0100
1000
0001
0010
,
0001
0100
0001
1000
,
0010
0100
0001
0100
,
0010
1000
0001
1000
,
0100
0010
0001
1000
,
0001
0010
0100
1000
,
1100
0000
0020
0000
,
0130
1000
0200
0000
,
1300
1000
0200
0001
,
0310
0001
0001
1000
,
1000
0000
0000
1000
2000
0000
0000
0000
,
3001
0000
0000
0001
0002
0000
0000
0000
,
0013
0000
0000
0000
,
1100
0000
1100
0000
0100
1000
0100
1000
,
0100
0000
0100
0010
,
0001
0010
0110
0000
0010
0100
0010
0000
,
0001
0010
0011
0000
0100
0000
1000
0000
,
0100
0010
0001
0000
0001
0010
1001
0000
,
0001
1000
0001
0000
0010
0100
1100
0000
,
1000
0100
0010
0000
0001
0100
1001
0000
,
0010
1000
0010
0000
0010
0000
2000
0000
,
3001
0002
0103
0200
,
0301
0001
0001
0000
0000
0000
0100
0000
,
0010
0010
0010
0000
1000
0000
0100
0000
,
0010
0001
0010
0000
0100
1000
0010
0000
,
1000
1000
0220
0000
0330
0000
0100
0000
,
0001
0010
0001
0000
0010
0000
1100
0000
,
0001
0010
0001
0000
0001
0000
1100
0000
,
0010
0000
0001
0000
0001
0000
0000
1000
,
0000
0001
0010
0001
,
0010
0010
0100
0100
,
1000
1000
1100
1000
,
0010
0010
0100
0100
,
0001
0001
0101
0001
,
0001
0010
0001
0010
,
0100
1000
0110
0010
,
0100
1000
0100
0010
,
0100
1000
0100
0010
,
0001
0010
1100
0100
,
0010
0001
0011
0010
,
0100
0010
0110
0010
,
0100
0010
1100
1000
,
0100
0010
0011
0001
,
0001
0010
0100
1000
,
2000
3000
0000
0000
,
0011
0011
0011
0011
,
0100
1000
0100
0000
0010
0001
0010
0000
,
0100
1000
0100
0000
0010
0001
0010
0000
,
0100
0010
0100
0000
1000
0100
1000
0000
,
0001
0010
0001
0000
0100
1000
0100
0000
,
0100
0010
0100
0000
0001
0010
0001
0000
,
0010
0100
1000
0000
0010
0100
0001
0000
,
0001
0010
0100
0000
1000
0010
0100
0000
,
0001
1000
0011
1000
,
1000
0000
0001
0000
0100
0010
1000
0000
,
0010
0100
0001
0000
0010
0100
1000
0000
,
0010
0100
0001
0000
0010
0000
0001
0000
,
1000
0000
0001
0000
1000
0010
1000
0000
,
0010
0100
0001
0010
,
0100
0010
0100
0010
,
0001
1000
0001
0002
,
0010
0010
0010
0013
,
0010
0001
0010
0001
0010
0001
0010
0001
,
1000
0100
1000
0100
1000
0100
1000
0100
,
1000
0100
0010
0001
0100
0010
1000
0001
,
0100
0010
1000
0001
0200
0000
0300
0000
,
0001
0100
0010
1000
0100
0010
0001
0100
,
0010
1000
0100
0010
0001
0010
0100
1000
,
0001
0010
0100
1000
0100
0010
0100
1000
,
0100
0010
0100
1000
0010
0100
0001
1000
,
0010
0200
0020
0000
0000
0000
0330
0000
,
0000
0010
0010
0220
,
0330
0000
0000
0000
;
