#TITLE:サンスクリットの観測者;
#SUBTITLE:;
#ARTIST:いとうかなこ;
#TITLETRANSLIT:Sanskrit Observer;
#SUBTITLETRANSLIT:;
#ARTISTTRANSLIT:Kanako Itou;
#GENRE:Animé;
#CREDIT:Telperion;
#BANNER:Sanskrit Observer.png;
#BACKGROUND:Sanskrit Observer-bg.png;
#LYRICSPATH:;
#CDTITLE:!CDTitle.png;
#MUSIC:Sanskrit Observer.ogg;
#OFFSET:-0.185;
#SAMPLESTART:63.059;
#SAMPLELENGTH:28.743;
#SELECTABLE:YES;
#DISPLAYBPM:167.000;
#BPMS:0.000=167.000
;
#STOPS:
;
#BGCHANGES:0.000=Sanskrit Observer-bg.png=1.000=0=0=0=StretchNoLoop====,
0.458=Sanskrit Observer.avi=1.000=1=0=0=StretchNoLoop==CrossFade==,
99999=-nosongbg-=1.000=0=0=0 // don't automatically add -songbackground-
;
#KEYSOUNDS:;
#ATTACKS:;

//---------------dance-single - Telperion----------------
#NOTES:
     dance-single:
     Telperion:
     Challenge:
     9:
     0.682,0.832,0.308,0.247,0.299,479.000,35.000,28.000,0.000,0.000,5.000,0.682,0.832,0.308,0.247,0.299,479.000,35.000,28.000,0.000,0.000,5.000:
0000
0000
0000
0000
,
0000
0000
0000
0000
,
0000
0000
0000
2002
,
0000
0000
0000
0000
,
0000
0000
0003
0020
,
0000
0000
0000
0000
,
0000
0000
3000
0200
,
0000
0000
0000
0000
,
0000
0000
0030
2000
,
0000
0000
0000
0000
,
0000
0000
0000
0000
3000
0000
0301
0010
,
0000
0010
0100
1000
0100
0000
1000
0001
,
0100
0000
0010
0000
0010
1000
0100
0000
,
0100
0010
0000
0100
1000
0000
0100
0010
,
0000
0100
0001
0000
0100
0010
0001
0000
,
0000
1000
0000
0000
0010
0000
0000
0110
,
0000
0101
1000
0021
,
0000
0200
0000
0000
0000
0000
0000
0000
,
0000
0000
0000
0000
0000
0330
1000
0000
,
0000
0000
0001
0010
0001
0010
0004
0000
,
0000
0403
0000
0310
,
0000
0000
0000
0101
,
0000
0000
0000
1001
,
0010
0000
0000
0000
1001
0000
0100
0000
0001
1000
0001
0000
1000
0000
0000
1000
,
0100
0010
0001
1000
0010
0000
0201
0000
,
0301
1002
0000
1003
0010
2010
0000
3001
,
1000
0001
0010
1000
0010
0001
1000
0001
,
1000
0010
0110
0000
1000
0001
0100
0001
,
2000
0000
0000
0000
0001
0000
0000
3000
1010
0000
0000
0000
0011
0000
1000
0000
,
0001
0010
0110
0000
1000
0001
0010
0001
,
2000
0000
0000
0000
0100
0000
0000
3000
1001
0000
0000
0001
0100
0000
0010
0000
,
1000
0001
1001
0000
0001
0010
0100
1000
,
0200
0000
0000
0000
0001
0000
0000
0300
0110
0000
0000
0000
0011
0000
0001
0000
,
0010
0001
4000
0000
0000
0000
3040
0000
,
0000
0000
0130
0010
1000
0000
1001
0001
,
0010
0200
0300
1000
0010
0200
0300
0100
,
0002
0000
0000
0000
1000
0000
0000
0003
0011
0000
0000
0000
1010
0000
0001
0000
,
1000
0010
0110
0000
0001
1000
0010
1000
,
0002
0000
0000
0000
1000
0000
0000
0003
0011
0000
0000
0010
0100
0000
0000
0000
,
1000
0000
0000
0001
1000
0000
0000
0000
1100
0000
0000
0000
0110
0000
0000
0010
,
0001
0000
0000
0001
1000
0000
0000
0000
1010
0000
0000
0000
0110
0000
0100
0000
,
0001
1001
1000
0100
0110
1000
0100
0110
,
0010
0000
0001
0000
1001
0000
1000
0000
0001
0000
1000
0000
0001
0100
0010
1000
,
0001
0100
0010
1000
0001
0000
0100
0001
0100
0010
1000
0000
0001
0000
0010
0000
,
0001
0000
1000
0000
0001
0000
0010
0000
0100
1000
0100
0000
1000
0000
0010
0000
,
0001
0000
0010
0000
1000
0000
0010
0000
0100
0001
0100
0000
1000
0000
0100
0000
,
1000
0000
0100
0000
0010
0000
1000
0000
0001
0100
0001
0000
0010
0000
0100
0000
,
0100
0000
1000
0100
1000
0000
0001
0000
0010
0100
1000
0000
0001
0000
0100
0000
,
0001
0000
1000
0010
1000
0000
0010
0000
0100
0001
0100
0000
0001
0000
0010
0000
,
0010
0000
0100
0010
0100
0000
1000
0000
0001
1000
0100
0000
1000
0000
0001
0000
,
0100
0000
0010
1000
0010
0000
0100
0000
1000
0000
0100
0000
0001
1000
0100
0010
,
0001
1000
0100
0010
0001
0000
1000
0000
0001
0000
1000
0010
0100
0000
0001
0000
,
0100
0000
0010
0000
0100
0000
0001
0000
1000
0001
1000
0000
0100
0000
0010
0000
,
0100
0000
1000
0000
0001
0000
0010
0000
0100
0010
0100
0000
0001
0000
0100
0000
,
0001
0000
0100
0000
0010
0000
0001
0000
1000
0001
1000
0000
0010
0000
0100
0000
,
0100
0000
0001
0100
0001
0000
1000
0000
0001
0100
0001
0000
0010
0000
0100
0000
,
1000
0000
1000
0001
0010
0000
0100
0000
1000
0001
1000
0000
0010
0000
0100
0000
,
0001
0000
0001
1000
0010
0000
0100
0000
0001
1000
0001
0000
0010
0000
0100
0000
,
0001
0000
0100
0000
1000
0000
0001
0000
0100
0001
1000
0000
0010
0000
0100
0000
,
1000
0000
0100
0001
1000
0001
1000
0000
0001
0000
0010
0100
1000
0000
0001
0000
,
1001
0000
1000
0010
0100
0000
0001
0000
0101
0000
1000
0000
2200
0000
0000
0000
,
0000
0000
0000
0000
0000
0000
0000
0000
0300
0000
3100
1000
0001
0000
0100
0000
,
0001
0000
0010
0000
0100
0000
1000
0001
1000
0010
0200
0000
0000
0000
0301
0000
,
1000
0000
0001
0000
0100
0000
0010
0000
1000
0010
0100
0000
0001
0000
1000
0000
,
0001
0000
1000
0100
0010
0000
0001
0000
1000
0001
1000
0000
0010
0000
0100
0000
,
0010
0000
1000
0001
0100
0000
0010
0000
0100
0001
0100
0000
0001
0000
1000
0000
,
1000
0000
0001
0010
0100
0000
1000
0000
0001
1000
0001
0000
0010
0000
0100
0000
,
0010
0000
0001
1000
0100
0000
1000
0000
0001
0100
0001
0000
1000
0000
0010
0000
,
0010
0000
0100
0001
0100
0000
0010
0000
1000
0001
0100
0000
0020
0030
1000
0000
,
0020
0030
0200
0300
0002
0003
0010
0000
0120
0030
0001
0000
1000
0000
0010
0000
,
0010
0000
1000
0001
1000
0000
0010
0000
0010
0000
0100
0001
0010
0000
0100
0000
,
1000
0000
0001
1000
0100
0000
1000
0000
0001
1000
0100
0000
4000
0000
0000
0000
,
3000
0000
0001
0100
0010
0000
0100
0000
0001
0100
0001
0000
0010
0000
0100
0000
,
1000
0000
0001
1000
0010
0000
0100
0000
0001
1000
0001
0000
0010
0000
0100
0000
,
1000
0000
0001
1000
0010
1000
0010
1000
0001
1000
0001
0000
0020
0000
0000
0000
,
0000
0000
0000
0200
,
0000
0030
0000
2000
,
0000
0000
0000
0000
,
0000
0000
0000
3300
;

//---------------dance-double - Telperion----------------
#NOTES:
     dance-double:
     Telperion:
     Challenge:
     9:
     0.663,0.832,0.238,0.247,0.251,472.000,27.000,28.000,0.000,0.000,5.000,0.663,0.832,0.238,0.247,0.251,472.000,27.000,28.000,0.000,0.000,5.000: // measure 0
00000000
00000000
00000000
00000000
,  // measure 1
00000000
00000000
00000000
00000000
,  // measure 2
00000000
00000000
00000000
00020020
,  // measure 3
00000000
00000000
00000000
00030000
,  // measure 4
00000000
00000000
00000000
00002000
,  // measure 5
00000000
00000000
00000000
00000030
,  // measure 6
00000000
00000000
00000000
00000200
,  // measure 7
00000000
00000000
00000000
00003000
,  // measure 8
00000000
00000000
00000000
00000020
,  // measure 9
00000000
00000000
00000000
00000300
,  // measure 10
00000000
00000000
00000000
00000000
00000000
00000000
00000130
00000010
,  // measure 11
00000000
00000100
00001000
00000001
00001000
00000001
00000100
00000010
,  // measure 12
00000000
00000100
00000010
00001000
00000010
00100000
01000000
00000000
,  // measure 13
10000000
00010000
00000000
10000000
00100000
00000000
01000000
00100000
,  // measure 14
00000000
01000000
10000000
00000000
01000000
00010000
10000000
00000000
,  // measure 15
10000000
01000000
00000000
01000000
00010000
00000000
00010000
00001000
,  // measure 16
00000000
00001000
00000100
00000000
00000001
00000000
00002010
00000000
,  // measure 17
00000000
00000002
00000000
00000000
00000000
00000000
00000000
00000000
,  // measure 18
00000000
00000000
00000000
00003003
,  // measure 19
00000000
00000000
00000001
00001000
00000001
00001000
00000400
00000000
,  // measure 20
00000000
00040300
00000000
00031000
,  // measure 21
00000000
00000000
00000000
00101000
,  // measure 22
00000000
00000000
00000000
00011000
,  // measure 23
01001000
00000000
00000000
00001000
00010000
00000000
00001000
00000000
01000000
00010000
01000000
00000000
00100000
00000000
00000000
00100000
,  // measure 24
10000000
01000000
00010000
01000000
00200000
00300000
00120000
00000000
,  // measure 25
10030000
20010000
00000000
30100000
01000000
01002000
00000000
00013000
,  // measure 26
00001000
00010000
00000100
00000010
00000001
00000000
00001001
00001000
,  // measure 27
00000001
00000100
00001000
00000000
00010000
01000000
10000000
01000000
,  // measure 28
00100000
00000000
11000000
00000000
00010000
00000000
10010000
00010000
,  // measure 29
10000000
00100000
00010000
00000000
00001000
00010000
00000100
00000010
,  // measure 30
00000100
00000000
00001100
00000000
00000001
00000000
00001001
00000100
,  // measure 31
00000001
00000010
00000100
00000000
00001000
00000100
00010000
00001000
,  // measure 32
00010000
00000000
01002000
00000000
00103000
00000000
10010000
10000000
,  // measure 33
00010000
10000000
00400000
00000000
00000000
00000000
04300000
00000000
,  // measure 34
00000000
00000000
03001000
00100000
01000000
00000000
10010000
10000000
,  // measure 35
00100000
02000000
00000000
03001000
00010000
02000000
00000000
03010000
,  // measure 36
00001000
00000200
00000000
00000301
00000010
00000000
00001001
00001000
,  // measure 37
00000001
00000100
00001000
00000000
00010000
00001000
00010000
01000000
,  // measure 38
10000000
00000000
00000000
00000000
10100000
00000000
00000000
00000000
00010000
00000000
00000000
01000000
00010000
00000000
00000000
00000000
,  // measure 39
10000000
00000000
00000000
10000000
01000000
00000000
00010000
00000000
00001000
00000000
00000000
00000000
00011000
00000000
00000000
00001000
,  // measure 40
00010000
00000000
00000000
00010000
00000100
00000000
00000010
00000000
00000001
00000000
00000000
00000000
00001001
00000000
00001000
00000000
,  // measure 41
00000010
00010010
00010000
00001000
00101000
01000000
10000000
11000000
,  // measure 42
00010000
01000000
01010000
00100000
10000000
00010000
00200000
00000000
,  // measure 43
00000000
00000000
01300000
00000000
10000000
00000000
00010000
01000000
00001000
00010000
00000010
00000000
00001000
00000000
00000001
00000000
,  // measure 44
00000010
00000000
00000001
00000000
00001000
00000000
00000100
00000000
00000010
00000100
00000010
00000000
00000001
00000000
00000010
00000000
,  // measure 45
00001000
00000000
00010000
00000000
00100000
00000000
00010000
00000000
00001000
00010000
00001000
00000000
00100000
00000000
01000000
00000000
,  // measure 46
00100000
00000000
01000000
00000000
10000000
00000000
00010000
00000000
01000000
00010000
01000000
00000000
00100000
00000000
01000000
00000000
,  // measure 47
00010000
00000000
10000000
00010000
01000000
00000000
00001000
00000000
00010000
00001000
00010000
00000000
00000100
00000000
00001000
00000000
,  // measure 48
00000001
00000000
00000010
00000100
00001000
00000000
00000100
00000000
00010000
00000100
00010000
00000000
00001000
00000000
01000000
00000000
,  // measure 49
00100000
00000000
01000000
00001000
00010000
00000000
00001000
00000000
01000000
00001000
01000000
00000000
00010000
00000000
10000000
00000000
,  // measure 50
01000000
00100000
00010000
10000000
00100000
01000000
00001000
00000100
,  // measure 51
00000001
00000010
00000100
00010000
01000000
10000000
00010000
10000000
,  // measure 52
01000000
00000000
10000000
00000000
00010000
00000000
01000000
00000000
00100000
01000000
00100000
00000000
10000000
00000000
00100000
00000000
,  // measure 53
00010000
00000000
00001000
00000000
00000010
00000000
00001000
00000000
00010000
00001000
00010000
00000000
00000010
00000000
00000100
00000000
,  // measure 54
00001000
00000000
00000100
00000000
00000001
00000000
00001000
00000000
00000100
00001000
00000100
00000000
00000010
00000000
00000100
00000000
,  // measure 55
00001000
00000000
00000001
00001000
00000100
00000000
00010000
00000000
00001000
00010000
00001000
00000000
00100000
00000000
01000000
00000000
,  // measure 56
10000000
00000000
00100000
01000000
00010000
00000000
01000000
00000000
00001000
00010000
00001000
00000000
00010000
00000000
00000100
00000000
,  // measure 57
00000010
00000000
00000001
00000010
00000100
00000000
00010000
00000000
00001000
00010000
00001000
00000000
00100000
00000000
01000000
00000000
,  // measure 58
00010000
00000000
01000000
00000000
10000000
00000000
00010000
00000000
01000000
00010000
10000000
00000000
00100000
00000000
01000000
00000000
,  // measure 59
00001000
00000000
00010000
00000010
00001000
00000010
00001000
00000000
00000001
00000000
00000010
00000000
00000100
00000000
00010000
00000000
,  // measure 60
00011000
00000000
00000000
00001000
00100000
00000000
01000000
00000000
11000000
00000000
00010000
00000000
20020000
00000000
00000000
00000000
,  // measure 61
00000000
00000000
00000000
00000000
00000000
00000000
00000000
00000000
30030000
00000000
10000000
00010000
01000000
00000000
00010000
00000000
,  // measure 62
10000000
00000000
00100000
00000000
00010000
00000000
00001000
01000000
00001000
00010000
00000020
00000000
00000000
00000000
00000130
00000000
,  // measure 63
00000001
00000000
00001000
00000001
00001000
00000000
00000100
00000000
00001000
00000001
00001000
00000000
00000100
00000000
00010000
00000000
,  // measure 64
00001000
00000000
01000000
00001000
00010000
00000000
00001000
00000000
01000000
00010000
01000000
00000000
00100000
00000000
10000000
00000000
,  // measure 65
00010000
00000000
00100000
01000000
10000000
00000000
00010000
00000000
10000000
00010000
10000000
00000000
00100000
00000000
01000000
00000000
,  // measure 66
00001000
00000000
01000000
00001000
00010000
00000000
00001000
00000000
00010000
00000100
00010000
00000000
00001000
00000000
00000100
00000000
,  // measure 67
00000001
00000000
00000010
00000001
00000010
00000000
00000100
00000000
00010000
00000100
00010000
00001000
00010000
00000000
00001000
00000000
,  // measure 68
01000000
00000000
00010000
01000000
00100000
00000000
10000000
00000000
00010000
10000000
00010000
00000000
00200000
00300000
01000000
00000000
,  // measure 69
20000000
30000000
02000000
03000000
00010000
00000000
00002000
00003000
00000020
00000030
00000200
00000300
00001000
00000000
00000001
00000000
,  // measure 70
00000100
00000000
00000001
00001000
00000001
00000000
00000100
00000000
00000001
00000000
00000010
00000100
00001000
00000000
00000100
00000000
,  // measure 71
00010000
00000000
00001000
01000000
00001000
00000000
00010000
00000000
00001000
01000000
00001000
00000000
00400000
00000000
00000000
00000000
,  // measure 72
00300000
01000000
10000000
00010000
01000000
00100000
10000000
10000000
,  // measure 73
00100000
00000000
01000000
00001000
00010000
00000000
00001000
00000000
00010000
00000010
00010000
00000000
00000010
00000000
00001000
00000000
,  // measure 74
00000001
00000000
00000010
00000100
00001000
00000100
00001000
00000100
00010000
00001000
01000000
00000000
00200000
00000000
00000000
00000000
,  // measure 75
00000000
00000000
00000000
02000000
,  // measure 76
00000000
00300000
00000000
20000000
,  // measure 77
00000000
00000000
00000000
00000000
,  // measure 78
00000000
00000000
00000000
33000000
;

//---------------dance-double - Telperion----------------
#NOTES:
     dance-double:
     Telperion:
     Beginner:
     10:
     0.434,0.728,0.625,0.546,0.053,207.000,71.000,62.000,84.000,22.000,0.000,0.434,0.728,0.625,0.546,0.053,207.000,71.000,62.000,84.000,22.000,0.000:
00000000
00000000
00000000
00000000
,
00000000
00000000
00000000
00000000
,
00000000
00000000
00000000
00000001
,
00000000
00000010
00000000
00000000
00001000
00000000
00000000
00010000
,
00000000
00100000
00000000
10000000
,
00000000
01000000
00000000
00000000
00010000
00000000
00000000
00001000
,
00000000
00000100
00000000
00000101
,
00000000
00000100
00000000
00000000
00001000
00000000
00000000
00010000
,
00000000
01000000
10000000
00100000
,
00000000
00010000
00000000
00000000
00001000
00000000
00000000
00000010
,
00000000
00000001
00000100
00000001
,
00000100
00001000
00000100
00001000
,
00010000
00200000
02000000
00020000
,
00000000
00000000
00000000
03330000
,
00000000
00000000
00000000
00220000
,
00000000
00330000
00000000
00000000
,
00000000
00000000
00000000
00102000
,
00000000
00020000
00000000
00000000
00000000
00000000
00000000
00000000
,
00000000
00000000
00033000
00000000
,
00000000
00000000
00000000
00000000
M0000000
00000000
0000000M
00000000
0M000000
00000000
000000M0
00000000
00M00M00
00M00M00
00M00M00
00M00M00
,
00M00M00
00M00M00
00M00M00
00M00M00
00M00M00
00000000
00000000
00000000
00000000
00000000
00000000
00000000
00000001
00000000
00000000
00000000
,
00000000
00000010
00000000
00000000
00001000
00000000
00020000
00000000
,
00000000
00032000
00003000
00000011
,
00010100
00000011
01000100
10100000
,
01001000
00000000
10100000
00001000
01001000
00000000
00011000
00000000
,
00020200
00000001
00000000
00000000
00030300
00011000
00000000
00000000
,
00000000
01001000
00000000
01022100
,
00000000
01000100
01000000
00000100
,
01000000
00000100
01033000
00020020
,
00000000
01000000
00000000
00000000
,
00000000
00030030
00000000
02000200
,
00000000
00000000
00000000
00000000
00000000
00000000
00000000
00000000
00000000
00000000
00000000
00000000
00000000
00000000
00000000
00000000
00000000
00000000
00000000
00000000
00000000
00000000
00000000
00000300
00000200
00000000
00000000
00000000
00000000
00000000
00000000
00000000
,
00000000
00000000
00000000
00000000
00000000
00000000
00000000
00000000
00000000
00000000
00000000
00000000
00000000
00000000
00000000
03000000
01000000
00000000
00000000
00000000
00000000
00000000
00000000
00000000
00000310
00000000
00000000
00000000
000000M0
00000000
00000000
00000000
,
00000110
00000000
00000000
00000000
,
01100000
00M00000
00000000
00100020
,
00020030
00001000
00030020
00000100
,
00020030
00002000
00033000
00120000
,
00M00000
01000000
0M000000
00100000
,
00M00000
01030000
00000000
01000010
,
00100100
01000010
00100100
00010000
,
00001000
00000000
00010000
00000000
00001000
00000000
00011000
000MM000
,
00000000
00011000
000MM000
00000000
00011000
000MM000
00000000
00011000
,
000MM000
00000000
00011000
00010000
00000200
02000000
00022000
00000000
,
00030000
00000020
03003330
00001100
,
01200120
0M000M00
00322030
00000000
,
00000000
00033000
01000100
00000000
00011000
00000000
00011000
00000000
,
00011000
00000000
00000000
00000000
00011000
00000000
00000000
00000000
00011000
00000000
00010000
00001000
00010000
00000000
00000000
00000000
,
00011000
00011000
00011000
02000100
,
00001000
03000200
00010300
000MM2M0
,
00000310
00000000
00000000
00000200
00000000
00000000
00200000
00000000
00000000
00000010
00000000
00000010
,
00000000
00000000
00000000
00000000
00000010
00000000
00000000
00000000
00000000
00000000
00000000
00000000
00300310
00000000
00000000
00000000
00000000
00000000
00000000
00000000
00000000
00000000
00000000
00000000
00000000
00000000
00000000
00000000
00000000
00000000
00000000
00000000
00000000
00000000
00000000
00000000
00001000
00000000
00000000
00000010
00000000
00000000
00000100
00000000
00000000
00000001
00000000
00000000
,
00001000
00000010
00010000
00001000
00100000
00000000
00000010
00000000
00010011
00000000
00000000
00000000
00010000
00000000
00000000
00000000
,
00000110
00001000
00000011
00010001
,
00011000
00100100
00001000
0MM1MM00
,
0MM1MM00
00MM1MM0
00MM1MM0
0MM1MM00
,
0MM1MM00
00MM1MM0
00MM1MM0
02000010
,
03002000
00013000
00001000
00201000
,
00301000
00010020
00010030
00100000
,
01200000
00000000
00000000
00300000
00102000
00000000
00000000
00003000
00021000
00000000
00000000
00030000
00010200
00000000
00000000
00000300
,
00001200
00000000
00000000
00000300
00000110
00000000
00000000
00000000
00011000
00000000
00000000
00000000
00000110
00000000
00000000
00000000
,
01000001
01100000
10000100
00022000
,
00000000
00000000
00000000
00000000
00000000
00000000
00000000
00033000
20000002
00000000
00000000
00000000
00000000
00000000
00000000
00000000
00000000
00000000
00000000
00000000
00000000
00000000
00000000
00000000
0MMMMMM0
00000000
00000000
00000000
00000000
00000000
00000000
00000000
,
00000000
00MMMM00
00000000
00000000
00000000
30011003
00000000
00000000
,
00000000
00220000
00000000
00300000
,
00000000
00000000
20030000
00200000
,
00000000
00000000
30000000
02000000
,
00000000
00002000
00000000
03300010
,
00000000
00000000
00000000
00000000
00000000
00000000
00000000
00000000
00000010
00000000
00100000
00000000
00000001
00000000
00000000
00000010
,
00000000
00000001
00000000
00000010
,
00000001
00100000
00000010
00000000
10000000
00000000
00100000
00000000
,
10000000
00000010
00100000
00000000
00000001
00000000
00000010
00000000
,
00000000
00000100
00000000
00000001
,
00000000
01000000
00000000
00000100
,
00000000
10000000
00000000
00100000
,
00000000
00003010
00000000
00022000
,
00000000
00000000
00000000
00000000
00000000
00000000
00000000
00000000
00000000
00000000
00000000
00000000
00000000
00000000
00000000
00000000
00000000
00000000
00000000
00000000
00000000
00000000
00000000
00003000
00002000
00000000
00000000
00000000
00000000
00000000
00000000
00000000
,
00000000
00000000
00000000
00000000
00000000
00000000
00000000
00000000
00000000
00000000
00000000
00000000
00000000
00000000
00000000
00000000
00000000
00000000
00000000
00000000
00000000
00000000
00000000
00030000
00020000
00000000
00000000
00000000
00000000
00000000
00000000
00000000
,
00000000
00000000
00000000
00000000
00000000
00000000
00000000
00000000
00000000
00000000
00000000
00000000
00000000
00000000
00000000
00000000
00000000
00000000
00000000
00000000
00000000
00000000
00000000
00003000
00002000
00000000
00000000
00000000
00000000
00000000
00000000
00000000
,
00000000
00000000
00000000
00000000
00000000
00000000
00000000
00000000
00000000
00000000
00000000
00000000
00000000
00000000
00000000
00000000
00000000
00000000
00000000
00000000
00000000
00000000
00000000
00033000
000MM000
00000000
00000000
00000000
00000000
00000000
00000000
00000000
;
