#TITLE:I. R.;
#SUBTITLE:;
#ARTIST:いとうかなこ;
#TITLETRANSLIT:;
#SUBTITLETRANSLIT:;
#ARTISTTRANSLIT:Kanako Itou;
#GENRE:Animé;
#CREDIT:Telperion;
#BANNER:I.R..png;
#BACKGROUND:I.R.-bg.png;
#LYRICSPATH:;
#CDTITLE:!CDTitle.png;
#MUSIC:I.R..ogg;
#OFFSET:-0.021;
#SAMPLESTART:80.268;
#SAMPLELENGTH:23.538;
#SELECTABLE:YES;
#DISPLAYBPM:163.000;
#BPMS:0.000=163.000
;
#STOPS:
;
#BGCHANGES:0.000=I.R.-bg.png=1.000=0=0=0=StretchNoLoop====,
25.875=I.R..avi=1.000=1=0=0=StretchNoLoop==CrossFade==,
99999=-nosongbg-=1.000=0=0=0 // don't automatically add -songbackground-
;
#KEYSOUNDS:;
#ATTACKS:;

//---------------dance-single - Telperion----------------
#NOTES:
     dance-single:
     Telperion:
     Challenge:
     8:
     0.543,0.679,0.249,0.374,0.144,408.000,32.000,48.000,0.000,0.000,7.000,0.543,0.679,0.249,0.374,0.144,408.000,32.000,48.000,0.000,0.000,7.000:
0000
0000
0000
0000
,
0000
0000
0000
0000
,
0000
0000
0000
0000
,
0000
0000
0000
0000
,
0000
0000
0000
0000
,
0000
0000
0000
0000
,
0000
0000
0000
0000
,
0000
0000
0000
0000
,
0000
0000
0000
0000
,
0022
0000
0000
0003
,
2000
0000
0000
0000
3000
0032
0000
2000
,
0000
0000
0000
0003
0200
0000
0000
0000
,
3000
0000
0000
0000
0300
0100
0000
0100
,
0020
0000
0000
0000
,
0032
0000
0000
0000
0000
2000
0003
0000
,
0020
0000
0000
0000
0000
0000
0000
3030
,
0010
1000
0001
0200
0000
0000
0000
0000
0000
0000
0000
0000
,
2300
0000
0000
0000
,
0000
0000
0000
0000
,
3200
0000
0000
0000
,
0000
0000
0000
0000
0000
0000
0000
0300
,
0410
0000
0310
0100
0001
1000
0001
0010
,
0400
0000
0310
0100
1000
0010
0100
0001
,
4000
0000
3010
1000
0001
0010
0001
1000
,
0004
0000
0000
0000
1003
0000
0001
0000
0010
0000
0000
0100
0000
0000
1000
0000
,
0040
0000
0000
0000
0030
0000
0100
0000
0010
0000
0000
1000
0000
0000
0001
0000
,
0040
0000
0130
0010
1000
0010
0001
1000
,
0040
0000
1030
0001
1000
0010
0100
0001
,
0010
0100
0010
1000
0001
0100
1000
0001
,
1001
0000
1000
0000
0001
1000
0001
1000
0100
0000
1000
0000
0001
0000
0100
0010
,
0100
0010
1000
0001
0010
0001
1000
0001
,
0100
0000
0001
0000
1000
0001
1000
0001
0100
0000
0001
0000
0010
0000
0100
0010
,
0100
0000
1000
0000
1000
0000
0001
0000
2000
0000
0000
3020
0000
0000
0230
0000
,
0301
0100
0001
0100
0010
1000
0100
0010
,
0001
0010
1000
0010
0001
0100
1000
0100
,
0001
0100
0010
0010
1000
0001
0020
0030
,
1001
0001
1001
1001
0000
0220
0000
0330
,
1001
1000
0100
0010
0011
0000
0001
1000
,
0000
1000
0010
0100
0110
0000
0001
0000
,
1001
0001
0100
0010
0021
0000
1030
0001
,
0000
0001
0010
0000
0110
0000
1000
0000
,
0001
0000
0010
0000
0100
0000
1000
0100
1000
0000
0001
0000
0100
0000
0010
0100
,
0010
0000
1000
0000
0010
0000
0100
0000
0002
0000
0103
0000
0010
0000
1000
0010
,
1000
0000
0001
0000
0010
0000
0001
0100
0001
0000
0100
0000
0010
0000
1000
0000
,
1001
1000
1001
1001
0000
0220
0000
0330
,
1001
1000
0001
1000
1020
0000
0130
0001
,
0000
1000
0001
0010
0011
0000
1000
0000
,
1001
1000
0001
0100
1200
0000
0301
0010
,
0000
0000
0010
0000
0100
0000
0000
0000
1000
0000
0000
0100
0000
0000
0010
0000
,
0001
0000
0010
0000
0001
0000
1000
0001
0010
0000
0100
0000
0010
0000
0110
0000
,
0100
0000
1000
0000
0100
0000
1000
0001
0100
0000
0001
0000
0100
0000
0110
0000
,
0010
0000
1000
0000
0010
0000
0100
0001
0100
0000
0001
0000
1000
0000
1001
0000
,
0001
0000
0010
0000
0100
0000
1000
0100
1000
0000
0001
0000
0001
0000
1000
0001
,
0100
0000
0000
0110
0000
0000
0110
0000
,
2002
0000
0000
3003
,
0012
0000
1003
0100
1000
0001
0010
0100
,
2000
0000
0000
0000
3010
0000
1000
0010
0100
0000
0001
0000
1000
0000
0100
0000
,
0020
0000
0000
0000
0130
0000
1000
0001
0010
0000
0001
0000
0010
0000
0100
0000
,
1000
0000
0001
0000
1000
0000
0000
0000
0001
0100
0001
0000
0100
0000
0010
0000
,
2010
0000
3001
0100
0001
1000
0010
0100
,
0002
0000
0000
0000
0013
0000
0001
0010
0100
0000
1000
0000
0010
0000
0100
0000
,
0020
0000
0000
0000
1030
0000
0001
1000
0010
0000
1000
0000
0010
0000
0002
0000
,
0000
0013
1000
0001
1000
0100
0010
0001
,
0021
0000
0000
0000
0130
0000
1000
0100
0010
0000
0001
0000
0010
0000
0100
0000
,
2000
0000
0000
0000
3010
0000
0100
0001
0100
0000
0010
0000
1000
0000
0001
0000
,
0020
0000
0000
0000
0031
0000
0010
0100
0010
0000
0001
0000
0010
0000
0100
0000
,
1000
0000
0001
1000
0001
0000
0100
0000
0020
0000
0000
2030
0000
0000
3010
0100
,
0002
0000
0000
0000
1003
0000
0001
0000
0020
0000
0000
0032
0000
0000
0013
0000
,
0200
0000
0000
0000
1300
0000
1000
0001
0100
0000
0010
0000
1000
0000
0010
0000
,
0100
0000
0001
0000
0100
0000
0001
0100
0010
0000
0100
0000
0001
0000
1000
0000
,
0001
0000
0010
0000
0100
0000
1000
0000
0001
0000
0001
0000
1000
0000
0100
0010
,
0001
0010
0001
1000
0010
0010
1000
0010
,
0100
0100
0001
1000
0100
0010
0100
1000
,
0002
0000
0000
0000
,
0000
0000
0000
0000
,
0203
0000
0000
0010
0000
0000
1000
0000
,
0000
0010
0000
0000
0001
0000
0000
0000
,
0000
0000
0000
0000
,
0000
0000
0000
0000
0000
0000
0000
0000
0000
0000
0000
0000
0000
0000
0000
0300
,
0120
0000
0000
0000
,
0000
0000
0000
0000
2000
0000
0000
0000
0030
0000
0000
0000
,
0002
0000
0000
0000
,
0000
0000
0000
0000
,
3003
0000
0000
0000
;

//---------------dance-double - Telperion----------------
#NOTES:
     dance-double:
     Telperion:
     Challenge:
     8:
     0.468,0.554,0.101,0.148,0.062,388.000,13.000,19.000,0.000,0.000,0.000,0.468,0.554,0.101,0.148,0.062,388.000,13.000,19.000,0.000,0.000,0.000: // measure 0
00000000
00000000
00000000
00000000
,  // measure 1
00000000
00000000
00000000
00000000
,  // measure 2
00000000
00000000
00000000
00000000
,  // measure 3
00000000
00000000
00000000
00000000
,  // measure 4
00000000
00000000
00000000
00000000
,  // measure 5
00000000
00000000
00000000
00000000
,  // measure 6
00000000
00000000
00000000
00000000
,  // measure 7
00000000
00000000
00000000
00000000
,  // measure 8
00000000
00000000
00000000
00000000
,  // measure 9
00020020
00000000
00000000
00030000
,  // measure 10
00000200
00000000
00000000
00000000
00000030
00001000
00000000
00000302
,  // measure 11
00002000
00000003
00003200
00000000
,  // measure 12
00020000
00000000
00000000
00000000
00030300
00010000
00001000
00010000
,  // measure 13
00100000
00000000
01000000
00000000
10000000
01000000
00010000
00000000
,  // measure 14
01000000
00000000
00100000
00000000
00010000
00001000
00000100
00000000
,  // measure 15
00000001
00000000
00001000
00000000
00000001
00000010
00001000
00000000
,  // measure 16
00000010
00000100
00001000
00000000
00000001
00000010
00001000
00010000
,  // measure 17
00200000
00000000
00000000
00000000
,  // measure 18
00000000
00000000
00000000
00000000
,  // measure 19
00300000
00000000
00000000
00000000
,  // measure 20
00000000
00000000
00000000
00000000
,  // measure 21
10000000
00010000
00100000
01000000
10000000
01000000
00010000
00001000
,  // measure 22
00000100
00000010
00000100
00000010
00001000
00000001
00001000
00000000
,  // measure 23
00000010
00001000
00000010
00000100
00000001
00000100
00001000
00010000
,  // measure 24
01000000
00000000
00100000
00000000
01000000
00000000
00000000
00000000
10000000
00000000
00000000
01000000
00000000
00000000
00010000
00000000
,  // measure 25
00001000
00000000
01000000
00000000
00001000
00000000
00100000
00000000
01000000
00000000
00000000
00100000
00000000
00000000
00001000
00000000
,  // measure 26
00010000
00001000
00000010
00001000
00010000
00100000
00010000
00001000
,  // measure 27
00000100
00000010
00001000
00001000
00000001
00000010
00000001
00000000
,  // measure 28
00001000
00000001
00010000
00000010
01000000
00001000
00100000
01000000
,  // measure 29
10000000
00010000
01000000
00100000
00010000
00100000
01000000
00001000
,  // measure 30
00010000
01000000
10000000
01000000
00010000
00001000
00000100
00000001
,  // measure 31
00001000
00000001
00000010
00000100
00001000
00000010
00010000
00001000
,  // measure 32
00000100
00001000
00010000
01000000
00100000
01000000
10000000
00010000
,  // measure 33
01000000
00010000
01000000
00100000
00001000
00000010
00000100
00000001
,  // measure 34
00000010
00000100
00000001
00001000
00000010
00000100
00000001
00001000
,  // measure 35
00000010
00001000
00010000
00001000
00100000
00001000
01000000
00000000
,  // measure 36
01100000
00000000
01100000
10010000
00000000
22000000
00000000
33000000
,  // measure 37
10000000
01000000
00010000
00001000
00000010
00000000
00001000
00010000
,  // measure 38
00000000
00100000
00010000
00001000
00000100
00000000
00000001
00000000
,  // measure 39
00000001
00000100
00001000
00010000
00100000
10000000
01000000
00100000
,  // measure 40
00000000
01000000
00100000
01000000
10000000
00000000
00010000
00000000
,  // measure 41
10000000
00000000
01000000
00000000
10000000
00000000
01000000
10000000
00100000
00000000
01000000
00000000
00100000
00000000
01000000
00010000
,  // measure 42
00100000
00000000
00001000
00000000
00100000
00000000
00001000
00010000
00001000
00000000
00010000
00000000
00000100
00000000
00000010
00000000
,  // measure 43
00000001
00000000
00000010
00000000
00000001
00000000
00000010
00000100
00001000
00000000
00000100
00000000
00001000
00000000
00000001
00000000
,  // measure 44
00001001
00000000
00001010
00001010
00000000
00000202
00000000
00000303
,  // measure 45
00000001
00000100
00001000
00010000
00100000
00000000
00010000
00001000
,  // measure 46
00000000
00000010
00001000
00010000
01000000
00000000
10000000
00000000
,  // measure 47
00010000
10000000
00100000
00010000
00001000
00000100
00000010
00000001
,  // measure 48
00000000
00000000
00000010
00000000
00000100
00000000
00000010
00000000
00001000
00000000
00000000
00000001
00000000
00000000
00000010
00000000
,  // measure 49
00000001
00000000
00000010
00000000
00000001
00000000
00000100
00000010
00001000
00000000
00000010
00000000
00001000
00000000
00000100
00000000
,  // measure 50
00010000
00000000
00001000
00000000
00010000
00000000
00001000
00010000
00001000
00000000
00100000
00000000
00010000
00000000
10000000
00000000
,  // measure 51
00000000
10000000
00100000
10000000
00010000
01000000
00100000
00010000
,  // measure 52
00000000
00000000
10000000
00000000
01000000
00000000
00010000
00000000
00100000
00000000
00100000
00000000
00010000
00000000
10000000
00010000
,  // measure 53
10000000
00000000
00000000
01001000
00000000
00000000
00010010
00000000
,  // measure 54
00001001
00000000
00000000
00000000
00001000
00000100
00000001
00001000
,  // measure 55
00020000
00000000
00000000
00000000
00031000
00100000
00010000
01000000
,  // measure 56
00010000
00000000
01000000
10000000
00000000
01000000
00100000
01000000
,  // measure 57
00010000
10000000
01000000
00000000
01000000
10000000
00100000
01000000
,  // measure 58
00000000
01000000
00010000
00000000
00010000
01000000
10000000
00010000
,  // measure 59
00002000
00000000
00000000
00000000
00013000
00000010
00001000
00000100
,  // measure 60
00001000
00000000
00000100
00000001
00000000
00000100
00000010
00000001
,  // measure 61
00001000
00000000
00001001
00000000
00000001
00000100
00000010
00000002
,  // measure 62
00000000
00000013
00001000
00000000
00001000
00000100
00000001
00001000
,  // measure 63
00020000
00000000
00000000
00000000
00031000
00100000
00010000
10000000
,  // measure 64
01000000
00000000
10000000
00100000
00000000
01000000
00100000
01000000
,  // measure 65
00010000
10000000
01000000
00000000
01000000
10000000
00100000
01000000
,  // measure 66
00000000
00000000
00010000
00000000
00000000
00000000
01000000
00000000
10000000
00000000
00000000
01000000
00000000
00000000
00010000
01000000
,  // measure 67
00001000
00000000
00000000
00000000
00010000
00000000
00000100
00000000
00000001
00000000
00000000
00000100
00000000
00000000
00001000
00000000
,  // measure 68
00000001
00000000
00000100
00000001
00000010
00000100
00010000
01000000
,  // measure 69
10000000
00000000
01000000
00010000
00001000
01000000
00001000
00010000
,  // measure 70
00000000
00000000
00000100
00000000
00000100
00000000
00000000
00000000
00000001
00000000
00000000
00000100
00000000
00000000
00001000
00000100
,  // measure 71
00010000
00000000
00000000
00000000
00001000
00000000
01000000
00000000
10000000
00000000
00000000
01000000
00000000
00000000
00010000
00000000
,  // measure 72
00100000
00000000
01000000
10000000
01000000
00010000
00001000
00000100
,  // measure 73
00000020
00000000
00000000
00000000
,  // measure 74
00000200
00000000
00000000
00000000
00000000
00000000
00000000
00000000
00000000
00000000
00000000
00000000
00000000
00000000
00000000
00000000
00000000
00000000
00000000
00000000
00000000
00000000
00000000
00000000
00000000
00000000
00000000
00000000
00000000
00000000
00000000
00000300
,  // measure 75
00002000
00000000
00000000
00000000
,  // measure 76
00000000
00000000
00000000
00000000
,  // measure 77
00000000
00000000
00000000
00000000
,  // measure 78
00000000
00000000
00000000
00000000
,  // measure 79
00003030
00000000
00000000
00000000
;

//---------------dance-double - Telperion----------------
#NOTES:
     dance-double:
     Telperion:
     Beginner:
     10:
     0.387,0.511,0.608,0.631,0.016,186.000,78.000,81.000,62.000,20.000,0.000,0.387,0.511,0.608,0.631,0.016,186.000,78.000,81.000,62.000,20.000,0.000:
00000000
00000000
00000000
00000000
,
00000000
00000000
00000000
00000000
,
00000000
00000000
00000000
00000000
,
00000000
00000000
00000000
00000000
,
00000000
00000000
00000000
00000000
,
00000000
00000000
00000000
00000000
,
00000000
00000000
00000000
00000000
,
00022000
00000000
00000000
00000000
,
00000000
00000000
00000000
00030000
,
00103000
00000000
01000000
00000000
11000000
00000000
10000000
01000000
,
00010000
00000000
00001000
00000000
00000100
00000001
00000100
00000000
,
00000110
00000000
00001000
00000000
00000100
00000000
00010000
01000000
,
10000000
00010000
10000000
00000000
10010000
00100000
00000000
00100000
,
00010000
00000000
01000000
00000000
01100000
00000000
00100000
00010000
,
00001000
00000100
00000001
00000000
00001001
00000010
00000001
00000010
,
00000100
00000000
00001000
00000000
00001100
00000100
00001000
00000100
,
00020000
00000000
00000000
00000000
00030000
00000000
01000000
00000000
00000000
00000000
00000000
00000000
01100000
00000000
00000000
00100000
00000000
00000000
00010000
00000000
00000000
10000000
00000000
00000000
,
01000000
00100000
00010000
00100000
,
00001000
00010000
00000100
00000010
,
00000022
00000000
00000000
00000000
,
00000000
00000000
00000033
00000000
,
00022000
00000000
00000000
00000000
00000000
00000000
00000000
00000000
00200000
00000000
00000000
00000000
00000000
00000000
00000000
00033000
20020000
00000000
00000000
00000000
00000000
00000000
00000000
00300000
00200000
00000000
00000000
00000000
00000000
00000000
00000000
30300000
,
20230000
30300000
00000000
M0M00000
,
00012000
00000000
00000000
00000000
00000000
00000000
00000000
00000000
00100010
00000000
00000000
00000000
00000000
00000000
00000000
00003000
00012000
00000000
00000000
00000000
00000000
00000000
00000000
00000000
00200020
00000000
00000000
00000000
00000000
00000000
00000000
00003000
,
00000200
00300330
00000000
00M00MM0
,
00022000
00000000
00030000
00203000
,
22000000
00000000
33300000
00000000
,
02000200
00000000
03000300
0M000M00
,
00200020
00000000
00000000
00000000
,
00000000
00000000
00000000
00000000
00000000
00000000
00000000
00000000
00011000
00000000
00000000
00000000
00000000
00000000
00000000
00300030
00200020
00000000
00000000
00000000
00000000
00000000
00000000
00000000
00311030
00000000
00000000
00000000
00000000
00000000
00000000
00000000
,
00002020
00000000
00003000
0000M000
,
00000200
00000000
00000000
00000300
,
00020000
00000000
00030030
000M00M0
,
00000200
20200000
00000000
30300000
,
10100000
01010000
00100310
00M00MM0
,
00222020
00000000
00333030
00MMM0M0
,
00011000
01000000
00000100
00011000
000MM000
00022000
00000000
00000000
,
00000000
00000000
00000000
00000000
,
00000000
00000000
00000000
00033000
,
02002000
00000000
00000000
00003000
00200000
00000000
00000000
03000000
,
20300000
00000000
32000000
00000000
,
03200000
00000000
00302000
00000000
,
02000000
00000000
03003000
00000000
,
00022000
00000000
00033000
00000000
,
00100100
00002000
02200000
03303000
00000000
M1MMMMM0
00000000
00000000
,
00000100
00002010
01003000
01100000
,
00022000
00000000
00000000
00000000
00000000
00000000
00000000
00000000
00000000
00000000
00000000
00000000
00000000
00000000
00000000
00033000
000MM000
00000000
00000000
00000000
00000000
00000000
00000000
00000000
00000000
00000000
00000000
00000000
00000000
00000000
00000000
00000000
,
00000001
00000000
00000100
00000000
0000100M
000000M0
00000M00
0000M000
000M0000
00M00000
0M000000
M0000000
00000000
00000000
00000000
00000000
,
00011000
00000000
00101000
00101000
00101000
00000000
00M0M000
00000000
,
00101000
10000100
00011000
01000010
,
10000001
00011000
10000010
00101000
,
00000200
02220000
00000000
00000000
,
00000000
00000000
00000000
00000000
,
03330300
00000000
00000100
00010000
01000000
10000000
01000000
00010000
,
MMMMMMMM
00000000
00000000
00000000
,
00011000
01000200
00100000
01000000
,
00000010
02000300
00100000
03001000
,
01200000
00300010
00000120
00100030
,
10010000
00000000
00201000
00000000
,
00000020
00000000
00000000
00000030
,
000000M0
00302000
00M00000
00013000
,
02000200
00000000
00000000
00000000
,
00000000
00000000
00100000
00100000
,
03100300
01000100
00011000
01000100
,
00110000
01000100
00001010
01000100
,
00100200
00100000
00010000
00001000
,
00000010
000000M0
00000310
MMMMMMMM
,
00001001
00001000
10010000
00010000
,
00002002
00000000
00003003
00010000
,
00021000
00000000
00032000
00000000
,
00023000
00000000
00031000
01001000
,
0M010000
00101000
00M10000
00101000
,
00M10000
00101000
00M01000
00100010
,
01002000
00100000
00000010
00000100
,
00020000
00000000
00000000
00033000
,
02000200
00000000
00000000
00000000
,
00000000
00000000
00000000
00000000
,
00000000
00000000
00000000
00000000
,
00000000
00000000
00000000
00000000
,
03000300
00000000
00000000
00000000
,
00000000
00000000
00000000
00000000
,
00000000
00000000
00000000
00000000
,
M000000M
00000000
00000000
00000000
;
