#TITLE:Vogue;
#SUBTITLE:;
#ARTIST:Madonna;
#TITLETRANSLIT:;
#SUBTITLETRANSLIT:;
#ARTISTTRANSLIT:;
#GENRE:;
#CREDIT:;
#MENUCOLOR:;
#BANNER:;
#BACKGROUND:;
#LYRICSPATH:;
#CDTITLE:./CDTitles/SpyHunter29 Originals.png;
#MUSIC:Vogue.mp3;
#OFFSET:-0.050;
#SAMPLESTART:57.954;
#SAMPLELENGTH:12.000;
#SELECTABLE:YES;
#LISTSORT:;
#BPMS:0.000=116.000;
#STOPS:;
#TICKCOUNT:0.000=2;
#BGCHANGES:-1.000=Vogue.avi=1.000=0=0=0,
99999=-nosongbg-=1.000=0=0=0 // don't automatically add -songbackground-
;
#KEYSOUNDS:;
#ATTACKS:;

//---------------dance-single - BEGINNER----------------
#NOTES:
     dance-single:
     BEGINNER:
     Beginner:
     1:
     0.137,0.235,0.050,0.000,0.000:
0000
0000
0000
0000
,
0000
0000
0000
0000
,
0000
0000
0000
0000
,
0000
0000
0000
0000
,
1000
1000
0000
0000
,
0001
0001
0000
0000
,
1000
1000
0000
0000
,
0001
0001
0000
0000
,
0010
0010
0000
0000
,
0100
0100
0000
0000
,
0010
0010
0000
0000
,
0100
0100
0100
0100
,
0100
0000
0000
0000
,
1000
0000
0001
0000
,
1000
0000
0100
0000
,
0001
0000
0000
0000
,
0010
0000
0000
0000
,
0001
0000
1000
0000
,
0001
0000
0010
0000
,
1000
0000
0000
0000
,
0001
0001
0000
0000
,
1000
1000
0000
0000
,
0001
0001
0000
0000
,
1000
1000
0000
0000
,
0010
0010
0000
0000
,
0100
0100
0000
0000
,
0010
0010
0000
0000
,
0100
0100
0100
0100
,
0100
0000
0100
0000
,
0010
0000
0010
0000
,
1000
0000
0001
0000
,
1000
0000
0001
0000
,
0010
0000
0010
0000
,
0100
0000
0100
0000
,
1000
0000
0001
0000
,
1000
0000
0001
0000
,
1000
0000
1000
0000
,
0010
0000
0100
0000
,
0001
0000
0001
0000
,
0100
0000
0010
0000
,
1000
1000
1000
0000
,
0001
0001
0001
0000
,
0100
0100
0100
0000
,
0010
0010
0010
0000
,
1000
0000
0000
0000
,
0001
0000
0000
0000
,
1001
1001
1001
1001
,
1001
0000
0000
0000
;

//---------------dance-single - BASIC----------------
#NOTES:
     dance-single:
     BASIC:
     Easy:
     3:
     0.234,0.285,0.110,0.190,0.000:
0000
0000
0000
0000
,
0000
0000
0000
0000
,
0000
0000
0000
0000
,
0000
0000
0000
0000
,
2000
3001
0000
0000
,
0002
1003
0000
0000
,
0010
1000
0000
0000
,
0010
0001
0000
0000
,
0200
1300
0000
0000
,
0002
0013
0000
0000
,
0100
0001
0000
0000
,
0010
1000
0000
0000
,
0010
0000
1000
0000
,
0001
0100
0001
0100
,
0000
1000
0010
0100
,
0001
0000
1000
0000
,
0001
1000
0001
0000
,
1000
0100
0010
0001
,
0000
0010
0100
1000
,
0001
0001
1000
1000
,
0010
1000
0001
0100
,
0001
1000
0001
0100
,
0001
0010
0100
1000
,
0002
0000
0003
0000
,
0010
0100
1000
0001
,
0100
0001
0010
0100
,
0110
2002
3003
0100
,
0010
1000
0100
0000
,
1100
0000
0000
1100
0000
0000
0000
0000
,
0001
1000
0001
0100
,
0002
0013
0002
0013
,
0000
1000
0100
0001
,
0011
0000
0000
0011
0000
0000
0000
0000
,
0001
0010
0001
0100
,
0020
1030
0020
1030
,
0001
0100
0001
0010
,
2000
3000
0002
0003
,
1000
0100
0010
0001
,
0200
0300
0020
0030
,
0100
0001
1000
0010
,
1000
1000
0010
0100
,
0001
0001
0010
0100
,
1000
0100
0001
0100
,
1000
0010
0001
0010
,
2000
3000
0002
0003
,
1000
0100
0010
0001
,
1001
1001
1001
1001
,
2002
0000
3003
0000
;

//---------------dance-single - DIFFICULT----------------
#NOTES:
     dance-single:
     DIFFICULT:
     Medium:
     5:
     0.358,0.382,0.330,0.260,0.000:
0000
0000
0000
0000
,
0000
0000
0000
0000
,
0000
0000
0000
0000
,
0000
0000
0000
0000
,
0001
0000
1001
0000
0100
0001
0100
0000
,
0010
1001
0100
0001
,
0100
0110
0010
1000
,
0100
0110
0010
0001
,
0100
1001
0010
1000
,
0100
0000
0010
0000
0001
1000
0100
0000
,
0010
0100
1000
0001
,
1000
0001
1000
0000
0001
1000
0001
0000
,
0110
0010
2000
3000
,
0001
0000
0100
0000
1000
0100
1000
0100
,
0000
0010
0001
0010
0001
0000
1000
0000
,
0100
0000
0010
0000
0000
0001
0000
1000
,
0001
1000
0020
0030
,
1000
0000
0100
0000
0010
0001
1000
0100
,
0000
0100
1000
0001
0010
0000
1000
0000
,
1100
0011
1100
0011
,
0002
0000
0103
0000
0010
1000
0010
0000
,
2000
0000
3100
0000
0010
0000
0001
1000
,
0001
0010
1000
0100
,
0001
0010
1000
0100
,
0120
0000
0031
0000
1000
0100
1000
0000
,
0120
0000
1030
0000
0001
0100
0001
0000
,
0110
2002
3003
0100
,
0010
1000
0001
0100
,
0202
0000
0303
2020
0000
0000
3030
0000
,
1000
0000
0001
0000
0010
0100
1000
0100
,
0020
0031
2000
3100
,
0000
1001
0000
0011
0000
0110
0000
0000
,
0220
0000
0330
2002
0000
0000
3003
0000
,
0100
0000
0010
0000
1000
0001
0100
0001
,
0020
0031
2000
3100
,
0101
1100
0101
0011
,
2000
0000
3100
0000
0001
0100
1000
0000
,
0002
0000
0103
0000
1000
0100
0001
0000
,
0020
0000
1030
0000
0001
0010
0100
0000
,
0020
0000
0031
0000
1000
0010
0100
0000
,
0010
1000
0100
1001
,
0010
0001
0100
1001
,
1000
0100
1000
0100
1000
0000
0010
0000
,
0001
0100
0001
0100
0001
0000
0010
0000
,
0110
1000
0001
0100
,
0001
0000
0010
0000
1000
0100
0001
0000
,
1001
1001
0110
0110
,
2002
0000
0000
3003
;

//---------------dance-single - EXPERT----------------
#NOTES:
     dance-single:
     EXPERT:
     Hard:
     7:
     0.427,0.479,0.140,0.160,0.210:
0000
0000
0000
0000
,
0000
0000
0000
0000
,
0000
0000
0000
0000
,
0000
0000
0000
0000
,
1000
0100
0000
0100
0000
0000
0010
0000
0000
0001
0000
0000
0100
0000
0000
0000
,
0010
1000
0000
1000
0000
0000
0001
0000
0000
0100
0000
0000
0010
0000
0000
0000
,
0100
0010
0000
0010
0000
0000
1000
0000
0000
0001
0000
0000
0100
0000
0000
0000
,
0001
0100
0000
0100
0000
0000
0010
0000
0000
1000
0000
0000
0100
0000
0000
0000
,
0010
0001
0000
1000
0000
0000
0100
0000
0000
1000
0000
0000
0001
0000
0000
0000
,
1000
0001
0000
0100
0000
0000
0001
0000
0000
1000
0000
0000
0010
0000
0000
0000
,
1000
0010
0000
0100
0000
0000
0001
0000
0000
0010
0000
0000
0100
0000
0000
0000
,
1000
0001
1000
0001
1000
0000
0001
0100
0000
1000
0100
0000
0010
0100
0010
0000
,
1001
0000
0000
0000
0010
0000
0000
0010
0001
0000
0000
0000
0100
0000
0000
0000
,
0001
0000
0000
0001
0100
0000
0000
0100
0010
0000
1000
0000
0100
0000
0010
0000
,
0000
0001
0010
0100
1000
0001
0100
0010
,
0000
1000
0100
0010
0001
0100
0010
1000
,
0001
0000
0000
0000
0100
0000
0000
0010
1000
0000
0000
0000
0100
0000
0000
0000
,
1000
0000
0000
1000
0001
0000
0000
0001
0010
0000
0100
0000
1000
0000
0001
0000
,
0000
1000
0010
0100
0001
0010
0100
1000
,
0000
0000
0000
0001
0100
0000
0010
0000
1000
0000
0100
0000
0010
0000
0001
0000
,
2000
0000
0100
0000
3001
0100
0010
1000
,
0002
0000
0010
0000
1003
0100
0010
0001
,
1000
0100
1000
0001
0100
0000
0001
0100
,
1000
0100
0010
0001
,
0002
0000
0100
0000
1003
0100
0010
0001
,
2000
0000
0010
0000
3001
0010
0100
1000
,
0110
0000
2002
0000
3003
1000
0100
0001
,
0000
0010
0000
1000
0001
0100
0010
0000
,
1000
0100
0000
0000
0101
0000
0000
0000
1000
0000
0000
0100
0000
0000
0001
0000
,
0000
0010
1000
0000
0010
1000
0001
0100
,
0020
0000
1030
0100
0020
0000
0031
0100
,
0000
0110
0000
1010
0000
1001
0000
0000
,
0001
0100
0000
0000
1001
0000
0000
0000
1000
0000
0000
0100
0000
0000
0010
0000
,
0000
0001
1000
0000
0010
1000
0001
0100
,
0020
0000
1030
0001
0020
0000
0130
1000
,
0000
0100
0000
0010
0000
0001
0100
0010
,
1000
0001
0200
0000
0301
1000
0200
0000
,
1300
0100
0001
0100
1000
0001
0100
0000
,
0001
0100
0020
0000
1030
0100
0020
0000
,
0031
0100
0010
1000
0001
0010
0100
0000
,
1000
0100
0000
0000
0010
0000
0001
0000
0010
0000
0100
0000
1000
0000
0000
0000
,
0001
0100
0000
0000
0010
0000
1000
0000
0010
0000
0100
0000
0001
0000
0000
0000
,
1000
0000
0100
0000
1000
0000
0100
0000
0010
0000
0001
0000
0010
0001
0000
0000
,
0001
0000
0100
0000
0001
0000
0100
0000
0010
0000
1000
0000
0010
1000
0000
0000
,
0110
0000
0000
0000
1000
0000
0000
0000
0100
0000
0000
0010
0000
0000
0001
0000
,
0000
1000
0100
0010
0001
1000
0100
0000
,
1001
1001
0110
0110
,
2002
0000
0000
0000
,
3003
0000
0000
0000
;
